osu file format v9

[General]
AudioFilename: Hatsune miku-infinity.mp3
AudioLeadIn: 1000
PreviewTime: 3692
Countdown: 0
SampleSet: Normal
StackLeniency: 0.4
Mode: 0
LetterboxInBreaks: 0

[Editor]
Bookmarks: 74427,146427,219690
DistanceSpacing: 1.5
BeatDivisor: 4
GridSize: 4

[Metadata]
Title:Infinity
Artist:Hatsune Miku
Creator:kanpakyin
Version:Collab
Source:cosMo
Tags:KanaRin eveless Sandpig aabc271 TW-KUMA01 Vocaloid2 goodbye bousouP Alace

[Difficulty]
HPDrainRate:7
CircleSize:4
OverallDifficulty:6
ApproachRate:9
SliderMultiplier:1.6
SliderTickRate:1

[Events]
//Background and Video events
0,0,"BG.jpg"
//Break Periods
2,112521,114248
2,141574,145827
2,189416,198879
//Storyboard Layer 0 (Background)
//Storyboard Layer 1 (Fail)
//Storyboard Layer 2 (Pass)
//Storyboard Layer 3 (Foreground)
Sprite,Foreground,Centre,"kanpakyin.png",320,240 F,0,1164,1795,0,1 M,0,1164,2111,100,373,117,373 F,0,1795,73795,1 M,0,2111,3058,117,373,129,373 M,0,3058,3690,129,373,133,373 M,0,3690,73795,133,373 M,0,73795,74427,133,373 F,0,73795,74427,1,0
Sprite,Foreground,Centre,"kanarin.png",320,240 F,0,73795,74427,0,1 M,0,73795,74742,111,309,127,309 M,0,74742,75690,127,309,139,309 M,0,75690,76321,139,309,143,309 M,0,76321,145795,143,309 M,0,145795,146427,143,309 F,0,145795,146427,1,0
Sprite,Foreground,Centre,"sandpig.png",320,240 F,0,145795,146427,0,1 M,0,145795,146742,565,373,550,373 M,0,146742,147690,550,373,538,373 M,0,147690,148321,538,373,535,373 M,0,148321,219058,535,373 M,0,219058,219690,535,373 F,0,219058,219690,1,0
Sprite,Foreground,Centre,"eveless.png",320,240 F,0,219058,219690,0,1 M,0,219058,220006,561,309,545,309 M,0,220006,220953,545,309,532,309 M,0,220953,221585,532,309,528,309 M,0,221585,280953,528,309 F,0,280321,280953,1,0
Sprite,Foreground,Centre,"kanpakyin.png",320,240 M,0,3690,4321,133,373 F,0,3690,4321,1,0 S,0,3690,4321,1,2.132363
Sprite,Foreground,Centre,"kanarin.png",320,240 M,0,74427,75058,121,309 F,0,74427,75058,1,0 S,0,74427,75058,1,2.37216
Sprite,Foreground,Centre,"sandpig.png",320,240 M,0,146427,147058,553,373 F,0,146427,147058,1,0 S,0,146427,147058,1,3.29376
Sprite,Foreground,Centre,"eveless.png",320,240 M,0,219690,220321,551,309 F,0,219690,220321,1,0 S,0,219690,220321,1,3.43712
//Storyboard Sound Samples
//Background Colour Transformations
3,100,163,162,255

[TimingPoints]
1164,315.789473684211,4,2,1,90,1,0
3611,-100,4,1,0,60,0,0
3769,-100,4,1,1,55,0,0
14032,-100,4,2,1,51,0,0
14190,-100,4,1,1,51,0,0
14664,-100,4,2,1,51,0,0
14821,-100,4,1,1,51,0,0
15295,-100,4,2,1,51,0,0
15453,-100,4,1,1,51,0,0
15927,-100,4,2,1,51,0,0
16085,-100,4,1,1,51,0,0
16558,-100,4,2,1,51,0,0
16716,-100,4,1,1,51,0,0
17193,-100,4,2,1,51,0,0
17351,-100,4,1,1,51,0,0
17821,-100,4,2,1,51,0,0
17979,-100,4,1,1,51,0,0
18453,-100,4,2,1,51,0,0
18611,-100,4,1,1,51,0,0
18848,-100,4,2,1,51,0,0
18850,-100,4,2,1,51,0,0
19164,-100,4,1,1,51,0,0
19166,-100,4,1,1,51,0,0
20032,-100,4,2,1,51,0,0
20348,-100,4,1,1,51,0,0
20506,-100,4,2,1,51,0,0
20979,-100,4,1,1,51,0,0
21137,-100,4,2,1,51,0,0
22795,-100,4,1,1,51,0,0
32506,-100,4,2,1,51,0,0
33927,-100,4,1,1,51,0,0
39058,-133.333333333333,4,1,1,51,0,0
39058,-133.333333333333,4,1,1,51,0,0
49164,-100,4,1,1,51,0,0
49164,-100,4,1,1,51,0,0
83269,-133.333333333333,4,1,1,51,0,0
84532,-100,4,1,1,51,0,0
97795,-100,4,2,1,51,0,0
117690,-100,4,1,1,51,0,0
131269,-133.333333333333,4,1,1,51,0,0
146348,-100,4,1,1,51,0,0
183532,-100,4,1,1,64,0,0
184164,-100,4,1,1,38,0,0
184953,-100,4,1,1,43,0,0
185585,-100,4,1,1,46,0,0
188348,-100,4,1,1,51,0,0
188664,-100,4,1,1,57,0,0
199164,-100,4,2,1,56,0,0
199795,-100,4,1,1,56,0,0
199874,-100,4,2,1,56,0,0
200427,-100,4,1,1,56,0,0
201532,-100,4,2,1,56,0,0
202242,-100,4,1,1,56,0,0
202400,-100,4,2,1,56,0,0
202874,-100,4,1,1,56,0,0
203032,-100,4,2,1,56,0,0
203427,-100,4,1,1,56,0,0
203742,-100,4,2,1,56,0,0
204058,-100,4,1,1,56,0,0
204453,-100,4,2,1,56,0,0
204848,-100,4,1,1,56,0,0
204927,-100,4,2,1,56,0,0
205479,-100,4,1,1,56,0,0
206269,-100,4,2,1,56,0,0
206742,-100,4,1,1,56,0,0
207532,-100,4,2,1,56,0,0
207690,-100,4,1,1,56,0,0
207848,-100,4,2,1,56,0,0
208006,-100,4,1,1,56,0,0
208164,-100,4,2,1,56,0,0
208321,-100,4,1,1,49,0,0
208637,-100,4,1,1,56,0,0
208953,-100,4,1,1,60,0,0
209269,-100,4,1,1,63,0,0
209585,-100,4,1,1,65,0,0
219690,-100,4,1,1,70,0,0
281900,-100,4,2,1,70,0,0

[Colours]
Combo1 : 149,134,115
Combo2 : 176,111,147

[HitObjects]
255,194,1164,1,2
255,194,1795,1,2
255,194,2427,1,2
255,194,3058,1,2
255,194,3690,6,0,B|156:209,1,80,8|2
179,286,4006,2,0,B|102:309,2,80,8|0|0
258,290,4479,1,0
338,291,4637,2,0,B|378:212|338:131,1,160,8|0
259,152,5111,5,0
208,89,5269,1,8
138,129,5427,1,0
151,207,5585,1,0
228,224,5742,1,0
198,155,5900,1,8
64,256,6058,1,0
208,328,6216,5,4
281,296,6374,1,0
281,296,6453,1,0
281,296,6532,2,0,B|374:283,1,80,8|0
421,92,6848,2,0,B|328:100,1,80,8|0
175,221,7164,2,0,B|274:206,1,80,8|0
81,128,7479,6,0,B|-5:137,3,80,4|0|8|0
218,77,8111,1,0
261,230,8269,1,0
400,150,8427,1,8
457,299,8585,1,0
378,283,8742,6,0,B|294:266|213:290,1,160,8|0
421,215,9216,1,2
421,215,9374,2,0,B|469:213|512:212,2,80,8|0|0
355,168,9848,1,2
355,168,9927,1,0
355,168,10006,2,0,B|321:141|321:141|270:129,1,80,8|0
213,249,10321,2,0,B|241:216|241:216|297:206,1,80,8|0
450,282,10637,6,0,B|290:283,2,160,8|8|8
215,331,11427,1,0
147,288,11585,1,2
67,288,11742,1,2
103,216,11900,1,8
103,216,12216,1,8
297,331,12532,5,0
365,288,12690,1,0
445,288,12848,1,2
409,216,13006,1,2
409,216,13164,1,8
409,216,13479,1,8
257,163,13795,6,0,B|218:121|168:113,1,80,8|0
171,197,14111,2,0,B|84:172|0:200,2,160,2|8|0
236,243,14900,1,0
236,243,15058,2,0,B|234:298|240:347,2,80,8|0|2
387,190,15690,1,8
266,84,16006,1,0
236,243,16321,5,8
282,177,16479,1,0
282,177,16637,2,0,B|335:180|335:180|380:195|380:195|441:196,2,160,2|8|0
486,123,17427,6,0,B|389:120,1,80,0|8
224,252,17742,2,0,B|332:254,1,80,0|2
303,253,18216,1,8
303,253,18532,2,0,B|280:301|315:353,2,80,0|0|4
323,218,18927,1,0
339,181,19006,1,2
335,141,19085,1,0
322,102,19164,2,0,B|306:55|325:9,2,80,0|0|8
195,199,19795,1,0
195,199,20111,5,4
85,82,20427,2,0,B|91:142|101:176,1,80,8|0
62,289,20742,2,0,B|53:235|34:195,1,80,2|0
195,199,21058,2,0,B|100:200,2,80,8|2|4
256,192,21453,12,4,22637
161,105,23269,5,8
161,105,23900,1,8
367,127,24216,1,8
356,334,24532,1,8
149,307,24848,1,8
166,228,25006,6,0,B|155:201,2,26.6666666666667
166,228,25164,2,0,B|216:225|247:252|247:252|281:232|340:229,1,160
346,205,25585,1,0
340,162,25690,1,0
311,130,25795,2,0,B|274:83|217:63|162:73,1,160
140,102,26216,5,0
134,144,26321,1,0
149,184,26427,1,2
172,219,26532,1,0
170,261,26637,1,0
150,299,26742,2,0,B|97:308,2,53.3333333333333
188,317,27058,2,0,B|249:336,1,53.3333333333333,2|0
235,290,27269,2,0,B|287:289,1,53.3333333333333
278,247,27479,2,0,B|342:227,1,53.3333333333333
294,189,27690,5,2
268,142,27795,1,0
283,91,27900,1,0
330,65,28006,1,0
380,82,28111,1,0
409,126,28216,1,0
410,179,28321,1,2
410,219,28427,1,2
418,260,28532,1,2
407,301,28637,1,2
145,77,28953,6,0,B|98:109|98:205|155:225,1,160,4|8
365,348,29427,1,0
365,348,29585,2,0,B|412:316|412:220|355:200,1,160,2|8
108,151,30058,1,0
108,151,30216,6,0,B|290:151,1,160,4|8
377,242,30690,2,0,B|345:215|345:215|284:212,1,80,0|2
212,312,31006,2,0,B|263:313|263:313|299:272,1,80,0|8
120,332,31321,1,0
120,332,31400,1,0
120,332,31479,6,0,B|119:160,1,160,0|8
240,224,31953,1,0
349,90,32111,2,0,B|349:258,1,160,2|8
203,181,32585,5,0
194,339,32742,1,6
63,245,32900,1,2
135,102,33058,1,0
209,243,33216,1,2
66,170,33374,1,0
66,170,33453,1,0
66,170,33532,1,0
66,170,33611,1,0
66,170,33690,2,0,B|146:181|225:170,1,160,2|4
300,199,34164,5,0
300,199,34242,1,0
300,199,34321,2,0,B|254:301,2,80,8|0|2
351,298,34795,2,0,B|316:375,1,80,0|8
184,280,35111,2,0,B|137:367,2,80,0|4|2
186,199,35585,5,8
185,175,35664,1,0
185,151,35742,1,0
185,126,35821,1,0
184,104,35900,2,0,B|184:19,2,80,2|0|8
264,105,36374,1,0
264,105,36532,6,0,B|284:147|334:158,1,80,0|0
264,279,36848,2,0,B|287:235|338:225,1,80,8|0
233,194,37164,2,0,B|67:192,2,160,2|0|4
315,247,37953,1,0
315,247,38032,1,0
315,247,38111,2,0,B|371:248|371:248|418:258|418:258|496:260,2,160,8|2|8
152,118,39058,6,0,B|111:112|67:108,2,59.9999982118607,4|2|2
236,124,39532,2,0,B|417:124,1,179.999994635582,0|2
194,203,40164,1,0
194,203,40321,2,0,B|202:241|202:241|191:276,1,59.9999982118607,0|0
285,344,40637,2,0,B|271:313|271:313|280:272,1,59.9999982118607,8|0
343,241,40953,6,0,B|480:241,2,119.999996423721,2|8|4
292,173,41742,1,0
292,173,41821,1,0
292,173,41900,2,0,B|213:168,1,59.9999982118607,8|0
48,208,42216,2,0,B|121:210,1,59.9999982118607,2|2
184,245,42532,1,8
184,245,42848,5,0
318,317,43006,1,0
415,205,43164,1,8
335,229,43321,1,2
399,72,43479,1,2
267,157,43637,1,0
100,127,43795,1,8
100,127,44111,6,0,B|57:190|100:241,1,119.999996423721,4|8
229,332,44585,1,0
229,332,44742,2,0,B|263:272|224:215,1,119.999996423721,2|8
434,210,45216,1,0
434,210,45374,2,0,B|300:210,3,119.999996423721,4|8|2|8
279,133,46479,1,0
249,126,46558,1,0
219,131,46637,2,0,B|95:130,2,119.999996423721,2|8|4
256,192,47348,12,0,48848
88,193,49164,6,0,B|34:172,4,53.3333333333333,2|0|0|0|0
141,190,49690,1,0
138,243,49795,2,0,B|122:316,4,53.3333333333333,2|0|0|0|0
188,226,50321,1,0
234,253,50427,6,0,B|222:304,4,53.3333333333333,2|0|0|0|0
286,259,50953,1,0
311,305,51058,2,0,B|340:356,2,53.3333333333333,2|0|0
347,282,51374,1,0
366,244,51479,1,0
362,201,51585,1,0
340,164,51690,6,0,B|387:130,4,53.3333333333333,4|0|0|0|0
297,161,52216,1,0
282,120,52321,2,0,B|286:63,1,53.3333333333333,2|0
255,97,52532,2,0,B|202:69,1,53.3333333333333
219,112,52742,2,0,B|167:136,1,53.3333333333333
137,294,52953,6,0,B|115:265|115:265|64:254,1,80,2|0
37,143,53269,2,0,B|59:181|59:181|114:188,1,80,8|0
171,72,53585,2,0,B|144:107|144:107|88:116,1,80,2|0
194,169,53900,2,0,B|249:136|249:136|359:136,2,160,8|0|8
191,249,54690,5,8
189,329,54848,2,0,B|157:363|156:363|156:363|34:364,2,160,2|8|0
265,306,55637,1,0
289,274,55716,1,0
294,234,55795,2,0,B|289:185|236:154,1,80,8|0
258,38,56111,2,0,B|262:85|317:111,1,80,2|0
233,147,56427,1,8
233,147,56742,6,0,B|135:148,1,80,2|2
57,221,57058,1,8
82,338,57216,1,0
201,349,57374,1,2
243,236,57532,1,2
145,273,57690,1,8
308,376,57848,1,0
304,204,58006,5,2
321,124,58164,1,2
321,124,58242,1,0
321,124,58321,2,0,B|267:111|218:106,1,80,8|0
180,168,58637,2,0,B|114:161|70:170,1,80,2|2
243,236,58953,1,8
368,320,59111,1,0
428,192,59269,5,4
427,192,59585,1,8
304,56,59742,1,0
492,32,59900,1,2
445,97,60058,1,0
445,97,60137,1,0
445,97,60216,2,0,B|469:143|439:183,1,80,8|0
359,316,60532,6,0,B|338:278|364:230,1,80
473,58,60848,2,0,B|497:104|467:144,1,80,8|0
332,353,61164,2,0,B|311:315|337:267,1,80,2|0
257,233,61479,1,8
257,233,61795,6,0,B|177:265|91:229,1,160,0|8
305,156,62269,1,0
504,80,62427,2,0,B|424:48|338:84,1,160,0|8
271,55,62900,1,0
75,180,63058,6,0,B|133:163|133:163|143:115|204:93,1,160,4|8
258,156,63532,1,0
258,156,63690,2,0,B|258:318,1,160,2|8
63,91,64321,2,0,B|102:132|100:203|52:259,1,160,4|8
131,287,64795,1,0
131,287,64953,2,0,B|166:252|166:252|207:244,1,80,2|2
404,145,65269,2,0,B|343:184|343:184|252:184,1,160,8|0
205,121,65742,1,0
205,121,65821,1,0
205,121,65900,2,0,B|165:98|104:90,1,80,8|0
394,227,66216,6,0,B|357:260|357:323|415:341,1,120,0|2
353,334,66532,2,0,B|321:297|268:293,1,80,8|0
138,196,66848,2,0,B|170:233|223:237,1,80
415,91,67164,6,0,B|363:99,1,40,8|0
367,137,67321,2,0,B|326:147,1,40,0|0
304,179,67479,1,0
235,137,67637,1,0
235,137,67716,1,0
235,137,67795,2,0,B|160:103|67:115,1,160,8|2
80,196,68269,1,2
80,196,68348,2,0,B|88:252|72:300,1,80,8|0
104,308,68585,2,0,B|144:272|200:272,1,80,2|0
251,298,68900,1,0
251,298,69058,2,0,B|432:299,1,160,8|4
207,222,69532,5,0
207,222,69611,1,0
207,222,69690,2,0,B|147:226|113:252,2,80,8|0|2
278,184,70164,1,0
207,147,70321,1,8
207,147,70479,1,0
453,315,70637,6,0,B|426:293|364:279|310:306,1,120,4|2
357,331,70953,2,0,B|306:349|276:377,2,80,8|0|0
361,250,71427,1,2
372,211,71506,1,0
362,172,71585,2,0,B|359:116|325:82,1,80,8|0
274,147,71900,6,0,B|229:103|168:94|104:109,1,160,4|8
273,146,72374,2,0,B|305:182|301:230,1,80,0|8
255,284,72690,1,0
255,284,72769,1,0
255,284,72848,2,0,B|183:331,1,80,8|0
373,247,73164,2,0,B|427:337,1,80,4|0
160,162,73479,2,0,B|76:203,1,80,12|0
370,88,73795,2,0,B|477:86,2,80,4|0|12
384,288,74427,6,0,B|400:224|456:185,2,120,4|2|0
320,68,75058,2,0,B|304:132|247:170,2,120,0|2|0
200,292,75690,2,0,B|184:228|127:189,2,120,0|2|0
200,292,76321,1,0
440,184,76795,5,0
440,184,76874,1,0
440,184,76953,2,0,B|312:200,2,120,0|2|0
212,92,77585,2,0,B|340:108,2,120,0|2|0
212,92,78216,1,0
120,72,78374,1,0
152,164,78532,1,8
88,268,78690,5,0
188,332,78848,1,0
284,264,79006,1,0
400,292,79164,1,8
448,40,79479,6,0,B|448:120|448:120|400:216,1,160,4|8
344,152,79953,1,0
324,228,80111,1,0
324,228,80190,1,0
324,228,80269,2,0,B|268:228|268:228|220:228,2,80,0|8|0
404,284,80742,2,0,B|344:336|344:336|244:336,1,160,0|8
120,328,81216,5,0
76,176,81374,1,0
152,36,81532,1,0
312,36,81690,1,8
392,176,81848,1,0
352,332,82006,6,0,B|280:324,5,53.3333333333333,4|0|0|0|0|0
292,192,82637,2,0,B|272:140,5,53.3333333333333,4|0|0|0|0|0
120,164,83269,6,0,B|120:244,1,59.9999982118607
216,328,83585,2,0,B|216:252,1,59.9999982118607,8|0
316,164,83900,2,0,B|316:244,1,59.9999982118607
424,328,84216,2,0,B|424:264,1,59.9999982118607,8|0
408,248,84453,1,0
388,228,84532,6,0,B|400:160|444:92,2,120,4|2|0
240,176,85164,2,0,B|200:119|183:40,2,120,0|2|0
148,296,85795,2,0,B|78:295|4:264,2,120,0|2|0
268,336,86427,2,0,B|344:340|452:284,1,160,0|8
456,176,86900,5,0
456,176,86979,1,0
456,176,87058,2,0,B|428:112|372:80,2,120,0|2|0
332,216,87690,2,0,B|364:280|416:312,2,120,0|2|0
332,216,88242,1,0
332,216,88321,1,8
312,132,88479,1,0
312,132,88637,1,8
164,72,88795,5,0
108,224,88953,1,8
212,348,89111,1,0
372,324,89269,1,8
428,176,89427,1,0
324,52,89585,1,2
324,52,89742,1,2
348,72,90058,5,0
404,224,90216,1,2
300,348,90374,1,0
140,324,90532,1,8
84,176,90690,1,0
188,52,90848,1,2
256,188,91479,5,0
256,188,91795,1,4
256,192,92111,12,0,94321
256,192,94637,12,2,97164
48,49,97795,5,2
84,48,97874,1,2
120,48,97953,1,0
156,48,98032,1,2
192,48,98111,1,2
228,48,98190,1,2
264,48,98269,1,0
300,48,98348,1,0
336,48,98427,1,0
416,144,98585,5,0
272,208,98742,1,2
416,300,98900,1,0
260,340,99058,5,2
228,334,99137,1,2
196,329,99216,1,0
165,324,99295,1,2
133,319,99374,1,2
101,314,99453,2,2,B|45:305,3,40,2|0|2|2
180,152,100006,5,0
344,112,100164,1,2
288,260,100321,1,2
88,96,100558,1,2
368,24,100795,1,2
288,260,100953,1,2
120,280,101111,6,0,B|68:248,3,40,0|2|2|2
52,236,101427,2,0,B|88:204|108:156,1,80,0|2
120,140,101664,1,2
148,112,101742,2,0,B|172:72|220:60,1,80,0|2
248,60,101979,1,2
288,60,102058,2,0,B|332:64|388:56,1,80,0|4
368,188,102453,5,2
164,240,102690,1,2
56,88,102848,1,2
248,88,103085,1,2
56,88,103321,1,2
164,240,103479,6,0,B|152:340|152:340,1,80,0|0
196,344,103716,1,2
244,356,103795,1,2
292,356,103874,1,2
340,356,103953,1,0
386,345,104032,1,2
424,316,104111,1,2
450,274,104190,1,2
454,226,104269,1,0
451,179,104348,1,2
432,144,104427,6,2,B|408:80,1,40
384,84,104585,2,0,B|332:32,1,40,0|2
316,64,104742,2,2,B|256:80,1,40
236,72,104900,2,2,B|172:64,1,40
164,92,105058,2,2,B|128:128,1,40
100,136,105216,2,2,B|28:152,1,40
20,144,105374,2,2,B|44:204,1,40
12,212,105532,2,2,B|60:240,1,40
36,272,105690,2,2,B|108:280,1,40
104,308,105848,2,2,B|120:248,1,40
152,280,106006,2,2,B|116:212,1,40
172,236,106164,2,2,B|112:196,1,40
137,173,106321,5,2
141,153,106400,1,2
149,134,106479,1,2
162,119,106558,1,2
179,109,106637,1,2
198,105,106716,1,2
217,108,106795,1,0
235,114,106874,1,2
252,124,106953,1,2
264,139,107032,1,2
274,155,107111,1,2
284,171,107190,1,2
299,184,107269,1,2
317,191,107348,1,2
336,191,107427,1,0
355,186,107506,1,2
372,176,107585,2,0,B|416:168|456:108,1,80
448,116,107821,1,0
452,96,107900,1,2
452,76,107979,1,2
448,56,108058,1,2
312,56,108216,6,2,B|260:56,3,40,2|2|0|2
232,56,108532,2,2,B|168:64|80:52,2,120
256,192,109164,12,4,112321
256,192,114848,12,4,117374
460,332,117690,5,0
432,288,117795,1,0
384,264,117900,1,0
364,216,118006,2,0,B|400:140|366:51,1,160
320,80,118427,1,0
268,68,118532,1,0
216,80,118637,6,0,B|204:64|172:44,3,40
148,72,118953,2,0,B|92:92,3,40
84,116,119269,2,0,B|88:176,1,40
84,196,119427,2,0,B|144:228,1,40
148,244,119585,2,0,B|152:296,1,40
192,284,119742,2,0,B|228:308,1,40
260,284,119900,2,0,B|316:304,3,40
320,264,120216,2,0,B|350:290,3,40
376,260,120532,2,0,B|372:328,3,40
416,300,120848,2,0,B|364:328,3,40
348,344,121164,6,0,B|316:297|229:299|199:354,1,160,0|8
136,308,121637,1,0
136,308,121795,2,0,B|183:276|184:184|126:160,1,160,0|8
108,92,122269,1,0
108,92,122427,6,0,B|290:92,1,160,0|8
400,212,123058,2,0,B|240:212,1,160,0|8
94,314,123532,5,0
94,314,123611,1,0
94,314,123690,2,0,B|272:316,1,160,0|8
308,236,124164,1,0
222,192,124321,2,0,B|34:192,1,160,0|8
12,108,124795,5,0
108,108,124953,2,0,B|192:108,1,80
344,236,125269,2,0,B|260:236,1,80,8|0
108,108,125585,2,0,B|192:108,1,80
364,268,125900,2,0,B|324:268|324:268|264:228|264:228|188:228,1,160,8|0
424,108,126532,6,0,B|512:180,2,80,8|0|0
380,196,127006,1,0
288,172,127164,1,8
316,264,127321,2,0,B|364:360,2,80
136,264,127795,6,0,B|32:264,1,80,8|0
224,160,128111,2,0,B|320:160,1,80
88,308,128427,2,0,B|4:308,1,80,8|0
272,116,128742,2,0,B|356:116,1,80,4|0
256,344,129216,5,0
256,344,129374,1,2
256,40,129848,5,2
256,40,130006,1,0
256,192,130479,5,2
256,192,130637,1,2
80,284,131269,6,0,B|44:188|136:104,1,179.999994635582,6|0
121,120,131900,1,2
329,62,132374,5,0
329,62,132532,2,0,B|269:85|198:85,1,119.999996423721,2|8
168,222,133164,2,0,B|228:199|299:199,1,119.999996423721,2|8
432,100,133795,6,0,B|468:196|376:280,1,179.999994635582,2|0
391,264,134427,1,2
184,245,134900,5,0
318,317,135058,1,2
257,109,135532,1,2
399,72,135690,1,2
111,72,136321,6,0,B|111:213,1,119.999996423721,2|8
184,245,136795,1,0
184,245,136953,2,0,B|183:101,1,119.999996423721,8|2
263,167,137427,1,0
263,167,137585,2,0,B|265:307,3,119.999996423721,8|8|2|8
159,71,138848,6,0,B|245:15|344:76,1,179.999994635582,2|0
329,68,139479,1,2
256,192,139637,12,4,141374
256,336,146427,6,0,B|216:292|284:224|256:180,1,160,4|0
440,56,146900,1,0
440,56,147058,2,0,B|452:140|368:196,2,160,0|8|0
348,104,147848,5,0
196,248,148006,1,0
164,56,148163,1,0
164,56,148242,1,0
164,56,148321,2,0,B|224:124,1,80
64,192,148637,2,0,B|148:192,1,80,8|0
456,192,148953,6,0,B|384:172|352:220|296:192,1,160
84,328,149427,1,0
84,328,149585,2,0,B|172:316|208:224,1,160,0|8
376,92,150058,6,0,B|376:176,1,80
136,292,150374,2,0,B|136:208,1,80
256,56,150690,1,0
256,56,150848,2,0,B|256:224,1,160,0|8
48,188,151479,6,0,B|92:256|192:260,1,160,4|0
380,240,151953,1,0
412,52,152111,2,0,B|320:64|288:172,1,160,0|8
212,300,152585,5,0
52,232,152742,2,0,B|224:232,1,160
412,180,153216,1,0
272,96,153374,2,0,B|100:96,1,160,0|8
400,304,154006,6,0,B|216:304,1,160
156,244,154479,1,0
256,212,154637,2,0,B|292:196|292:196|316:148,2,80,0|0|8
156,176,155111,2,0,B|120:160|120:160|96:112,2,80
220,96,155585,1,0
220,96,155742,1,0
320,72,155900,2,0,B|384:108|384:108|416:188,1,160,0|8
140,320,156532,6,0,B|232:312|264:224,1,160,4|0
320,100,157006,2,0,B|228:108|196:196,1,160
140,320,157479,1,8
240,276,157637,1,8
340,320,157795,2,0,B|400:320|400:320|456:280,2,120,0|0|8
396,236,158427,2,0,B|443:199|443:199|464:134,2,120,0|0|8
384,140,159058,2,0,B|416:76|416:76|400:32|400:32|328:16,2,160,0|8|0
292,108,159848,5,0
260,200,160006,1,8
192,268,160163,1,8
192,268,160242,1,0
192,268,160321,2,0,B|128:296|128:296|56:280,1,120,0|0
332,156,160795,1,8
472,156,160953,2,0,B|444:216|444:216|376:244,1,120
348,252,161269,1,8
248,336,161427,5,8
264,300,161506,1,0
248,264,161585,2,0,B|224:224|268:184|252:136,1,120,4|0
289,128,161900,2,0,B|308:100|308:52,1,80,8|0
172,72,162216,5,0
84,144,162374,1,0
84,144,162453,1,0
84,144,162532,1,8
136,240,162690,1,8
136,240,162769,1,0
136,240,162848,2,0,B|160:296|160:296|224:328,1,120,0|0
360,84,163321,1,8
360,84,163479,2,0,B|360:212,1,120
92,140,163953,1,8
92,140,164111,2,0,B|92:312,1,160,4|0
212,64,164742,2,0,B|212:236,1,160,0|8
280,328,165216,5,0
280,328,165295,1,0
280,328,165374,2,0,B|280:164,1,160,4|0
416,68,165848,1,0
416,68,166006,2,0,B|416:228,1,160,4|8
216,300,166637,6,0,B|142:277|148:204,1,120,4|0
212,192,167111,1,8
308,92,167269,2,0,B|336:160|260:216,1,120
212,192,167742,1,8
105,114,167900,6,0,B|52:68|76:40|132:60,1,120
144,92,168216,2,0,B|188:96|228:72,1,80,8|8
408,100,168532,2,0,B|324:120|296:236,1,160,0|8
236,312,169006,5,8
236,312,169085,1,0
236,312,169163,2,0,B|236:188,2,120,0|0|8
168,292,169795,5,0
304,192,170032,1,0
168,92,170269,1,8
52,140,170427,6,0,B|88:268,1,120
132,244,170742,2,0,B|192:180,1,80,8|0
328,76,171058,6,0,B|408:112,1,80
376,148,171295,1,0
416,176,171374,2,0,B|372:272,1,80,8|8
268,320,171690,5,4
132,256,171848,1,0
132,256,171927,1,0
132,256,172006,2,0,B|224:256,2,80,8|0|0
148,96,172479,5,0
256,152,172637,1,8
364,96,172795,1,0
256,336,173111,5,0
256,336,173269,2,0,B|256:236,1,80,8|0
256,56,173585,5,0
120,108,173742,1,0
256,56,173900,1,8
392,108,174058,2,0,B|464:156|440:272,1,160
424,284,174453,1,0
392,304,174532,6,0,B|296:304,1,80,8|0
204,260,174769,1,0
224,284,174848,2,0,B|328:284,1,80
296,188,175085,1,0
272,168,175163,2,0,B|172:168,1,80,8|0
84,108,175400,1,0
104,132,175479,2,0,B|184:132,1,80,4|0
372,256,175795,2,0,B|288:256,1,80,8|0
76,200,176111,2,0,B|180:200,1,80
444,80,176427,2,0,B|348:80,1,80,8|8
208,108,176742,6,0,B|140:108|140:108|84:76,1,120,4|0
96,312,177216,1,8
172,252,177374,2,0,B|240:252|240:252|296:284,1,120
428,84,177848,1,8
368,160,178006,2,0,B|368:288,2,120,0|0|8
308,84,178637,1,0
220,128,178795,1,0
208,128,178874,1,0
196,128,178953,1,8
76,196,179111,5,8
104,196,179190,1,0
132,196,179269,2,0,B|132:332,1,120
224,64,179742,1,8
300,124,179900,2,0,B|300:244,1,120
444,168,180374,1,8
436,264,180532,2,0,B|392:320|392:320|316:320,1,120
308,284,180848,2,0,B|228:284,1,80,8|8
60,128,181163,2,0,B|112:196,1,80
148,216,181400,1,0
196,224,181479,2,0,B|272:184,1,80,8|8
420,40,181795,5,4
336,84,181953,2,0,B|260:124,1,80,0|8
136,296,182269,1,0
220,252,182427,2,0,B|296:212,1,80
464,264,182742,2,0,B|388:304,1,80,8|0
256,356,183058,5,4
208,48,183374,1,0
44,280,183690,1,4
420,80,184006,1,0
404,208,184321,5,0
397,226,184400,1,0
386,243,184479,1,0
373,255,184558,1,0
355,265,184637,2,0,B|308:288,3,40
260,340,184953,5,0
243,330,185032,1,0
228,315,185111,1,0
220,300,185190,1,0
213,281,185269,2,0,B|198:230,3,40
136,180,185585,5,0
145,163,185663,1,0
157,147,185742,1,0
171,136,185821,1,0
190,127,185900,2,0,B|238:107,3,40
312,92,186216,5,0
312,111,186295,1,0
309,131,186374,1,0
301,147,186453,1,0
289,163,186532,2,0,B|254:202,3,40
224,232,186848,6,0,B|152:284,1,80
120,292,187085,1,0
84,276,187163,2,0,B|88:160,1,80
60,120,187400,2,0,B|136:176,1,80
168,68,187637,2,0,B|172:156,1,80
272,72,187874,2,0,B|228:140,1,80
328,164,188111,5,4
132,232,188269,1,0
384,236,188427,1,0
256,100,188585,1,0
256,328,188742,5,0
244,304,188821,1,0
256,280,188900,1,0
268,256,188979,1,0
256,232,189058,1,0
240,208,189137,1,0
256,184,189216,1,0
104,344,199479,6,0,B|188:328|188:328|224:256,1,160,4|0
256,152,199953,1,0
408,344,200111,2,0,B|324:328|324:328|288:256,1,160,2|0
256,152,200585,1,0
60,103,200742,5,0
116,295,201058,1,0
256,152,201374,1,0
388,64,201690,5,2
312,84,201848,1,2
368,140,202006,5,0
332,212,202163,1,2
368,284,202321,1,0
332,356,202479,1,2
256,276,202637,5,0
256,232,202795,1,2
256,188,202953,1,0
256,144,203111,1,2
184,72,203269,5,0
124,128,203585,5,0
144,204,203900,5,0
76,240,204216,5,0
92,316,204374,1,0
168,344,204532,2,0,B|336:344,1,160,4|0
424,248,205006,1,0
448,176,205163,2,0,B|276:176,1,160,2|0
120,76,205637,1,0
184,112,205795,6,0,B|256:52|328:112,1,160
184,156,206427,2,0,B|256:96|328:156,1,160,2|0
116,296,207058,5,0
352,244,207374,2,0,B|425:302,1,80,0|2
308,297,207690,2,0,B|249:370,1,80,0|2
255,253,208006,2,0,B|181:194,1,80,0|2
298,200,208321,2,0,B|328:160,3,40
328,128,208637,2,0,B|300:88,3,40
256,68,208953,2,0,B|264:16,3,40
200,84,209269,2,0,B|152:40,3,40
184,128,209585,6,0,B|168:228|64:256,1,160,4|0
104,88,210058,1,0
240,200,210216,1,0
388,76,210532,5,0
412,104,210611,1,0
420,140,210690,1,0
412,176,210769,1,0
400,216,210848,2,0,B|368:296|276:320,1,160
176,208,211321,1,0
88,332,211479,1,0
256,56,211795,5,0
220,64,211874,1,0
188,84,211953,1,0
168,112,212032,1,0
152,152,212111,2,0,B|124:248|204:312,1,160,4|0
256,212,212585,1,0
360,153,212742,2,0,B|388:248|323:298,1,160
256,212,213216,1,0
188,297,213374,6,0,B|112:296|64:204,1,160
256,152,213848,1,0
445,208,214006,2,0,B|400:296|323:297,1,160
48,80,214637,6,0,B|104:56|168:112|232:56,1,160,4|0
360,72,215111,1,0
284,192,215269,1,0
48,156,215585,5,0
66,188,215663,1,0
89,216,215742,1,0
117,238,215821,1,0
156,260,215900,2,0,B|232:312|324:264,1,160
268,116,216374,1,0
440,88,216532,2,0,B|454:178|370:239,1,160
72,88,217163,6,0,B|168:76|208:192,1,160,4|0
116,212,217637,1,0
276,164,217795,2,0,B|287:259|171:299,1,160
72,288,218269,5,0
72,288,218348,1,0
72,288,218427,2,0,B|124:344|224:328,1,160
196,192,218900,1,0
360,184,219058,2,0,B|314:268|214:254,1,160
60,80,219690,6,0,B|141:122|231:75,1,160,4|8
305,103,220163,1,0
372,35,220321,1,0
507,65,220558,1,8
475,199,220795,1,8
368,224,220953,5,0
178,190,221190,1,8
368,160,221427,1,8
336,272,221585,5,0
178,190,221821,1,8
336,112,222058,1,8
272,192,222216,6,0,B|272:288|176:336,1,160,0|8
112,288,222690,1,0
96,300,222769,1,8
80,312,222848,1,8
36,222,223006,1,8
87,143,223163,1,8
87,142,223321,2,0,B|48:112|55:46,1,80
240,160,223716,1,8
368,64,223953,1,8
416,0,224111,6,0,B|448:32|448:80,1,80,0|8
394,150,224427,1,8
480,192,224585,1,0
512,352,224742,6,0,B|496:336|484:277|484:277|448:288|386:263,1,160,4|8
320,304,225216,1,0
306,319,225295,1,8
294,336,225374,1,8
213,303,225532,1,8
199,318,225611,1,8
187,334,225690,2,0,B|157:333|157:333|128:352|96:352|96:352,1,80,8|8
32,288,226006,6,0,B|80:246|80:160,2,120,0|8|8
166,220,226637,2,0,B|184:151|244:109,1,120,0|0
245,107,226953,1,8
265,99,227032,1,8
285,101,227111,1,8
304,108,227190,1,0
322,123,227269,6,0,B|408:131|480:64,1,160,4|8
385,223,227742,1,0
386,223,227900,2,0,B|305:288,1,80,4|8
245,204,228216,1,8
150,155,228374,1,0
150,155,228453,1,0
150,155,228532,6,0,B|77:192|64:288,1,160,4|8
161,291,229006,1,0
238,341,229163,1,0
257,339,229242,1,8
276,336,229321,1,0
295,334,229400,1,8
307,318,229479,1,0
318,302,229558,1,0
327,285,229637,1,8
336,268,229716,1,0
344,250,229795,6,0,B|386:203|464:203,1,120,4|8
476,189,230111,2,0,B|432:176|416:112,1,80,8|0
385,57,230427,1,0
228,84,230663,1,8
228,84,230742,2,0,B|232:141|175:145,1,80,8|0
49,273,231058,2,0,B|62:215|62:215|85:220|123:196,1,120,0|8
116,200,231374,1,8
228,230,231532,1,0
341,206,231690,1,0
351,200,231769,1,8
362,195,231848,1,8
373,191,231927,1,0
384,188,232006,1,8
395,184,232085,1,0
406,181,232163,1,8
417,177,232242,1,0
428,174,232321,6,0,B|476:111|411:36,1,120,0|8
413,51,232637,1,8
310,50,232795,1,0
249,128,232953,2,0,B|160:168,1,80,0|8
158,169,233190,1,8
140,177,233269,1,8
40,150,233427,1,0
63,249,233585,6,0,B|128:312,1,80,0|8
132,317,233821,1,8
144,329,233900,1,8
240,256,234058,1,8
257,274,234137,1,0
274,290,234216,6,0,B|381:289,1,80,0|0
496,189,234532,2,0,B|406:189,1,80,8|0
176,112,234848,2,0,B|241:124|320:112,1,120,4|8
321,113,235163,1,8
189,214,235321,1,8
189,214,235400,1,0
87,188,235558,1,0
87,188,235637,1,8
41,266,235795,1,0
107,340,235953,1,8
200,314,236111,1,0
220,314,236190,1,0
240,314,236269,1,0
260,314,236348,1,8
280,314,236427,1,8
300,314,236506,1,0
320,314,236585,1,8
340,314,236663,1,0
359,314,236742,6,0,B|425:259|425:259|412:171,1,160,0|8
368,64,237216,2,0,B|302:119|302:119|315:207,1,160,8|0
292,188,237611,1,0
272,182,237690,1,8
252,176,237769,1,0
232,171,237848,1,8
119,108,238006,6,0,B|152:154,3,40,4|0|0|0
128,154,238321,1,8
113,168,238400,1,0
98,182,238479,1,8
83,196,238558,1,0
68,210,238637,6,0,B|75:254,3,40,8|0|0|8
94,249,238953,2,0,B|120:289,3,40,8|0|8|8
134,275,239269,2,0,B|185:310,3,40,4|0|0|8
176,279,239585,2,0,B|226:284,3,40,8|0|8|8
240,288,239900,6,0,B|304:256|304:176,1,120,0|8
303,164,240216,1,8
402,117,240374,1,0
225,80,240532,2,0,B|167:48|96:64,1,120,0|8
108,61,240848,2,0,B|88:106|33:96,2,80,8|0|0
303,164,241400,1,8
113,267,241637,1,8
169,171,241795,1,0
183,185,241874,1,0
197,199,241953,1,0
211,213,242032,1,0
225,227,242111,2,0,B|263:259|277:292,1,80,8|8
192,352,242427,5,0
0,286,242663,1,0
149,155,242900,1,8
113,267,243058,5,8
48,96,243216,1,8
64,80,243295,1,8
80,64,243374,1,0
34,199,243532,1,8
149,154,243690,1,4
192,352,243927,1,8
352,224,244163,1,12
368,320,244321,6,0,B|464:288,1,80
274,279,244637,2,0,B|183:262,1,80
256,176,244953,1,4
188,108,245111,2,0,B|112:128|9:54,2,160,0|8|8
174,240,245900,2,0,B|208:272|190:336,1,80,8|8
91,187,246216,5,0
355,17,246532,1,4
512,288,246848,1,8
416,256,247006,1,8
416,256,247085,1,0
416,256,247163,1,8
416,256,247321,1,8
320,288,247479,6,0,B|256:288,3,40,4|8|8|0
265,273,247795,1,8
192,224,247953,1,8
160,304,248111,1,0
128,304,248190,6,8,B|64:272,3,40
108,195,248585,1,4
176,128,248742,5,8
184,119,248821,1,8
192,110,248900,1,8
200,101,248979,1,8
208,92,249058,1,8
272,160,249216,1,8
282,154,249295,1,8
326,236,249453,1,8
337,233,249532,1,8
333,329,249690,1,8
343,334,249769,1,8
353,340,249848,1,4
240,288,250006,6,0,B|96:288,1,120,0|8
120,259,250321,2,0,B|49:297,2,80,8|8|0
208,176,250795,2,0,B|240:80,1,80,8|8
320,48,251111,1,0
383,116,251269,6,0,B|496:27,2,120,0|8|8
380,206,251900,1,8
448,256,252058,1,0
440,282,252137,1,0
431,308,252216,2,0,B|338:338,1,80,8|8
288,256,252532,6,0,B|237:310|160:272,1,120,0|8
178,279,252848,1,8
80,272,253006,1,8
116,358,253163,1,0
0,318,253400,1,8
0,318,253479,2,0,B|0:224|0:208,1,80,8|8
32,128,253795,5,0
128,176,253953,1,0
128,176,254032,1,8
128,176,254111,2,0,B|192:128,1,80,8|0
260,187,254427,1,8
340,131,254585,1,0
340,131,254663,1,8
340,131,254742,2,0,B|301:50,1,80,8|0
434,116,255058,5,4
449,357,255295,1,4
223,264,255532,1,8
373,257,255690,2,0,B|338:330,1,80,0|8
373,257,256006,2,0,B|461:231,1,80,8|0
373,258,256321,5,4
128,224,256558,1,12
297,43,256795,1,8
265,164,256953,6,0,B|182:125,1,80,8|0
265,164,257269,2,0,B|256:272,1,80,8|0
176,304,257585,5,12
167,306,257663,1,0
158,308,257742,1,0
149,310,257821,1,8
141,313,257900,2,0,B|59:335,1,80,8|8
139,187,258216,5,4
137,178,258295,1,0
135,169,258374,1,8
133,160,258453,1,8
130,152,258532,2,0,B|108:70,1,80,8|8
265,224,258848,5,12
274,222,258927,1,0
283,220,259006,1,0
292,218,259085,1,8
300,215,259163,2,0,B|382:193,1,80,8|0
259,322,259479,6,0,B|291:354,3,40,4|8|0|8
312,317,259795,2,0,B|363:336,3,40,8|0|8|8
352,288,260111,6,0,B|416:320|466:255,1,120,0|8
471,238,260427,1,8
400,160,260585,1,8
464,80,260742,2,0,B|400:80|352:15,2,120,0|8|8
400,160,261374,6,0,B|318:145|256:160,1,120,0|8
112,256,261848,1,8
112,256,261927,1,0
112,256,262006,2,0,B|183:263|208:256,1,80,8|0
400,288,262321,2,0,B|324:302|288:288,1,80,8|8
256,368,262637,5,8
208,160,262874,1,8
400,80,263111,1,0
320,144,263269,5,8
112,256,263506,1,8
311,382,263742,1,0
256,272,263900,5,8
266,265,263979,1,0
277,259,264058,1,0
288,253,264137,1,8
298,247,264216,1,8
255,112,264374,1,8
262,103,264453,1,8
122,177,264611,1,8
111,176,264690,1,8
214,192,264848,5,8
352,160,265006,1,8
380,299,265163,1,4
244,334,265321,1,0
244,334,265400,1,8
244,334,265479,2,0,B|160:304,1,80,8|8
73,355,265795,1,0
80,256,265953,1,8
80,256,266032,1,0
80,256,266111,2,0,B|-17:291,1,80,8|8
112,176,266427,5,0
192,128,266585,1,8
192,128,266663,1,8
192,128,266742,2,0,B|256:176,1,80,4|0
218,258,267058,1,0
256,336,267216,1,8
256,336,267295,1,0
256,336,267374,2,0,B|368:336,1,80,8|0
432,272,267690,5,4
432,263,267769,1,0
432,254,267848,1,8
432,245,267927,1,0
432,236,268006,2,0,B|433:194,3,40,8|0|8|8
432,192,268321,2,0,B|432:144,3,40,0|8|0|8
432,143,268637,2,0,B|432:89,3,40,8|8|0|0
416,96,268953,5,8
408,99,269032,1,0
400,102,269111,1,0
392,106,269190,1,8
386,111,269269,2,0,B|334:141,3,40,8|0|8|8
337,125,269585,2,0,B|268:120,3,40,0|0|8|8
290,136,269900,2,0,B|257:173,3,40,8|8|4|0
260,182,270216,5,8
248,193,270295,1,8
236,204,270374,1,8
224,215,270453,1,8
207,215,270532,5,8
195,226,270611,1,0
181,235,270690,1,8
169,246,270769,1,8
155,255,270848,6,0,B|106:231,3,40,8|8|8|0
112,256,271163,2,0,B|48:256,3,40,8|8|12|0
80,272,271479,6,0,B|48:304,3,40,8|8|8|8
42,314,271795,2,0,B|58:362,3,40,8|0|8|8
71,351,272111,5,8
86,347,272190,1,8
102,344,272269,1,8
118,341,272348,1,0
128,352,272427,1,8
144,352,272506,1,8
160,352,272585,1,8
176,352,272663,1,0
192,336,272742,5,8
208,324,272821,1,8
225,314,272900,1,8
242,303,272979,1,8
259,292,273058,2,0,B|268:238,3,40,8|0|8|8
288,272,273374,2,0,B|320:240,3,40,0|8|8|0
320,272,273690,2,0,B|368:272,3,40,8|8|8|0
352,304,274006,5,8
379,312,274085,1,8
405,321,274163,1,8
431,329,274242,1,8
451,308,274321,1,8
439,281,274400,1,0
425,255,274479,1,8
408,231,274558,1,8
393,206,274637,6,0,B|356:162,3,40,0|8|8|0
396,175,274953,2,0,B|396:127,3,40,8|8|4|0
396,106,275269,5,8
364,96,275348,1,8
333,86,275427,1,0
301,77,275506,1,8
269,68,275585,1,8
237,59,275663,1,0
206,50,275742,1,8
174,41,275821,1,8
160,64,275900,5,0
182,86,275979,1,8
204,108,276058,1,8
226,130,276137,1,0
248,152,276216,1,8
270,174,276295,1,8
292,196,276374,1,12
314,218,276453,1,0
336,240,276532,6,0,B|299:299,16,40,0|0|0|0|0|0|0|0|0|0|0|0|0|0|0|0|4
128,192,278111,5,12
128,192,278269,1,12
256,192,278427,12,2,282098
