osu file format v5

[General]
AudioFilename: hatsunemiku-levaspolka.mp3
AudioLeadIn: 1996
PreviewTime: -1
Countdown: 1
SampleSet: Soft

[Metadata]
Title:Ievan Polkka
Artist:Hatsune Miku
Creator:James
Version:Easy

[Difficulty]
HPDrainRate:0
CircleSize:4
OverallDifficulty:4
SliderMultiplier:2
SliderTickRate:4

[Events]
//Background and Video events
0,0,"5677.jpg"
1,0,"leva.avi"
//Break Periods
2,48754,64497
//Storyboard Layer 0 (Background)
//Storyboard Layer 1 (Failing)
//Storyboard Layer 2 (Passing)
//Storyboard Layer 3 (Foreground)
//Storyboard Sound Samples
//Background Colour Transformations
3,100,162,162,254

[TimingPoints]
1150,504.2,4,2,0,100
9217,504.2,4,1,0,100
81821,504.2,4,2,0,100
97955,504.2,4,1,0,100
130223,504.2,4,2,0,100

[Colours]
Combo1 : 0,0,0
Combo2 : 90,250,226
Combo3 : 126,142,184
Combo4 : 14,207,188

[HitObjects]
64,48,17284,1,2
160,48,17788,1,2
256,48,18292,1,2
352,48,18796,1,2
448,48,19301,1,2
448,144,19805,1,2
352,144,20309,1,2
256,144,20813,1,2
160,144,21317,5,2
64,144,21822,1,0
64,240,22326,1,2
160,240,22830,1,0
256,240,23334,1,2
352,240,23838,1,0
448,240,24343,1,2
448,336,24847,1,0
352,336,25351,5,2
256,336,25855,1,2
160,336,26359,1,0
64,336,26864,1,0
64,240,27367,5,2
64,144,27871,1,2
64,48,28376,1,0
160,48,28880,1,0
160,144,29384,5,2
160,240,29888,1,2
256,240,30393,1,0
352,240,30897,1,0
352,144,31401,5,2
256,144,31905,1,2
256,48,32410,1,6
456,48,33418,5,2
456,144,33922,1,2
352,144,34426,1,2
352,240,34930,1,2
248,240,35435,1,2
248,336,35939,1,2
144,336,36443,1,2
40,336,36947,1,2
40,232,37451,5,2
144,232,37956,1,0
144,128,38460,1,2
240,128,38964,1,0
240,24,39468,1,2
336,24,39973,1,0
336,128,40477,1,2
432,128,40981,1,0
432,224,41485,5,2
432,320,41990,1,2
328,320,42494,1,0
328,224,42998,1,0
224,224,43502,5,2
224,128,44006,1,2
120,128,44511,1,0
120,32,45015,1,0
216,32,45519,5,2
312,32,46023,1,2
224,88,46527,1,0
312,136,47032,1,0
224,192,47536,5,2
312,240,48040,1,2
224,296,48544,1,6
24,32,65687,5,2
64,56,65939,1,0
112,32,66191,1,2
152,56,66443,5,0
200,32,66695,1,2
240,56,66947,1,2
288,32,67200,1,2
328,56,67452,5,0
368,32,67704,1,2
408,56,67956,1,0
456,32,68208,1,2
496,56,68460,1,0
472,96,68712,1,2
496,136,68964,1,2
472,176,69216,1,2
440,216,69468,5,0
408,256,69721,1,2
376,296,69973,1,0
344,336,70225,1,2
304,304,70477,5,0
272,264,70729,1,2
240,224,70981,1,2
208,184,71233,1,2
256,168,71485,5,0
296,136,71737,1,2
296,88,71989,1,0
264,48,72242,1,2
216,32,72494,1,0
168,48,72746,1,2
136,88,72998,1,2
152,136,73250,1,2
176,176,73502,5,2
208,216,73754,1,2
240,176,74006,1,0
272,216,74258,1,0
304,176,74510,1,2
336,216,74763,1,2
360,176,75015,1,0
392,216,75267,1,2
424,176,75519,5,0
400,128,75771,1,2
360,96,76023,1,0
312,80,76275,1,2
264,72,76527,1,0
216,72,76779,1,2
168,88,77031,1,2
120,112,77284,1,2
80,144,77536,5,0
80,192,77788,1,2
128,192,78040,1,0
128,240,78292,1,2
176,240,78544,1,0
176,288,78796,1,2
224,288,79048,1,2
232,336,79300,1,2
280,336,79552,5,2
328,336,79805,1,2
376,336,80057,1,2
424,336,80309,1,2
472,336,80561,1,2
464,88,81821,5,0
384,24,82325,1,0
304,88,82829,1,2
224,24,83333,1,0
144,88,83837,1,0
64,24,84342,1,2
128,104,84846,1,2
64,184,85350,1,2
128,256,85854,5,0
72,336,86358,1,2
168,336,86863,1,0
264,336,87367,1,2
360,336,87871,1,0
456,336,88375,1,2
456,232,88879,1,2
352,232,89383,1,2
352,128,89888,5,2
248,128,90392,1,2
248,24,90896,1,0
144,24,91400,1,0
40,24,91904,5,2
40,120,92408,1,2
144,120,92913,1,0
144,224,93417,1,0
248,224,93921,5,2
352,224,94426,1,2
352,120,94930,1,4
456,120,95434,1,4
456,16,95938,5,0
408,16,96190,1,2
360,32,96442,1,0
320,56,96694,1,2
280,88,96947,1,0
256,128,97199,1,2
232,176,97451,1,2
216,224,97703,1,2
208,272,97955,5,6
200,368,98459,1,0
280,312,98963,1,2
200,248,99467,1,0
280,192,99971,1,2
200,128,100475,1,0
288,72,100980,1,2
200,16,101484,1,2
96,16,101988,5,0
96,112,102492,1,0
96,208,102996,1,2
96,304,103501,1,2
176,360,104005,1,0
176,256,104509,1,0
176,152,105013,1,2
176,48,105517,1,2
256,104,106021,5,0
352,104,106525,1,0
352,200,107030,1,2
256,200,107534,1,2
256,96,108038,5,0
192,168,108543,1,0
256,240,109046,1,2
320,168,109551,1,2
416,168,110055,5,0
416,272,110560,1,2
320,272,111064,1,0
320,168,111568,1,2
416,168,112072,5,2
416,64,112576,1,2
320,64,113081,1,6
120,64,114089,5,2
184,136,114593,1,2
88,176,115097,1,2
168,240,115602,1,2
80,288,116106,1,2
160,344,116610,1,2
240,288,117114,1,2
176,208,117618,1,2
272,200,118122,5,2
224,112,118626,1,0
320,96,119131,1,2
248,24,119635,1,0
248,24,120139,1,2
248,120,120643,1,0
248,120,121147,1,2
248,216,121652,1,0
248,216,122156,5,2
248,312,122660,1,2
248,312,123164,1,0
336,264,123668,1,0
280,184,124172,5,2
224,264,124676,1,2
176,176,125181,1,0
112,256,125685,1,0
64,168,126189,5,2
136,104,126693,1,2
208,168,127197,1,0
280,104,127702,1,0
352,168,128207,5,0
432,104,128711,1,0
504,168,129215,1,0
