osu file format v7

[General]
AudioFilename: hatsunemiku-levaspolka.mp3
AudioLeadIn: 1500
PreviewTime: 50700
Countdown: 0
SampleSet: Soft
StackLeniency: 0.7
Mode: 0
LetterboxInBreaks: 1

[Editor]
Bookmarks: 49427,81695
DistanceSpacing: 1
BeatDivisor: 4
GridSize: 16

[Metadata]
Title:Ievan Polkka
Artist:Hatsune Miku
Creator:Haruhi-boy
Version:Normal
Source:VOCALOID
Tags:ss558882000

[Difficulty]
HPDrainRate:3
CircleSize:4
OverallDifficulty:4
SliderMultiplier:1.4
SliderTickRate:2

[Events]
//Background and Video events
0,0,"back.jpg"
//Break Periods
//Storyboard Layer 0 (Background)
//Storyboard Layer 1 (Fail)
//Storyboard Layer 2 (Pass)
//Storyboard Layer 3 (Foreground)
//Storyboard Sound Samples
//Background Colour Transformations
3,100,255,255,255

[TimingPoints]
2297,504.2,4,2,0,60,1,0
15797,-100,4,2,0,39,0,0
16049,-100,4,2,0,60,0,0
16805,-100,4,2,1,60,0,0
49074,-100,4,2,0,39,0,0
56637,-100,4,2,0,26,0,0
56889,-100,4,2,0,39,0,0
66217,-100,4,1,0,39,0,0
66330,-100,4,1,0,39,0,1
81960,-100,4,1,0,39,0,0
82855,-100,4,2,0,50,0,0
98990,-100,4,2,1,59,0,0
131259,-100,4,2,0,40,0,0
146889,-100,4,2,0,19,0,0

[Colours]
Combo1 : 52,135,218
Combo2 : 33,214,205
Combo3 : 0,155,155

[HitObjects]
112,192,2297,1,2
256,192,2801,1,0
400,192,3305,1,0
400,48,3809,1,2
256,48,4313,5,0
256,192,4818,1,0
256,336,5322,1,2
112,336,5826,1,0
112,192,6330,5,2
256,192,6834,1,0
256,48,7338,2,0,B|104:48|104:48,1,140,2|0
16,144,8347,6,0,B|16:304|16:304,1,140
128,368,9355,1,2
272,368,9860,1,0
393,298,10364,6,0,B|393:394|393:394,1,70,4|0
392,297,10868,1,8
464,176,11372,1,2
320,176,11876,1,8
176,176,12381,6,0,B|176:280|176:280,1,70,2|0
176,176,12885,1,8
32,176,13389,1,2
128,80,13893,1,8
224,176,14397,6,0,B|224:80|224:80,1,70,4|0
224,176,14901,1,8
368,176,15406,1,2
432,304,15910,1,8
288,304,16414,5,2
288,304,16918,2,0,B|136:304|136:304,1,140,8|0
112,32,18431,5,2
240,64,18935,1,8
368,32,19439,2,0,B|368:192|368:192,2,140,2|8|2
224,32,20952,1,8
224,176,21456,6,0,B|64:176|64:176,2,140,2|8|0
368,176,22969,1,8
368,176,23473,2,0,B|368:16|368:16,1,140,2|8
256,112,24481,6,0,B|256:280|256:280,1,140,2|8
144,336,25490,1,2
32,256,25994,1,8
144,176,26498,5,2
144,176,27002,2,0,B|296:176|296:176,1,140,8|0
432,176,28011,1,8
352,64,28515,5,0
352,64,28767,1,0
352,64,29019,1,8
272,176,29523,2,0,B|272:336|272:336,1,140,2|8
272,176,30532,5,2
272,32,31036,2,0,B|112:32|112:32,1,140,8|0
32,128,32044,1,8
32,272,32549,5,0
32,272,32801,1,0
32,272,33053,1,8
144,352,33557,2,0,B|304:352|304:352,2,140,2|0|2
256,272,35070,5,8
368,192,35574,2,0,B|208:192|208:192,1,140,2|8
96,192,36582,1,2
96,48,37086,1,8
240,48,37591,2,0,B|240:208|240:208,1,140,2|8
384,192,38599,5,2
464,304,39103,1,0
320,304,39607,2,0,B|152:304|152:304,1,140,2|8
80,208,40616,5,0
80,208,40868,1,0
80,208,41120,1,8
176,96,41624,2,0,B|336:96|336:96,2,140,2|8|2
176,240,43137,5,8
32,240,43641,2,0,B|32:96|32:96,1,140,2|8
176,96,44649,5,0
176,96,44901,1,0
176,96,45154,1,8
320,96,45658,1,0
320,96,45910,1,0
320,96,46162,1,8
256,224,46666,5,2
256,224,47170,2,0,B|416:224|416:224,1,140,8|2
448,96,48179,1,8
304,96,48683,5,2
304,96,48935,1,0
304,96,49187,1,8
160,96,49691,2,0,B|160:264|160:264,1,140,2|0
256,336,50700,5,0
256,192,51204,1,0
144,112,51708,2,0,B|144:264|144:264,1,140,2|0
256,320,52717,5,0
384,256,53221,1,0
384,256,53725,2,0,B|384:104|384:104,1,140,2|0
256,48,54733,5,0
128,112,55238,1,0
128,256,55742,1,2
128,256,55994,1,0
128,256,56246,1,0
128,256,56750,6,0,B|304:256|304:256,1,140,4|0
416,256,57759,2,0,B|416:104|416:104,1,140,2|0
288,64,58767,5,2
144,64,59271,1,8
64,176,59775,1,0
64,320,60280,1,8
208,352,60784,6,0,B|208:200|208:200,1,140,2|8
160,80,61792,2,0,B|8:80|8:80,1,140,0|8
16,224,62801,5,2
16,224,63305,1,8
16,368,63809,1,0
16,368,64061,1,0
16,368,64313,1,8
160,368,64817,2,0,B|320:368|320:368,1,140
384,256,65826,1,0
384,112,66330,5,4
256,48,66834,6,0,B|256:192|256:192,1,140,0|8
256,320,67842,1,0
256,320,68095,1,0
256,320,68347,1,8
256,176,68851,6,0,B|408:176|408:176,1,140,0|0
396,106,69607,1,0
396,175,69859,2,0,B|396:343|396:343,1,140,0|8
256,288,70868,6,8,B|88:288|88:288,1,140,0|8
116,357,71624,1,0
116,287,71876,2,0,B|116:135|116:135,1,140,0|8
224,48,72884,5,0
288,48,73137,1,0
352,48,73389,1,8
320,112,73641,1,0
384,112,73893,2,0,B|384:280|384:280,1,140,0|8
244,252,74901,6,0,B|244:100|244:100,1,140,0|8
176,112,75658,1,0
245,112,75910,1,0
384,112,76414,1,8
400,256,76918,5,0
464,256,77170,1,0
400,256,77422,1,8
336,256,77674,1,0
336,256,77926,2,0,B|176:256|176:256,1,140,0|8
48,256,78935,5,0
48,112,79439,1,8
176,48,79943,1,0
176,48,80195,1,0
176,48,80447,1,8
304,112,80952,5,0
304,112,81204,1,0
304,112,81456,2,0,B|304:264|304:264,1,140
32,192,82968,5,2
176,192,83472,1,0
320,192,83976,1,0
320,336,84480,1,2
176,336,84984,5,0
176,192,85489,1,0
176,48,85993,1,2
320,48,86497,1,0
320,192,87001,5,2
176,192,87505,1,0
176,336,88009,2,0,B|328:336|328:336,1,140,2|0
432,256,89018,6,0,B|432:96|432:96,1,140
336,16,90026,1,2
192,16,90531,1,0
64,80,91035,6,0,B|64:-16|64:-16,1,70,4|0
64,80,91539,1,8
64,219,92043,1,2
208,224,92547,1,8
352,224,93052,6,0,B|352:120|352:120,1,70,2|0
352,224,93556,1,8
496,224,94060,1,2
384,304,94564,1,8
272,224,95068,6,0,B|272:320|272:320,1,70,4|0
272,224,95572,1,8
128,224,96077,1,2
80,96,96581,1,8
224,96,97085,5,2
224,96,97589,2,0,B|376:96|376:96,1,140,8|0
416,224,98599,1,0
416,368,99102,5,4
288,320,99606,1,8
160,368,100110,2,0,B|160:208|160:208,2,140,2|8|2
304,368,101623,1,8
304,224,102127,6,0,B|464:224|464:224,2,140,2|8|0
160,224,103640,1,8
160,224,104144,2,0,B|160:384|160:384,1,140,2|8
256,272,105152,6,0,B|256:104|256:104,1,140,2|8
368,48,106161,1,2
480,128,106665,1,8
368,208,107169,5,2
368,208,107673,2,0,B|216:208|216:208,1,140,8|0
80,208,108682,1,8
160,320,109186,5,0
160,320,109438,1,0
160,320,109690,1,8
240,208,110194,2,0,B|240:48|240:48,1,140,2|8
240,208,111203,5,2
240,352,111707,2,0,B|400:352|400:352,1,140,8|0
480,256,112715,1,8
480,112,113220,5,0
480,112,113472,1,0
480,112,113724,1,8
368,32,114228,2,0,B|208:32|208:32,2,140,2|0|2
256,112,115741,5,8
144,192,116245,2,0,B|304:192|304:192,1,140,2|8
416,192,117253,1,2
416,336,117757,1,8
272,336,118262,2,0,B|272:176|272:176,1,140,2|8
128,192,119270,5,2
48,80,119774,1,0
192,80,120278,2,0,B|360:80|360:80,1,140,2|8
432,176,121287,5,0
432,176,121539,1,0
432,176,121791,1,8
336,288,122295,2,0,B|176:288|176:288,2,140,2|8|2
336,144,123808,5,8
480,144,124312,2,0,B|480:288|480:288,1,140,2|8
336,288,125320,5,0
336,288,125572,1,0
336,288,125825,1,8
192,288,126329,1,0
192,288,126581,1,0
192,288,126833,1,8
256,160,127337,5,2
256,160,127841,2,0,B|96:160|96:160,1,140,8|2
64,288,128850,1,8
208,288,129354,5,2
208,288,129606,1,0
208,288,129858,1,8
352,288,130362,2,0,B|352:120|352:120,1,140,2|0
256,48,131371,5,0
256,192,131875,1,0
368,272,132379,2,0,B|368:120|368:120,1,140,2|0
256,64,133388,5,0
128,128,133892,1,0
128,128,134396,2,0,B|128:280|128:280,1,140,2|0
256,336,135404,5,0
384,272,135909,1,0
384,128,136413,1,2
384,128,136665,1,0
384,128,136917,1,0
384,128,137421,6,0,B|208:128|208:128,1,140,4|0
96,128,138430,2,0,B|96:280|96:280,1,140,2|0
224,320,139438,5,2
368,320,139942,1,8
448,208,140446,1,0
448,64,140951,1,8
304,32,141455,6,0,B|304:184|304:184,1,140,2|8
352,304,142463,2,0,B|504:304|504:304,1,140,0|8
496,160,143472,5,2
496,160,143976,1,8
496,16,144480,1,0
496,16,144732,1,0
496,16,144984,1,8
256,192,145488,12,4,147001
