osu file format v7

[General]
AudioFilename: hatsunemiku-levaspolka.mp3
AudioLeadIn: 1500
PreviewTime: 50700
Countdown: 0
SampleSet: Soft
StackLeniency: 0.7
Mode: 0
LetterboxInBreaks: 1

[Editor]
Bookmarks: 49427,81695
DistanceSpacing: 1
BeatDivisor: 4
GridSize: 8

[Metadata]
Title:Ievan Polkka
Artist:Hatsune Miku
Creator:Haruhi-boy
Version:Hard
Source:VOCALOID
Tags:ss558882000

[Difficulty]
HPDrainRate:6
CircleSize:5
OverallDifficulty:8
SliderMultiplier:1.8
SliderTickRate:2

[Events]
//Background and Video events
0,0,"back.jpg"
//Break Periods
//Storyboard Layer 0 (Background)
//Storyboard Layer 1 (Fail)
//Storyboard Layer 2 (Pass)
//Storyboard Layer 3 (Foreground)
//Storyboard Sound Samples
//Background Colour Transformations
3,100,255,255,255

[TimingPoints]
2297,504.2,4,2,0,60,1,0
10755,-100,4,2,0,40,0,0
11007,-100,4,2,0,60,0,0
11763,-100,4,2,0,40,0,0
12015,-100,4,2,0,60,0,0
12772,-100,4,2,0,40,0,0
13024,-100,4,2,0,60,0,0
13780,-100,4,2,0,40,0,0
14032,-100,4,2,0,60,0,0
14788,-100,4,2,0,40,0,0
15041,-100,4,2,0,60,0,0
15797,-100,4,2,0,40,0,0
16049,-100,4,2,0,60,0,0
16805,-100,4,2,0,40,0,0
17057,-100,4,2,0,60,0,0
18066,-100,4,2,1,60,0,0
33444,-100,4,2,1,40,0,0
34200,-100,4,2,1,60,0,0
49578,-100,4,2,1,34,0,0
49830,-100,4,2,1,40,0,0
50082,-100,4,2,1,25,0,0
50335,-100,4,2,0,39,0,0
61175,-100,4,2,0,21,0,0
61427,-100,4,2,0,39,0,0
62183,-100,4,2,0,21,0,0
62435,-100,4,2,0,39,0,0
63192,-100,4,2,0,21,0,0
63444,-100,4,2,0,39,0,0
64200,-100,4,2,0,19,0,0
64452,-100,4,2,0,39,0,0
66330,-100,4,1,0,50,0,1
81960,-100,4,1,0,39,0,0
82603,-100,4,2,0,50,0,0
98990,-100,4,2,1,59,0,0
114116,-100,4,2,1,39,0,0
114872,-100,4,2,1,59,0,0
130250,-100,4,2,1,39,0,0
131007,-100,4,2,0,40,0,0
139830,-100,4,2,0,29,0,0
140082,-100,4,2,0,34,0,0
140838,-100,4,2,0,30,0,0
141091,-100,4,2,0,39,0,0
142855,-100,4,2,0,27,0,0
143107,-100,4,2,0,34,0,0
144872,-100,4,2,0,26,0,0
145124,-100,4,2,0,34,0,0
146889,-100,4,2,0,19,0,0

[Colours]
Combo1 : 52,135,218
Combo2 : 33,214,205
Combo3 : 0,155,155

[HitObjects]
256,360,2297,1,2
256,184,2801,1,0
384,64,3305,1,0
256,184,3809,1,2
120,64,4313,1,0
256,184,4818,1,0
120,296,5322,5,2
208,296,5574,1,0
296,296,5826,1,0
384,296,6078,1,0
440,232,6330,1,2
384,160,6582,1,0
384,72,6834,1,0
384,72,7086,1,0
296,72,7338,6,0,B|184:72|184:72,1,90,2|0
136,128,7843,2,0,B|136:256|136:256,1,90
200,280,8347,2,0,B|320:280|320:280,1,90,2|0
344,208,8851,2,0,B|344:96|344:96,1,90,0|0
264,80,9355,5,2
176,80,9607,1,0
88,80,9860,1,0
32,152,10112,1,0
88,224,10364,6,0,B|88:320|88:320,1,90,4|0
168,352,10868,1,8
168,352,11120,1,0
248,312,11372,2,0,B|248:208|248:208,1,90,2|0
248,136,11876,1,8
312,72,12128,1,0
376,136,12381,6,0,B|376:240|376:240,1,90,2|0
376,312,12885,1,8
376,312,13137,1,0
296,352,13389,2,0,B|176:352|176:352,1,90,2|0
120,320,13893,2,0,B|120:200|120:200,1,90,8|0
120,144,14397,5,4
184,80,14649,1,0
248,144,14902,2,0,B|344:144|344:144,1,90,8|0
400,80,15406,1,2
472,136,15658,1,0
400,192,15910,2,0,B|400:304|400:304,1,90,8|0
336,344,16414,5,2
248,344,16666,1,0
248,344,16918,2,0,B|136:344|136:344,1,90,8|0
72,344,17422,1,4
344,184,18305,5,0
344,184,18431,1,2
296,104,18683,2,0,B|176:104|176:104,1,90,0|8
160,184,19187,1,0
72,184,19439,2,0,B|72:288|72:288,2,90,2|0|8
72,96,20196,1,0
136,40,20448,6,0,B|232:40|232:40,1,90,2|0
200,128,20952,2,0,B|304:128|304:128,1,90,8|0
264,216,21456,2,0,B|384:216|384:216,2,90,2|0|8
264,304,22212,5,0
264,304,22338,1,0
264,304,22465,2,0,B|144:304|144:304,1,90,2|0
96,256,22969,1,8
96,256,23221,1,0
96,168,23473,2,0,B|96:48|96:48,1,90,0|0
136,56,23851,1,0
136,56,23977,2,0,B|232:56|232:56,1,90,8|0
312,56,24481,6,0,B|312:112|312:112,1,45,2|0
360,96,24733,2,0,B|360:152|360:152,1,45
408,136,24986,2,0,B|408:208|408:208,2,45,8|0|8
480,192,25490,5,0
480,280,25742,2,0,B|480:376|480:376,1,90,0|8
392,344,26246,1,0
392,344,26372,1,0
392,344,26498,2,0,B|280:344|280:344,1,90,2|0
280,256,27002,2,0,B|152:256|152:256,1,90,8|0
168,344,27507,2,0,B|32:344|32:344,2,90,0|0|8
168,256,28263,1,0
112,184,28515,5,0
168,112,28767,1,0
256,112,29019,1,8
312,184,29271,1,0
264,256,29523,2,0,B|264:352|264:352,2,90,0|0|8
352,256,30280,5,0
352,256,30406,1,0
352,256,30532,2,0,B|456:256|456:256,1,90,2|0
488,176,31036,2,0,B|488:72|488:72,1,90,8|0
408,40,31540,2,0,B|288:40|288:40,1,90,2|0
232,40,32044,1,8
144,40,32296,5,0
72,96,32549,1,0
72,184,32801,1,0
144,240,33053,1,8
216,184,33305,1,0
216,96,33557,2,0,B|336:96|336:96,2,90,2|0|0
312,184,34439,5,0
312,184,34565,2,0,B|312:288|312:288,1,90,2|0
240,328,35070,1,8
168,272,35322,1,0
168,184,35574,2,0,B|64:184|64:184,1,90,2|0
78,184,35952,1,0
78,184,36078,1,8
80,96,36330,5,0
80,96,36456,1,0
80,96,36582,2,0,B|192:96|192:96,1,90,2|0
256,96,37086,1,8
328,144,37338,1,0
400,96,37591,1,2
488,96,37843,1,0
488,96,38095,1,8
488,184,38347,5,0
488,184,38473,1,0
488,184,38599,2,0,B|488:304|488:304,1,90,2|0
424,336,39103,1,0
336,336,39355,1,0
336,336,39481,1,0
336,336,39607,2,0,B|208:336|208:336,1,90,2|0
152,336,40112,1,8
88,272,40364,6,0,B|88:224|88:224,1,45,0|0
40,224,40616,2,0,B|40:168|40:168,1,45
88,176,40868,2,0,B|88:120|88:120,2,45,0|0|8
168,224,41372,1,0
256,224,41624,2,0,B|368:224|368:224,2,90,2|0|8
256,312,42380,5,0
256,312,42506,1,0
256,312,42633,2,0,B|64:312|64:312,1,180,2|8
24,240,43389,1,0
24,240,43641,2,0,B|24:144|24:144,1,90,2|0
24,104,44019,1,0
24,104,44145,2,0,B|128:104|128:104,1,90,8|0
200,104,44649,5,0
288,104,44901,1,0
336,184,45154,1,8
296,264,45406,1,0
208,264,45658,1,0
160,184,45910,1,0
160,184,46162,1,8
24,184,46540,5,0
24,184,46666,1,2
88,120,46918,1,0
152,184,47170,2,0,B|272:184|272:184,1,90,8|0
336,184,47675,1,2
336,184,47927,1,0
424,184,48179,1,8
424,96,48431,6,0,B|328:96|328:96,1,90
248,96,48935,1,0
192,168,49187,1,8
248,240,49439,1,0
336,240,49691,2,0,B|448:240|448:240,2,90,2|0|0
448,96,50574,5,0
448,96,50700,1,2
360,96,50952,1,0
272,96,51204,1,0
184,96,51456,2,0,B|184:200|184:200,1,90,0|0
184,232,51834,1,0
184,232,51960,2,0,B|280:232|280:232,1,90,0|2
360,232,52464,6,0,B|360:344|360:344,1,90,0|2
272,352,52969,1,0
184,352,53221,1,0
104,320,53473,1,0
104,232,53725,1,2
104,216,53851,1,0
104,200,53977,1,0
104,184,54103,1,0
104,168,54229,2,0,B|104:48|104:48,1,90,0|0
192,48,54733,5,2
280,48,54985,1,0
368,48,55238,1,0
440,104,55490,1,0
440,104,55616,1,0
440,104,55742,1,2
440,192,55994,1,0
440,192,56120,1,0
440,280,56372,1,0
440,280,56498,1,0
440,280,56624,6,0,B|352:280|352:280,1,45,0|2
376,280,56876,2,0,B|312:280|312:280,1,45
312,280,57128,2,0,B|256:280|256:280,1,45
176,280,57506,1,0
88,280,57759,2,0,B|0:368|0:368,2,90,2|0|0
88,192,58515,1,0
88,192,58641,1,0
88,192,58767,6,0,B|88:88|88:88,1,90,2|0
160,48,59271,1,8
160,48,59523,1,0
248,48,59775,2,0,B|352:48|352:48,2,90,2|0|8
248,48,60532,1,0
256,136,60784,5,2
320,200,61036,1,0
256,264,61288,1,8
192,200,61540,1,0
104,200,61792,2,0,B|0:200|0:200,2,90,2|0|8
104,112,62548,6,0,B|104:56|104:56,2,45,0|0|0
192,112,63053,2,0,B|288:112|288:112,1,90,0|8
368,112,63557,1,0
368,112,63809,2,0,B|432:208|432:208,1,90,2|0
417,186,64187,2,0,B|448:232|448:232,1,45,0|8
256,192,64817,12,4,66330
256,192,66834,6,0,B|256:296|256:296,1,90
184,328,67338,1,10
104,288,67590,1,2
104,240,67716,1,0
104,192,67842,1,2
104,104,68095,1,2
104,104,68347,1,10
168,40,68599,5,0
216,40,68725,1,0
264,40,68851,2,0,B|376:40|376:40,1,90,2|0
432,88,69355,2,2,B|432:208|432:208,1,90,10|2
432,264,69859,2,0,B|344:352|344:352,1,90,2|0
280,328,70363,1,10
192,328,70616,5,0
144,328,70742,1,0
96,328,70868,2,8,B|32:224|32:224,1,90,2|0
48,160,71372,1,10
96,80,71624,1,2
144,0,71876,2,0,B|240:0|240:0,1,90,2|0
320,0,72380,1,10
360,80,72632,5,0
360,80,72758,1,0
360,80,72884,1,2
400,160,73137,1,0
400,160,73263,1,2
400,160,73389,1,10
448,240,73641,1,0
448,240,73767,1,0
448,240,73893,2,0,B|232:240|232:240,1,180,4|8
176,240,74649,5,0
128,240,74775,1,0
80,240,74901,2,0,B|0:144|0:144,1,90,2|0
16,80,75405,2,2,B|72:0|72:0,1,90,10|2
160,24,75910,1,2
248,24,76162,1,0
296,24,76288,1,2
344,24,76414,1,10
424,64,76666,6,0,B|424:176|424:176,1,90,0|2
424,168,77044,1,0
424,184,77170,1,0
424,200,77296,1,2
424,216,77422,1,10
424,232,77548,1,2
424,248,77674,1,0
424,264,77800,1,0
424,280,77926,2,0,B|200:280|200:280,1,180,2|8
152,280,78683,5,0
120,312,78809,1,0
88,344,78935,1,2
16,288,79187,2,0,B|16:160|16:160,1,90,0|10
72,128,79691,1,0
72,128,79943,1,2
136,192,80195,1,0
168,224,80321,1,2
200,256,80447,1,10
290,256,80700,2,0,B|394:256|394:256,1,90,0|2
394,256,81078,1,0
410,256,81204,1,0
426,256,81330,1,2
442,256,81456,2,0,B|442:128|442:128,2,90,10|0|0
256,24,82968,5,2
256,200,83472,1,0
128,320,83976,1,0
256,200,84480,1,2
392,320,84984,1,0
256,200,85489,1,0
392,88,85993,5,2
216,88,86497,1,0
128,88,86749,1,0
72,160,87001,1,2
80,336,87505,1,0
144,272,87757,1,0
208,336,88009,6,0,B|320:336|320:336,1,90,2|0
360,272,88514,2,0,B|360:144|360:144,1,90
304,112,89018,2,0,B|184:112|184:112,1,90,2|0
152,176,89522,2,0,B|152:288|152:288,1,90,0|0
232,312,90026,5,2
320,312,90278,1,0
408,312,90531,1,0
464,240,90783,1,0
408,168,91035,6,0,B|408:72|408:72,1,90,4|0
328,32,91540,1,0
240,32,91791,1,0
160,80,92043,2,0,B|160:184|160:184,1,90,2|0
160,256,92547,1,0
160,256,92799,1,0
72,256,93053,6,0,B|72:152|72:152,1,90,4|0
72,80,93556,1,0
72,80,93808,1,0
144,32,94060,2,0,B|264:32|264:32,1,90,2|0
312,80,94564,2,0,B|312:200|312:200,1,90,0|0
376,232,95068,5,4
312,296,95320,1,0
248,232,95573,2,0,B|152:232|152:232,1,90,0|0
96,296,96077,1,4
32,232,96329,1,0
96,168,96581,2,0,B|96:56|96:56,1,90,0|0
176,40,97086,5,4
264,40,97337,1,0
264,40,97589,2,0,B|376:40|376:40,1,90,4|0
440,40,98093,1,4
440,40,98347,1,4
440,128,98599,1,2
440,128,98725,1,2
440,128,98851,1,2
440,216,99103,6,0,B|440:320|440:320,1,90,0|0
360,344,99607,1,8
272,344,99859,1,0
208,280,100111,1,2
208,192,100363,1,0
144,128,100615,1,8
80,192,100868,1,0
80,280,101120,6,0,B|0:360|0:360,2,90,0|0|8
80,192,101876,1,0
80,104,102128,2,0,B|0:24|0:24,2,90,0|0|8
168,104,102884,1,0
168,104,103010,1,0
168,104,103136,6,0,B|264:104|264:104,1,90,2|0
320,168,103641,2,0,B|320:272|320:272,1,90,8|0
320,304,104019,1,0
320,304,104145,2,0,B|208:304|208:304,1,90
144,304,104649,1,8
80,240,104901,5,0
80,152,105153,1,0
144,88,105405,1,0
208,152,105657,1,8
208,240,105910,2,0,B|344:240|344:240,2,90
208,240,106666,1,8
128,240,106918,1,0
104,240,107044,1,0
80,240,107170,6,0,B|80:136|80:136,1,90,2|0
136,80,107674,2,0,B|248:80|248:80,1,90,8|0
280,152,108178,2,0,B|280:248|280:248,1,90
280,242,108683,1,8
344,304,108935,1,0
280,368,109187,5,0
216,304,109439,1,0
128,304,109691,2,0,B|24:304|24:304,2,90,8|0|0
128,216,110447,2,0,B|128:112|128:112,1,90,0|8
128,32,110952,1,0
128,32,111078,1,0
128,32,111204,6,0,B|248:32|248:32,1,90
304,32,111708,1,8
304,32,111960,1,0
368,96,112212,2,0,B|368:296|368:296,1,180,0|8
312,344,112968,1,0
224,344,113220,5,0
160,280,113473,1,0
72,280,113725,1,8
16,208,113977,1,0
16,208,114229,2,0,B|16:96|16:96,2,90,2|0|0
152,208,115111,5,0
152,208,115237,1,2
200,288,115489,2,0,B|320:288|320:288,1,90,0|8
336,208,115993,1,0
424,208,116245,2,0,B|424:104|424:104,2,90,2|0|8
424,296,117002,1,0
360,352,117254,6,0,B|264:352|264:352,1,90,2|0
296,264,117758,2,0,B|192:264|192:264,1,90,8|0
232,176,118262,2,0,B|112:176|112:176,2,90,2|0|8
232,88,119018,5,0
232,88,119144,1,0
232,88,119271,2,0,B|352:88|352:88,1,90,2|0
400,136,119775,1,8
400,136,120027,1,0
400,224,120279,2,0,B|400:344|400:344,1,90,0|0
360,336,120657,1,0
360,336,120783,2,0,B|264:336|264:336,1,90,8|0
184,336,121287,6,0,B|184:280|184:280,1,45,2|0
136,296,121539,2,0,B|136:240|136:240,1,45
88,256,121792,2,0,B|88:184|88:184,2,45,8|0|8
16,200,122296,5,0
16,112,122548,2,0,B|16:16|16:16,1,90,0|8
104,48,123052,1,0
104,48,123178,1,0
104,48,123304,2,0,B|216:48|216:48,1,90,2|0
216,136,123808,2,0,B|344:136|344:136,1,90,8|0
328,48,124313,2,0,B|464:48|464:48,2,90,0|0|8
328,136,125069,1,0
384,208,125321,5,0
328,280,125573,1,0
240,280,125825,1,8
184,208,126077,1,0
240,136,126329,2,0,B|240:40|240:40,2,90,0|0|8
152,136,127086,5,0
152,136,127212,1,0
152,136,127338,2,0,B|48:136|48:136,1,90,2|0
0,208,127842,2,0,B|0:312|0:312,1,90,8|0
72,352,128346,2,0,B|192:352|192:352,1,90,2|0
248,352,128850,1,8
336,352,129102,5,0
408,296,129355,1,0
408,208,129607,1,0
336,152,129859,1,8
264,208,130111,1,0
264,296,130363,2,0,B|144:296|144:296,2,90,2|0|0
400,296,131246,5,0
400,296,131372,1,2
464,232,131624,1,0
400,168,131876,1,0
344,232,132128,2,0,B|232:232|232:232,1,90,0|0
168,232,132632,2,0,B|264:232|264:232,1,90
256,144,133136,6,0,B|256:256|256:256,1,90,0|2
256,328,133641,1,0
168,360,133893,1,0
88,328,134145,1,0
88,240,134397,1,0
88,240,134649,1,0
88,240,134901,2,0,B|88:120|88:120,1,90,0|0
152,80,135405,5,2
224,32,135657,1,0
296,80,135910,1,0
384,80,136162,1,0
384,80,136414,1,2
448,144,136666,1,0
448,144,136918,1,0
448,232,137170,1,0
448,232,137422,6,0,B|344:232|344:232,1,90,2|0
384,320,137926,2,0,B|288:320|288:320,1,90
200,320,138431,2,0,B|112:408|112:408,2,90,2|0|0
152,248,139187,1,0
152,248,139439,6,0,B|152:144|152:144,1,90,2|0
152,72,139943,1,8
152,72,140195,1,0
232,32,140447,2,0,B|336:32|336:32,2,90,0|0|8
152,72,141204,1,0
152,160,141456,5,0
232,208,141708,1,0
320,208,141960,1,8
232,208,142212,1,0
320,208,142464,2,0,B|320:304|320:304,2,90,0|0|8
320,120,143220,5,0
408,120,143473,1,0
408,120,143725,2,0,B|480:216|480:216,1,90,0|8
462,281,144229,1,0
462,281,144481,2,0,B|374:369|374:369,1,90
312,344,144985,1,8
256,192,145489,12,4,147002
