osu file format v7

[General]
AudioFilename: hatsunemiku-levaspolka.mp3
AudioLeadIn: 1500
PreviewTime: 50700
Countdown: 0
SampleSet: Soft
StackLeniency: 0.7
Mode: 0
LetterboxInBreaks: 1

[Editor]
Bookmarks: 49427,81695
DistanceSpacing: 1
BeatDivisor: 2
GridSize: 16

[Metadata]
Title:Ievan Polkka
Artist:Hatsune Miku
Creator:Haruhi-boy
Version:Easy
Source:VOCALOID
Tags:ss558882000

[Difficulty]
HPDrainRate:3
CircleSize:4
OverallDifficulty:4
SliderMultiplier:1
SliderTickRate:2

[Events]
//Background and Video events
0,0,"back.jpg"
//Break Periods
//Storyboard Layer 0 (Background)
//Storyboard Layer 1 (Fail)
//Storyboard Layer 2 (Pass)
//Storyboard Layer 3 (Foreground)
//Storyboard Sound Samples
//Background Colour Transformations
3,100,255,255,255

[TimingPoints]
2297,504.2,4,2,0,60,1,0
10251,-100,4,1,0,40,0,0
30419,-100,4,2,0,55,0,0
32435,-100,4,1,0,40,0,0
66217,-100,4,1,0,51,0,0
66330,-100,4,1,0,50,0,1
81960,-100,4,1,0,51,0,0

[Colours]
Combo1 : 52,135,218
Combo2 : 33,214,205
Combo3 : 0,155,155

[HitObjects]
80,80,2297,2,0,B|80:288|80:288,1,200,2|0
176,320,3809,1,2
267,278,4313,6,0,B|416:128|416:128,1,200,2|0
464,48,5826,1,2
368,48,6330,6,0,B|160:48|160:48,1,200,2|0
96,112,7843,1,2
172,176,8347,6,0,B|380:176|380:176,1,200,2|0
432,256,9860,1,2
480,176,10364,6,0,B|480:64|480:64,1,100,2|0
384,80,11372,1,0
288,80,11876,1,2
192,80,12381,6,0,B|192:192|192:192,1,100,2|0
192,272,13389,1,0
288,272,13893,1,2
384,272,14397,6,0,B|384:160|384:160,2,100,2|0|0
320,352,15910,1,2
224,352,16414,6,0,B|112:352|112:352,2,100,2|0|4
416,272,18431,5,2
320,272,18935,2,0,B|96:272|96:272,1,200,0|8
32,304,20448,5,2
32,208,20952,2,0,B|32:0|32:0,1,200,0|8
128,32,22465,5,2
224,80,22969,1,2
320,128,23473,1,2
400,176,23977,1,2
480,224,24481,6,0,B|304:352,1,200,4|0
223,357,25994,1,2
128,368,26498,5,8
65,296,27002,1,8
128,224,27507,1,8
224,224,28011,1,8
224,128,28515,6,0,B|432:128|432:128,1,200,4|0
496,192,30028,1,2
496,288,30532,5,2
416,240,31036,1,2
320,240,31540,1,2
224,240,32044,1,2
128,288,32549,6,0,B|128:80|128:80,1,200,4|0
320,96,34565,6,0,B|366:186|366:186|342:287|342:287,1,200,4|0
242,284,36078,1,8
288,192,36582,2,0,B|64:192|64:192,1,200
128,96,38095,1,8
224,96,38599,2,0,B|320:64|320:64|432:80|432:80,1,200
496,144,40112,6,0,B|496:368|496:368,1,200,8|0
400,320,41624,1,0
304,288,42128,1,4
208,288,42633,5,2
112,336,43137,1,2
48,256,43641,1,2
48,160,44145,1,2
112,80,44649,6,0,B|336:80|336:80,1,200,4|0
400,144,46162,1,0
400,240,46666,5,8
448,320,47170,1,8
352,320,47675,1,8
256,320,48179,1,8
192,240,48683,6,0,B|192:32|192:32,1,200
384,48,50700,6,0,B|384:256|384:256,1,200,2|0
304,192,52212,1,2
224,128,52716,6,0,B|80:272|80:272,1,200,2|0
16,336,54229,1,2
112,336,54733,6,0,B|320:336|320:336,1,200,2|0
384,272,56246,1,2
312,202,56750,6,0,B|104:202|104:202,1,200,2|0
32,144,58263,5,2
32,240,58767,6,0,B|32:352|32:352,1,100,2|0
128,304,59775,1,0
224,304,60279,1,2
320,352,60784,6,0,B|320:240|320:240,1,100,2|0
320,160,61792,1,0
224,160,62296,1,2
128,160,62800,6,0,B|128:272|128:272,2,100,2|0|0
128,64,64313,1,2
224,64,64817,6,0,B|336:64|336:64,2,100,2|0|4
128,64,66330,5,4
128,160,66834,6,0,B|16:160|16:160,1,100,4|8
32,256,67843,1,2
96,336,68347,1,2
160,256,68851,5,2
256,256,69355,1,2
256,160,69859,2,0,B|368:160|368:160,1,100,4|8
448,160,70868,5,8
448,64,71372,1,8
352,64,71876,1,8
256,64,72380,1,8
256,160,72885,6,0,B|144:160|144:160,1,100,4|0
144,256,73893,2,2,B|32:256|32:256,1,100
48,160,74901,5,2
144,160,75406,1,2
240,160,75910,2,0,B|240:272|240:272,1,100,4|0
336,256,76918,5,4
432,256,77422,1,0
384,176,77927,1,4
384,80,78431,1,4
288,80,78935,6,2,B|288:192|288:192,1,100
224,256,79943,2,2,B|112:256|112:256,1,100
48,192,80952,5,2
48,96,81456,1,2
48,96,81960,1,4
