osu file format v7

[General]
AudioFilename: hatsunemiku-levaspolka.mp3
AudioLeadIn: 1500
PreviewTime: 50700
Countdown: 0
SampleSet: Soft
StackLeniency: 0.7
Mode: 0
LetterboxInBreaks: 1

[Editor]
Bookmarks: 49427,81695
DistanceSpacing: 1
BeatDivisor: 4
GridSize: 16

[Metadata]
Title:Ievan Polkka
Artist:Hatsune Miku
Creator:Haruhi-boy
Version:Double-s
Source:VOCALOID
Tags:ss558882000

[Difficulty]
HPDrainRate:7
CircleSize:5
OverallDifficulty:8
SliderMultiplier:1.5
SliderTickRate:3

[Events]
//Background and Video events
0,0,"back.jpg"
//Break Periods
2,49387,63563
//Storyboard Layer 0 (Background)
//Storyboard Layer 1 (Fail)
//Storyboard Layer 2 (Pass)
//Storyboard Layer 3 (Foreground)
//Storyboard Sound Samples
//Background Colour Transformations
3,100,255,255,255

[TimingPoints]
2297,504.2,4,2,0,60,1,0
66330,-100,4,2,0,60,0,1
81960,-100,4,2,0,60,0,0

[Colours]
Combo1 : 52,135,218
Combo2 : 33,214,205
Combo3 : 0,155,155

[HitObjects]
304,80,2297,2,0,B|368:144,1,75
208,96,2801,2,0,B|272:160,1,75
112,112,3305,2,0,B|176:176,1,75
32,240,3809,1,0
144,336,4061,1,0
256,240,4313,1,0
368,336,4565,1,0
432,192,4818,5,0
432,192,4944,1,0
432,192,5070,1,0
336,80,5322,2,0,B|272:16,1,75
256,96,5826,2,0,B|176:64,1,75
176,144,6330,2,0,B|96:128,1,75
96,208,6834,5,0
99,218,6960,1,0
103,228,7086,1,0
107,238,7212,1,0
111,248,7339,1,0
256,304,7591,1,0
352,192,7843,1,0
416,336,8095,1,0
288,240,8347,1,0
432,224,8599,1,0
352,96,8851,1,0
208,96,9103,6,0,B|112:128,1,75,0|0
112,192,9607,1,0
96,224,9733,1,0
80,256,9860,2,0,B|80:304|128:320,1,75,8|0
176,272,10364,1,0
224,336,10616,1,0
256,320,10742,1,0
272,288,10868,2,0,B|272:240|240:224,1,75,8|0
240,224,11372,5,0
288,160,11624,1,0
240,224,11876,1,8
320,224,12128,1,0
368,288,12381,5,0
384,176,12633,1,0
480,240,12885,1,8
384,176,13137,6,8,B|336:128,1,37.5
240,128,13389,1,0
352,32,13641,1,0
304,208,13893,5,8
272,240,14019,1,0
240,240,14145,1,0
208,224,14271,1,0
192,192,14397,1,0
176,160,14523,1,0
144,144,14649,1,0
112,144,14775,1,0
80,160,14902,1,8
80,240,15154,5,0
192,336,15406,1,0
224,192,15658,1,0
368,160,15910,2,0,B|320:160,4,37.5,8|0|0|0|0
256,192,16666,12,4,17423
304,160,17675,5,0
240,208,17927,1,8
224,128,18179,1,0
192,112,18305,1,0
160,128,18431,1,0
128,112,18557,1,0
96,128,18683,1,0
64,112,18809,1,0
32,128,18935,1,8
64,208,19187,5,0
80,240,19313,1,0
112,240,19439,1,0
160,304,19691,5,0
208,160,19944,1,8
304,272,20196,1,0
208,160,20448,1,0
352,128,20700,1,0
240,16,20952,1,8
112,80,21204,6,0,B|80:112,2,37.5,8|8|0
144,144,21708,1,0
176,80,21960,1,8
384,208,22338,6,2,B|416:176,1,37.5
144,192,22717,6,2,B|112:224,1,37.5
160,272,23095,1,0
192,288,23221,1,0
224,288,23347,1,0
256,272,23473,1,0
272,240,23599,1,0
272,208,23725,1,0
304,224,23851,1,0
336,224,23977,1,8
368,208,24103,1,0
384,176,24229,1,0
320,160,24481,5,0
192,80,24733,1,0
208,224,24986,1,8
352,288,25238,2,0,B|400:288,2,37.5,8|8|0
224,352,25742,5,0
224,208,25994,1,8
352,288,26246,1,0
368,144,26498,1,0
224,208,26750,6,2,B|160:208,1,37.5
208,144,27128,2,0,B|160:112,2,37.5,2|2|0
240,144,27507,1,0
272,128,27633,1,0
288,96,27759,1,0
304,64,27885,1,0
320,96,28011,1,8
336,128,28137,1,0
368,144,28263,1,0
400,144,28389,1,0
432,128,28515,1,0
384,80,28767,5,0
304,208,29019,1,8
192,304,29271,2,0,B|128:304,2,37.5,8|8|0
336,304,29775,1,0
192,304,30028,1,8
304,208,30280,1,0
192,304,30532,1,0
192,304,30784,1,0
224,160,31036,1,8
368,112,31288,6,0,B|368:64,2,37.5
384,144,31666,1,0
416,160,31792,1,0
448,160,31918,1,0
480,144,32044,1,8
432,96,32296,5,0
368,240,32549,1,0
224,240,32801,2,0,B|288:240,1,37.5
256,96,33431,5,0
224,112,33557,1,0
224,32,33809,1,0
160,80,34061,1,8
160,192,34439,5,0
176,224,34565,1,0
192,192,34691,1,0
208,224,34817,1,0
224,192,34943,1,0
240,224,35070,1,8
288,176,35322,1,0
304,208,35448,1,0
336,224,35574,1,0
416,96,35826,5,0
336,224,36078,1,8
288,80,36330,1,0
336,224,36582,1,0
400,352,36834,1,0
256,336,37086,1,8
144,240,37338,6,0,B|96:240,2,37.5,8|8|0
256,336,37843,1,0
272,192,38095,1,8
384,160,38473,5,2
368,192,38599,1,2
144,192,38851,5,2
128,160,38977,1,2
224,272,39229,5,0
256,288,39355,1,0
288,288,39481,1,0
320,272,39607,1,0
336,240,39733,1,0
336,208,39859,1,0
368,224,39985,1,0
400,224,40112,1,8
432,208,40238,1,0
448,176,40364,1,0
384,160,40616,5,0
256,80,40868,1,0
272,224,41120,1,8
400,304,41372,2,0,B|448:304,2,37.5,8|8|0
256,352,41876,5,0
176,224,42128,1,8
112,352,42380,1,0
176,224,42633,1,0
32,224,42885,2,0,B|80:224,1,37.5
128,96,43263,6,0,B|96:64,2,37.5
144,128,43641,1,0
160,96,43767,1,0
176,128,43893,1,0
192,96,44019,1,0
208,128,44145,1,8
224,96,44271,1,0
240,128,44397,1,0
256,96,44523,1,0
272,128,44649,1,0
400,208,44901,6,2,B|448:208,1,37.5
160,320,45532,2,0,B|112:320,1,37.5,8|0
272,320,45910,1,0
176,208,46162,1,8
272,320,46414,1,0
272,176,46666,1,0
272,320,46918,1,0
368,208,47170,1,8
448,128,47422,5,0
416,144,47549,1,0
384,128,47675,1,0
368,96,47801,1,0
336,80,47927,1,0
304,96,48053,1,0
272,80,48179,1,8
208,128,48431,5,0
96,240,48683,1,0
240,288,48935,1,0
352,176,49187,1,0
256,192,64313,12,4,65322
432,64,65826,5,0
352,192,66078,1,0
272,64,66330,1,8
352,192,66582,1,0
352,192,66834,1,0
208,208,67086,5,0
320,304,67338,1,8
208,208,67590,1,0
208,208,67843,1,0
192,352,68095,1,0
288,224,68347,5,8
176,128,68599,1,0
320,80,68851,2,0,B|368:80,2,37.5
320,80,69355,1,8
288,224,69607,6,0,B|288:288,2,37.5,8|8|0
192,112,70111,1,0
144,256,70364,1,8
192,112,70616,2,0,B|192:48,2,37.5
144,256,71120,2,0,B|144:304,2,37.5,0|0|8
144,224,71498,5,0
160,192,71624,1,0
192,176,71750,1,0
224,192,71876,1,0
240,224,72002,1,0
272,240,72128,1,0
304,224,72254,1,0
320,192,72380,1,8
352,176,72506,1,0
384,192,72632,1,0
400,224,72758,1,0
400,256,72885,1,0
352,112,73137,6,0,B|352:48,2,37.5,0|0|8
304,176,73641,2,0,B|304:224,2,37.5
256,112,74145,2,0,B|208:112,1,37.5
240,144,74397,2,0,B|192:144,1,37.5
224,176,74649,2,0,B|176:176,1,37.5
208,208,74901,2,0,B|160:208,1,37.5
192,240,75153,2,0,B|144:240,1,37.5
154,240,75406,1,8
288,288,75658,5,0
288,288,75910,2,0,B|336:288,1,37.5,0|0
304,256,76162,2,0,B|352:256,1,37.5
320,224,76414,2,0,B|368:224,1,37.5
336,192,76666,2,0,B|384:192,1,37.5
352,160,76918,2,0,B|400:160,1,37.5
368,128,77170,2,0,B|432:128,2,37.5,0|0|8
304,80,77674,6,0,B|256:80,2,37.5
272,144,78179,1,0
208,176,78431,1,8
272,208,78683,1,0
160,240,78935,5,0
272,288,79187,2,0,B|320:288,2,37.5,0|0|8
160,240,79691,6,0,B|96:240,2,37.5
192,240,80069,1,0
224,224,80195,1,0
240,192,80321,1,0
240,160,80448,1,8
96,192,80700,5,0
416,192,80952,1,0
256,192,81204,12,4,81960
352,160,82212,5,0
224,96,82464,1,0
144,176,82842,6,0,B|208:176,2,37.5
112,192,83221,1,0
112,160,83347,2,0,B|96:112,1,37.5
144,64,83725,1,0
176,80,83851,1,0
192,112,83977,1,0
240,176,84229,1,0
256,112,84481,1,0
304,160,84733,1,0
176,224,84985,5,0
304,160,85237,1,0
304,304,85490,1,0
304,160,85742,2,0,B|304:96,2,37.5
192,160,86246,5,0
256,256,86498,1,0
416,192,86876,2,2,B|448:144,1,37.5
96,192,87254,6,2,B|64:240,1,37.5
144,256,87632,1,0
176,272,87758,1,0
176,240,87884,1,0
208,256,88011,1,0
240,240,88137,1,0
240,272,88263,1,0
272,256,88389,1,0
304,240,88515,1,0
304,272,88641,1,0
336,256,88767,1,0
384,304,89019,5,0
304,176,89271,1,0
240,304,89523,1,0
160,176,89775,2,0,B|96:176,2,37.5,2|2|0
240,304,90279,1,0
304,176,90532,1,0
384,304,90784,1,0
448,176,91036,1,0
304,176,91288,2,0,B|304:112,1,37.5
304,288,91666,6,2,B|304:336,2,37.5,2|2|0
288,256,92044,1,0
352,208,92296,1,0
256,160,92548,5,0
368,112,92800,2,0,B|416:112|432:80,1,75
320,64,93305,2,0,B|272:64,1,37.5
192,272,93683,6,2,B|192:320,2,37.5,2|0|0
176,240,94061,1,0
240,192,94313,1,0
144,144,94565,5,0
256,96,94817,2,0,B|304:96|320:64,1,75
208,48,95321,1,0
320,160,95574,5,0
192,224,95826,1,0
320,288,96078,1,0
192,224,96330,1,0
320,160,96582,1,0
192,224,96834,1,0
320,288,97086,1,0
192,224,97338,1,0
320,160,97590,6,6,B|384:160,2,37.5
288,144,97968,1,0
256,128,98095,1,0
192,160,98347,1,0
256,128,98599,1,8
304,224,98977,5,0
272,240,99103,1,0
240,224,99229,1,0
208,240,99355,1,0
176,224,99481,1,0
144,240,99607,1,8
272,304,99859,6,0,B|272:352,2,37.5
208,160,100363,1,0
160,304,100616,1,8
208,160,100868,1,0
352,224,101120,1,0
208,160,101372,1,0
352,112,101624,1,8
208,64,101876,2,8,B|160:64,2,37.5,8|8|0
352,112,102380,1,0
240,208,102632,1,8
352,192,103010,5,0
320,176,103137,1,0
192,192,103389,5,0
160,176,103516,1,0
96,224,103767,2,0,B|96:272,2,37.5
80,192,104145,1,0
48,176,104271,1,0
32,144,104397,1,0
48,112,104523,1,0
80,96,104649,1,8
96,64,104775,2,0,B|96:16,1,37.5
176,144,105153,5,0
272,256,105405,1,0
144,288,105658,1,8
240,176,105910,2,8,B|240:112,2,37.5,8|8|0
240,288,106414,5,0
144,224,106666,1,8
240,176,106918,1,0
192,224,107170,5,0
176,160,107422,1,0
240,176,107674,1,8
304,192,107926,5,0
320,224,108052,1,0
320,256,108178,1,0
304,288,108305,1,0
272,304,108431,1,0
240,304,108557,1,0
208,288,108683,1,8
192,256,108809,1,0
192,224,108935,1,0
208,192,109061,1,0
240,176,109187,1,0
384,192,109439,5,0
320,48,109691,1,8
96,48,110069,2,0,B|160:48,1,37.5,8|0
48,176,110447,1,0
192,144,110700,1,8
48,176,110952,1,0
160,272,111204,1,0
48,176,111456,1,0
32,320,111708,1,8
32,320,111960,5,0
64,336,112086,1,0
96,336,112212,1,0
128,320,112338,1,0
144,288,112464,1,0
144,256,112590,1,0
128,224,112716,1,8
80,272,112968,5,0
224,336,113221,1,0
224,192,113473,2,0,B|288:192,1,37.5
448,192,114229,5,0
448,48,114481,1,0
320,112,114733,1,8
448,192,115111,6,0,B|496:192|512:192,2,37.5
416,208,115489,1,0
384,224,115615,2,0,B|336:224,1,37.5,0|8
272,192,115994,1,0
304,176,116120,1,0
320,144,116246,1,0
256,128,116498,5,0
208,32,116750,1,8
160,128,117002,1,0
208,32,117254,5,0
208,176,117506,1,0
96,80,117758,1,8
208,176,118010,2,8,B|208:240,2,37.5,8|8|0
128,256,118515,5,0
128,144,118767,1,8
240,272,119145,2,2,B|288:272,1,37.5
272,112,119523,6,0,B|224:112,1,37.5,2|2
320,32,119901,5,0
352,32,120027,1,0
384,48,120153,1,0
400,80,120279,1,0
400,112,120405,1,0
384,144,120531,1,0
352,160,120657,1,0
320,160,120784,1,8
288,176,120910,1,0
272,208,121036,1,0
336,240,121288,5,0
384,288,121540,1,0
400,224,121792,1,8
336,240,122044,2,8,B|288:240,2,37.5,8|8|0
448,272,122548,5,0
416,160,122800,1,8
336,240,123052,1,0
480,208,123305,5,0
368,304,123557,1,0
336,160,123809,2,0,B|288:160,1,37.5,8|0
272,176,124061,5,0
240,192,124187,1,0
208,192,124313,1,0
176,176,124439,1,0
160,144,124565,1,0
160,112,124691,1,0
144,80,124817,1,8
112,64,124943,1,0
80,64,125069,1,0
48,80,125195,1,0
32,112,125321,1,0
96,128,125573,5,0
240,64,125826,1,8
224,208,126078,2,8,B|224:272,1,37.5
240,272,126330,5,0
304,256,126582,1,0
288,320,126834,1,8
304,256,127086,5,0
352,144,127338,1,0
416,240,127590,1,0
304,256,127842,1,8
224,176,128094,5,0
240,144,128220,1,0
240,112,128347,1,0
224,80,128473,1,0
192,64,128599,1,0
160,64,128725,1,0
128,80,128851,1,8
176,128,129103,1,0
256,192,129355,12,4,130363
