osu file format v9

[General]
AudioFilename: Hyper LATiON.mp3
AudioLeadIn: 0
PreviewTime: 91924
Countdown: 0
SampleSet: Normal
StackLeniency: 0.7
Mode: 0
LetterboxInBreaks: 0

[Editor]
Bookmarks: 43130,53229,101348,110853
DistanceSpacing: 0.7
BeatDivisor: 4
GridSize: 4

[Metadata]
Title:Hyper LATiON
Artist:Hatsune Miku
Creator:Lan wings
Version:Die
Source:cosMo
Tags:vocaloid

[Difficulty]
HPDrainRate:5
CircleSize:4
OverallDifficulty:5
ApproachRate:9
SliderMultiplier:1.6
SliderTickRate:1

[Events]
//Background and Video events
0,0,"BG.jpg"
//Break Periods
//Storyboard Layer 0 (Background)
//Storyboard Layer 1 (Fail)
//Storyboard Layer 2 (Pass)
//Storyboard Layer 3 (Foreground)
//Storyboard Sound Samples
//Background Colour Transformations
3,100,163,162,255

[TimingPoints]
12915,297.029702970297,4,1,1,60,1,0
15291,-100,4,1,1,50,0,0
15365,-100,4,1,1,80,0,0
17667,-100,4,1,1,50,0,0
17742,-100,4,1,1,80,0,0
20044,-100,4,1,1,50,0,0
20118,-100,4,1,1,80,0,0
22420,-100,4,1,1,50,0,0
22494,-100,4,1,1,80,0,0
24796,-100,4,1,1,79,0,0
24945,-100,4,1,1,59,0,0
25093,-100,4,1,2,79,0,0
25167,-100,4,1,2,55,0,0
25390,-100,4,1,1,79,0,0
25687,-100,4,1,2,79,0,0
25761,-100,4,1,2,55,0,0
25984,-100,4,1,1,78,0,0
26281,-100,4,1,2,78,0,0
26355,-100,4,1,1,59,0,0
26578,-100,4,1,1,79,0,0
26652,-100,4,1,1,51,0,0
26875,-100,4,1,2,79,0,0
26949,-100,4,1,2,55,0,0
27172,-100,4,1,1,81,0,0
27321,-100,4,1,1,57,0,0
27469,-100,4,1,2,81,0,0
27544,-100,4,1,2,57,0,0
27766,-100,4,1,1,80,0,0
27841,-100,4,1,1,60,0,0
28063,-100,4,1,2,82,0,0
28138,-100,4,1,2,59,0,0
28360,-100,4,1,1,81,0,0
28435,-100,4,1,1,68,0,0
28657,-100,4,1,2,81,0,0
28732,-100,4,1,2,59,0,0
28954,-100,4,1,1,81,0,0
29029,-100,4,1,1,58,0,0
29251,-100,4,1,2,81,0,0
29326,-100,4,1,1,57,0,0
29548,-100,4,1,1,79,0,0
29697,-100,4,1,1,58,0,0
29846,-100,4,1,2,81,0,0
29920,-100,4,1,2,57,0,0
30143,-100,4,1,1,80,0,0
30217,-100,4,1,2,52,0,0
30440,-100,4,1,2,80,0,0
30514,-100,4,1,2,60,0,0
30737,-100,4,1,1,79,0,0
30811,-100,4,1,1,59,0,0
31034,-100,4,1,2,79,0,0
31108,-100,4,1,2,57,0,0
31331,-100,4,1,1,83,0,0
31479,-100,4,1,1,61,0,0
31628,-100,4,1,2,80,0,0
31702,-100,4,1,2,57,0,0
31925,-100,4,1,1,80,0,0
31999,-100,4,1,1,58,0,0
32222,-100,4,1,2,81,0,0
32296,-100,4,1,1,58,0,0
32519,-100,4,1,1,80,0,0
32593,-100,4,1,1,58,0,0
32816,-100,4,1,2,80,0,0
32890,-100,4,1,2,60,0,0
33113,-100,4,1,1,80,0,0
33558,-100,4,1,2,80,0,0
33633,-100,4,1,2,60,0,0
33855,-100,4,1,2,60,0,0
34301,-100,4,1,1,62,0,0
34375,-100,4,1,1,62,0,0
34449,-100,4,2,1,92,0,0
34598,-100,4,2,1,72,0,0
36677,-100,4,2,1,80,0,0
39053,-100,4,2,1,93,0,0
41578,-100,4,2,1,60,0,0
42024,-100,4,2,1,70,0,0
42469,-100,4,2,1,80,0,0
42915,-100,4,2,1,70,0,0
43212,-100,4,1,2,65,0,0
81826,-100,4,1,2,45,0,0
83608,-100,4,1,2,65,0,0
83905,-100,4,1,2,45,0,0
84053,-100,4,1,1,100,0,0
84202,-100,4,1,2,45,0,0
85984,-100,4,1,2,65,0,0
86281,-100,4,1,2,45,0,0
86430,-100,4,1,1,100,0,0
86578,-100,4,1,2,45,0,0
88360,-100,4,1,2,65,0,0
88657,-100,4,1,2,45,0,0
88806,-100,4,1,1,100,0,0
88954,-100,4,1,2,45,0,0
90737,-100,4,1,2,40,0,0
90885,-100,4,1,2,50,0,0
91034,-100,4,1,2,60,0,0
91182,-100,4,1,2,70,0,0
91331,-66.6666666666667,4,2,2,70,0,0
91826,-100,4,1,2,55,0,0
99202,-100,4,1,1,100,0,0
99425,-100,4,1,2,60,0,0
99796,-100,4,1,2,55,0,0
101430,-100,4,1,1,70,0,1
101504,-100,4,2,1,70,0,1
101727,-100,4,1,1,70,0,1
101801,-100,4,2,1,70,0,1
102024,-100,4,1,1,70,0,1
102098,-100,4,2,1,70,0,1
102321,-100,4,1,1,70,0,1
102395,-100,4,2,1,70,0,1
102618,-100,4,1,1,70,0,1
102692,-100,4,2,1,70,0,1
102915,-100,4,1,1,70,0,1
102989,-100,4,2,1,70,0,1
103212,-100,4,1,1,70,0,1
103286,-100,4,2,1,70,0,1
103509,-100,4,1,1,70,0,1
103583,-100,4,2,1,70,0,1
103657,-100,4,1,1,70,0,1
103732,-100,4,2,1,70,0,1
103806,-100,4,1,1,70,0,1
103880,-100,4,2,1,70,0,1
104103,-100,4,1,1,70,0,1
104177,-100,4,2,1,70,0,1
104400,-100,4,1,1,70,0,1
104474,-100,4,2,1,70,0,1
104697,-100,4,1,1,70,0,1
104771,-100,4,2,1,70,0,1
104994,-100,4,1,1,70,0,1
105068,-100,4,2,1,70,0,1
105291,-100,4,1,1,70,0,1
105365,-100,4,2,1,70,0,1
105588,-100,4,1,1,70,0,1
105662,-100,4,2,1,70,0,1
105736,-100,4,1,1,70,0,1
105811,-100,4,2,1,70,0,1
105885,-100,4,1,1,70,0,1
105959,-100,4,2,1,70,0,1
106033,-100,4,1,1,70,0,1
106108,-100,4,2,1,70,0,1
106182,-100,4,1,1,70,0,1
106256,-100,4,2,1,70,0,1
106479,-100,4,1,1,70,0,1
106553,-100,4,2,1,70,0,1
106776,-100,4,1,1,70,0,1
106850,-100,4,2,1,70,0,1
107073,-100,4,1,1,70,0,1
107147,-100,4,2,1,70,0,1
107370,-100,4,1,1,70,0,1
107444,-100,4,2,1,70,0,1
107667,-100,4,1,1,70,0,1
107741,-100,4,2,1,70,0,1
107964,-100,4,1,1,70,0,1
108038,-100,4,2,1,70,0,1
108261,-100,4,1,1,70,0,1
108335,-100,4,2,1,70,0,1
108558,-100,4,1,1,70,0,1
108633,-100,4,2,1,70,0,1
108707,-100,4,1,1,70,0,1
108781,-100,4,2,1,70,0,1
108855,-100,4,1,1,70,0,1
108930,-100,4,2,1,70,0,1
109004,-100,4,1,1,70,0,1
109078,-100,4,2,1,70,0,1
109152,-100,4,1,1,70,0,1
109227,-100,4,2,1,70,0,1
109301,-100,4,1,1,70,0,1
109375,-100,4,2,1,70,0,1
109449,-100,4,1,1,70,0,1
109524,-100,4,2,1,70,0,1
109598,-100,4,1,1,70,0,1
109672,-100,4,2,1,70,0,1
109746,-100,4,1,1,70,0,1
109821,-100,4,2,1,70,0,1
109895,-100,4,1,1,70,0,1
109969,-100,4,2,1,70,0,1
110043,-100,4,1,1,70,0,1
110118,-100,4,2,1,70,0,1
110192,-100,4,1,1,70,0,1
110266,-100,4,2,1,70,0,1
110340,-100,4,1,1,70,0,1
110415,-100,4,2,1,70,0,1
110489,-100,4,1,1,70,0,1
110563,-100,4,2,1,70,0,1
110637,-100,4,1,1,70,0,1
110712,-100,4,2,1,70,0,1
110786,-100,4,1,1,70,0,1
110860,-100,4,2,1,70,0,1
110935,-100,4,1,2,50,0,0
115687,-100,4,1,2,55,0,0
118063,-100,4,1,2,55,0,0
118138,-100,4,1,2,55,0,0
118360,-100,4,1,1,65,0,0
118435,-100,4,1,2,55,0,0
118657,-100,4,1,1,65,0,0
118732,-100,4,1,2,55,0,0
118954,-100,4,1,1,65,0,0
119029,-100,4,1,2,55,0,0
119251,-100,4,2,1,55,0,0
119548,-100,4,2,1,50,0,0
119846,-100,4,2,1,55,0,0
120440,-100,4,1,2,45,0,0
122222,-100,4,1,2,55,0,0
122519,-100,4,1,2,45,0,0
122667,-100,4,1,1,100,0,0
122816,-100,4,1,2,45,0,0
124598,-100,4,1,2,55,0,0
124895,-100,4,1,2,45,0,0
125044,-100,4,1,1,100,0,0
125192,-100,4,1,2,45,0,0
126974,-100,4,1,2,55,0,0
127271,-100,4,1,2,45,0,0
127420,-100,4,1,1,100,0,0
127568,-100,4,1,2,45,0,0
129499,-100,4,1,1,95,0,0
129648,-100,4,1,2,40,0,0
129796,-100,4,1,2,55,0,0
130093,-100,4,1,1,40,0,0
135216,-100,4,1,1,20,0,0

[Colours]
Combo1 : 0,0,128
Combo2 : 255,255,255
Combo3 : 128,128,192
Combo4 : 0,128,255

[HitObjects]
256,192,12915,5,0
256,192,13509,1,0
384,192,14103,1,0
336,236,14400,1,0
284,276,14697,1,0
232,312,14994,1,0
44,268,15291,5,4
76,248,15365,1,0
108,228,15440,1,0
140,208,15514,1,0
172,188,15588,1,2
204,168,15662,1,0
236,148,15737,1,0
268,128,15811,1,0
300,112,15885,1,0
332,96,15959,1,0
364,76,16034,1,0
396,56,16108,1,0
428,44,16182,2,0,B|464:24,2,40,2|0|0
496,80,16479,5,0
464,100,16553,1,0
432,120,16628,1,0
400,140,16702,1,0
368,160,16776,1,2
336,180,16850,1,0
304,200,16925,1,0
272,220,16999,1,0
240,236,17073,1,0
208,252,17147,1,0
176,272,17222,1,0
144,288,17296,1,0
112,304,17370,2,0,B|56:332,2,40,2|0|0
32,252,17667,5,4
68,252,17742,1,0
104,252,17816,1,0
140,252,17890,1,0
176,252,17964,1,2
212,252,18039,1,0
248,252,18113,1,0
284,252,18187,1,0
320,252,18261,1,0
356,252,18336,1,0
392,252,18410,1,0
428,252,18484,1,0
464,252,18558,2,0,B|504:252,2,40,2|0|0
484,160,18855,5,0
448,152,18930,1,0
412,144,19004,1,0
376,136,19078,1,0
340,128,19152,1,2
304,120,19227,1,0
268,112,19301,1,0
232,104,19375,1,0
196,96,19449,1,0
160,88,19524,1,0
124,80,19598,1,0
88,72,19672,1,0
52,64,19746,2,0,B|-12:48,2,40,2|0|0
8,152,20044,5,4
24,176,20118,1,0
40,196,20192,1,0
56,216,20266,1,0
72,240,20341,1,2
88,264,20415,1,0
104,284,20489,1,0
120,308,20563,1,0
136,332,20638,2,0,B|176:388,6,40,0|0|0|0|2|0|0
220,288,21232,5,0
228,260,21306,1,0
236,232,21380,1,0
244,204,21454,1,0
252,176,21529,1,2
260,148,21603,1,0
268,120,21677,1,0
276,92,21751,1,0
284,64,21826,2,0,B|300:4,6,40,0|0|0|0|2|0|0
372,28,22420,5,4
384,52,22494,1,0
400,76,22568,1,0
412,100,22643,1,0
424,124,22717,1,2
436,148,22791,1,0
448,172,22865,1,0
460,196,22940,1,0
472,220,23014,2,0,B|496:268,6,40,0|0|0|0|2|0|0
396,268,23608,5,0
376,264,23682,1,0
356,260,23756,1,0
336,256,23831,1,0
316,252,23905,1,2
296,248,23979,1,0
276,244,24053,1,2
256,240,24128,1,0
236,236,24202,1,0
216,232,24276,1,0
196,228,24350,1,0
176,224,24425,1,0
160,220,24499,1,2
144,216,24573,1,0
128,212,24647,1,0
40,169,24796,6,0,B|1:92,1,80,8|0
99,91,25093,2,0,B|98:46,2,40,8|0|0
152,171,25390,2,0,B|191:94,1,80,8|0
248,175,25687,5,8
260,187,25761,1,0
272,199,25836,1,0
352,251,25984,1,8
352,252,26133,1,0
432,199,26281,1,8
444,187,26355,1,0
456,175,26430,1,0
511,111,26578,6,0,B|443:47,1,80,8|0
357,72,26875,2,0,B|308:20,2,40,8|0|0
320,164,27172,2,0,B|248:228,1,80,8|0
240,124,27469,1,8
228,136,27544,1,0
216,148,27618,1,0
156,76,27766,6,0,B|100:152,1,80,8|0
24,188,28063,1,8
36,200,28138,1,0
48,212,28212,1,0
60,224,28286,1,0
72,236,28360,2,0,B|116:276,2,40,8|0|0
168,228,28657,5,8
180,240,28732,1,0
192,252,28806,1,0
276,296,28954,1,8
284,284,29029,1,0
292,272,29103,1,0
300,260,29177,1,0
308,248,29251,2,0,B|364:160,1,80,8|0
352,164,29474,5,0
352,148,29548,2,0,B|400:72,1,80,8|0
488,52,29845,1,8
488,68,29920,1,0
488,84,29994,1,0
448,172,30143,2,0,B|448:216,2,40,8|0|0
388,248,30440,1,8
388,264,30514,1,0
388,280,30588,1,0
320,212,30737,6,0,B|320:156,2,40,8|0|0
224,192,31034,1,8
208,192,31108,1,0
192,192,31182,1,0
176,192,31256,1,0
160,192,31331,1,8
76,240,31479,1,0
76,144,31628,5,8
76,128,31702,1,0
76,112,31776,1,0
168,144,31925,2,0,B|168:76,2,40,8|0|0
168,240,32222,2,0,B|168:280,2,40,8|0|0
252,192,32519,5,8
279,192,32593,1,0
306,192,32667,1,0
334,193,32742,1,0
361,193,32816,1,8
388,193,32890,1,0
415,193,32964,1,0
443,193,33039,1,0
470,193,33113,1,8
408,268,33261,5,8
408,268,33410,1,8
312,268,33558,5,8
300,256,33633,1,0
288,244,33707,1,0
192,244,33855,1,8
180,232,33930,1,0
168,220,34004,1,8
72,212,34152,1,8
60,200,34227,1,0
48,188,34301,6,0,B|4:148,2,40,4|0|2
100,108,34598,2,0,B|80:48,2,40,0|0|2
196,108,34895,2,0,B|204:168,2,40,2|0|2
288,76,35192,5,0
376,116,35341,1,2
396,144,35415,1,0
404,180,35489,1,0
404,216,35563,1,0
392,248,35638,1,2
364,272,35712,1,0
332,288,35786,6,0,B|292:300,3,40,0|0|2|0
256,300,36083,2,0,B|204:300,3,40,0|0|2|0
180,288,36380,5,2
152,264,36454,1,0
136,232,36529,1,2
128,196,36603,1,0
124,160,36677,1,0
132,124,36751,1,0
144,92,36826,1,2
168,64,36900,1,0
200,48,36974,6,0,B|260:44,3,40,0|0|2|0
276,48,37271,2,0,B|336:76,3,40,2|0|2|0
336,92,37568,5,0
344,128,37643,1,0
336,164,37717,1,2
308,188,37791,1,0
272,192,37865,2,0,B|220:184,3,40,0|0|2|0
200,172,38162,5,0
168,152,38237,1,0
152,120,38311,1,2
124,96,38385,1,0
92,84,38459,2,0,B|40:104,3,40,0|0|2|0
28,120,38756,6,0,B|8:176,3,40,2|0|2|0
24,192,39053,2,0,B|60:224,3,40,0|0|2|0
60,220,39350,5,0
68,220,39425,1,0
76,220,39499,1,2
84,220,39573,1,0
92,220,39647,1,0
100,220,39722,1,0
108,220,39796,5,2
116,220,39870,1,0
124,220,39945,1,2
132,220,40019,1,0
140,220,40093,1,2
148,220,40167,1,0
156,220,40242,5,2
164,220,40316,1,0
172,220,40390,1,2
180,220,40464,1,0
188,220,40539,1,0
196,220,40613,1,0
204,220,40687,5,2
212,220,40761,1,0
220,220,40836,1,2
228,220,40910,1,0
236,220,40984,1,2
244,220,41058,1,0
252,220,41133,5,2
260,220,41207,1,0
268,220,41281,1,2
276,220,41355,1,0
284,220,41430,1,2
292,220,41504,1,0
300,220,41578,5,0
308,220,41652,1,0
316,220,41727,1,0
324,220,41801,1,0
332,220,41875,1,2
340,220,41949,1,2
348,220,42024,5,2
356,220,42098,1,2
364,220,42172,1,2
372,220,42246,1,2
380,220,42321,1,2
388,220,42395,1,2
396,220,42469,5,2
404,220,42544,1,2
412,220,42618,1,2
420,220,42692,1,2
428,220,42766,1,2
436,220,42841,1,2
444,220,42915,5,2
452,220,42989,1,2
460,220,43063,1,2
468,220,43138,1,2
256,192,43212,12,4,43806
256,192,44103,5,0
436,128,44400,5,0
392,108,44499,1,0
344,96,44598,1,0
296,88,44697,1,0
248,88,44796,1,0
200,100,44895,1,0
156,116,44994,1,0
32,188,45291,6,0,B|84:264|200:276,2,160
220,232,46182,5,0
400,300,46479,2,0,B|452:276|469:197,1,106.666666666667,0|0
476,172,46776,1,0
336,40,47073,5,0
324,88,47172,1,0
312,136,47271,1,0
300,184,47370,1,0
120,252,47667,6,0,B|180:320|264:320,2,160
0,104,48558,6,0,B|100:164,1,106.666666666667,0|0
140,120,48855,2,0,B|180:168|176:252,1,106.666666666667,0|0
240,212,49152,2,0,B|280:256|360:260,1,106.666666666667,0|0
384,260,49449,5,0
432,248,49548,1,0
464,212,49647,1,0
476,164,49746,1,0
472,116,49845,1,0
444,80,49944,1,0
404,56,50044,2,0,B|292:104,1,106.666666666667,0|0
288,36,50340,2,0,B|220:136,1,106.666666666667,0|0
176,84,50637,2,0,B|176:204,1,106.666666666667,0|0
180,240,50935,5,4
200,284,51034,1,0
240,312,51133,1,0
288,320,51232,1,0
336,312,51331,1,0
372,280,51430,1,0
396,236,51529,2,0,B|404:180,5,53.3333333333333,4|0|0|0|0|0
408,136,52123,5,0
400,88,52222,1,0
372,48,52321,1,0
328,24,52420,1,0
280,20,52519,1,0
232,28,52618,1,0
192,52,52717,2,0,B|156:116,5,53.3333333333333
136,156,53311,5,4
136,156,53509,1,0
136,156,53608,2,0,B|188:200|244:148|320:172,1,160
336,176,54004,1,0
380,196,54103,1,0
412,232,54202,1,0
436,276,54301,1,0
308,288,54499,5,0
284,268,54598,1,0
264,140,54796,1,0
240,160,54895,1,0
124,108,55093,1,0
120,140,55192,1,0
12,212,55390,1,0
32,236,55489,1,0
160,228,55687,6,0,B|212:296|276:304,1,106.666666666667,4|0
244,232,55984,2,0,B|324:252|388:316,1,160
492,244,56479,5,0
492,212,56578,1,0
392,132,56776,1,0
376,104,56875,1,0
364,232,57073,1,0
340,252,57172,1,0
264,148,57370,5,0
236,136,57469,1,0
112,164,57667,1,0
140,176,57766,1,0
28,332,58063,6,0,B|-4:336,12,26.6666666666667
76,324,58756,1,0
124,320,58855,1,0
172,312,58954,1,0
220,300,59053,1,0
264,280,59152,1,0
304,252,59251,6,0,B|336:200,2,53.3333333333333
264,200,59548,2,0,B|212:156,2,53.3333333333333
212,236,59845,2,0,B|148:256,2,53.3333333333333
172,188,60142,2,0,B|128:160,2,53.3333333333333
196,128,60440,6,0,B|196:100,12,26.6666666666667
240,144,61132,5,0
288,148,61231,1,0
332,132,61330,1,0
368,100,61429,1,0
408,76,61528,1,0
456,80,61627,1,0
492,112,61726,5,0
508,156,61825,1,0
504,204,61924,1,0
480,244,62023,1,0
436,268,62122,1,0
388,276,62221,2,0,B|344:272,9,26.6666666666667
268,184,62816,5,4
256,88,62964,1,0
292,92,63039,1,0
320,112,63113,1,0
340,140,63187,1,0
348,176,63261,1,0
348,212,63336,1,0
332,244,63410,6,0,B|268:328,1,80
184,228,63707,1,0
224,348,63855,1,0
264,228,64004,1,4
164,304,64152,5,0
140,280,64227,1,0
124,248,64301,1,0
116,212,64375,1,0
120,176,64449,1,0
132,140,64524,1,0
156,112,64598,1,0
164,16,64746,5,0
200,24,64821,1,0
228,44,64895,1,0
252,72,64969,1,0
256,108,65044,2,0,B|212:200,1,80,0|4
280,296,65341,5,0
288,280,65415,1,0
296,264,65489,1,4
408,200,65638,5,0
400,216,65712,1,0
392,232,65786,1,0
348,112,65935,5,0
356,96,66009,1,0
364,80,66083,1,0
492,84,66232,5,0
492,84,66380,2,0,B|424:232,1,160,4|0
332,316,66826,5,0
324,300,66900,1,0
316,284,66974,1,4
220,200,67123,1,0
348,216,67271,1,0
236,280,67420,1,0
288,164,67568,1,4
240,44,67717,5,0
240,44,67791,1,0
240,44,67865,1,0
156,140,68014,1,0
156,140,68088,1,0
156,140,68162,1,4
280,108,68311,1,0
160,60,68459,1,4
224,172,68608,1,0
240,44,68756,5,4
156,140,68905,5,0
164,176,68979,1,0
184,208,69053,1,0
212,232,69128,1,0
244,244,69202,1,0
280,252,69276,1,0
316,256,69350,2,0,B|416:232,1,80
484,148,69647,5,0
468,152,69722,1,0
452,156,69796,2,0,B|372:176,1,80,0|4
280,196,70093,1,0
280,196,70167,1,0
280,196,70242,1,0
284,100,70390,5,0
248,112,70464,1,0
220,136,70539,1,0
204,168,70613,1,0
200,204,70687,2,0,B|212:296,2,80
120,260,71133,5,4
40,212,71281,1,0
56,180,71355,1,0
72,148,71430,1,0
88,116,71504,1,0
104,84,71578,2,0,B|140:48|208:52,1,80
160,148,71875,5,0
188,128,71949,1,0
224,116,72024,1,0
260,112,72098,1,0
296,120,72172,1,0
328,140,72246,1,0
348,172,72321,1,4
256,200,72469,6,0,B|208:200,2,40
324,268,72766,1,0
324,268,72841,1,0
324,268,72915,1,0
412,228,73063,6,0,B|440:264,2,40
400,132,73360,1,0
400,132,73435,1,0
400,132,73509,2,0,B|288:112|216:156,1,160
160,188,73954,5,0
144,196,74029,1,0
132,208,74103,1,0
124,224,74177,1,0
120,240,74251,2,0,B|175:309|272:348,1,160
340,344,74697,5,4
428,308,74845,1,0
444,276,74920,1,0
452,240,74994,1,0
452,204,75068,1,0
444,168,75143,2,0,B|436:117|388:80,1,80
328,48,75440,5,0
320,64,75514,1,0
312,80,75588,2,0,B|276:152,1,80
180,140,75885,2,0,B|260:248,1,120
260,248,76182,5,0
352,268,76331,1,0
356,172,76479,2,0,B|464:180,2,80
36,152,77073,5,4
44,168,77147,1,0
56,184,77222,1,0
72,204,77296,1,0
92,224,77370,1,0
120,244,77445,1,0
152,260,77519,1,0
188,272,77593,1,0
224,280,77667,5,0
260,284,77742,1,0
296,284,77816,1,0
332,280,77890,1,0
364,268,77964,1,0
392,248,78039,1,0
416,220,78113,1,0
428,184,78187,1,0
428,148,78261,2,0,B|424:96,5,40
412,72,78707,5,0
380,92,78781,1,0
348,108,78855,1,0
312,120,78930,1,0
276,128,79004,1,0
240,128,79078,1,0
204,128,79152,1,0
168,124,79227,1,0
132,116,79301,1,0
96,104,79375,1,0
68,84,79449,2,0,B|20:48,5,40,4|0|0|0|0|0
8,36,79895,5,0
8,72,79969,1,0
8,108,80044,1,0
20,144,80118,1,0
40,176,80192,1,0
60,204,80266,1,0
84,232,80341,1,0
116,248,80415,1,0
152,256,80489,1,0
188,260,80563,1,0
224,264,80638,2,0,B|276:256,5,40
296,240,81083,5,0
312,208,81157,1,0
312,172,81232,1,0
296,140,81306,1,0
268,116,81380,1,0
236,100,81454,1,0
200,96,81529,1,0
164,104,81603,1,0
132,120,81677,1,0
116,152,81751,1,0
108,188,81826,6,0,B|108:248,4,40,4|0|0|0|0
404,196,82271,2,0,B|404:136,4,40
260,44,82717,2,0,B|200:44,4,40
252,340,83162,2,0,B|312:340,4,40
256,244,83608,5,0
256,228,83682,1,0
256,212,83756,1,0
256,196,83831,1,0
256,180,83905,1,0
256,164,83979,1,0
256,148,84053,1,0
256,132,84128,1,0
256,116,84202,6,0,B|256:52,4,40,0|0|0|0|0
256,268,84647,2,0,B|256:332,4,40
180,192,85093,2,0,B|116:192,4,40
332,192,85539,2,0,B|396:192,4,40
256,136,85984,5,0
256,152,86058,1,0
256,168,86133,1,0
256,184,86207,1,0
256,200,86281,1,0
256,216,86355,1,0
256,232,86430,1,0
256,248,86504,1,0
256,264,86578,6,0,B|256:324,4,40,4|0|0|0|0
344,264,87024,5,0
356,228,87098,1,0
360,192,87172,1,0
356,156,87246,1,0
344,120,87321,1,0
168,264,87469,5,0
156,228,87544,1,0
152,192,87618,1,0
156,156,87692,1,0
168,120,87766,1,0
256,76,87915,6,0,B|256:16,4,40,0|0|0|0|0
340,124,88360,5,0
320,152,88435,1,0
292,176,88509,1,0
260,192,88583,1,0
224,200,88657,1,0
188,204,88732,1,0
152,196,88806,1,0
120,180,88880,1,0
92,156,88954,2,0,B|52:96,4,40
144,76,89400,5,0
176,92,89474,1,0
208,108,89548,1,0
240,124,89623,1,0
272,140,89697,1,0
372,80,89845,5,0
356,112,89920,1,0
340,144,89994,1,0
324,176,90068,1,0
308,208,90143,1,0
368,308,90291,5,0
336,292,90365,1,0
304,276,90440,1,0
272,260,90514,1,0
240,244,90588,1,0
140,304,90737,5,0
156,272,90811,1,0
172,240,90885,1,0
188,208,90959,1,0
204,176,91034,1,0
220,144,91108,1,0
236,112,91182,1,0
256,80,91256,1,0
272,48,91331,2,0,B|352:112,5,79.9999976158143,0|0|0|0|0|0
360,116,91925,5,0
268,200,92073,1,0
256,212,92147,1,0
244,224,92222,1,0
120,256,92370,5,0
132,244,92445,1,0
144,232,92519,1,0
156,104,92667,5,0
144,116,92742,1,0
132,128,92816,1,0
8,164,92964,5,0
20,152,93039,1,0
32,140,93113,2,0,B|76:96,2,53.3333333333333
116,152,93410,2,0,B|188:116,2,53.3333333333333
192,192,93707,2,0,B|280:204,2,53.3333333333333
236,264,94004,2,0,B|300:316,2,53.3333333333333
320,248,94301,5,0
440,212,94449,1,0
432,196,94524,1,0
424,180,94598,1,0
416,164,94672,1,0
408,148,94746,1,0
400,132,94821,1,0
392,116,94895,1,0
284,48,95044,5,0
292,64,95118,1,0
300,80,95192,1,0
276,204,95341,5,0
268,188,95415,1,0
260,172,95489,2,0,B|220:100,2,53.3333333333333
176,164,95786,2,0,B|100:148,2,53.3333333333333
112,220,96083,2,0,B|20:236,2,53.3333333333333
76,296,96380,2,0,B|16:336,2,53.3333333333333
160,296,96677,5,0
288,316,96826,1,0
300,304,96900,1,0
312,292,96974,1,0
324,280,97048,1,0
336,268,97123,1,0
348,256,97197,1,0
360,244,97271,1,0
380,116,97420,5,0
368,128,97494,1,0
356,140,97568,1,0
228,148,97717,5,0
240,136,97791,1,0
252,124,97865,2,0,B|300:76,2,53.3333333333333
336,132,98162,2,0,B|412:104,2,53.3333333333333
408,176,98459,2,0,B|496:192,2,53.3333333333333
448,252,98756,2,0,B|504:296,2,53.3333333333333
384,308,99053,5,0
256,316,99202,1,0
256,300,99276,1,0
256,284,99350,1,0
256,268,99425,1,0
256,252,99499,1,0
256,236,99573,1,0
256,220,99647,1,0
192,108,99796,5,0
192,124,99870,1,0
192,140,99945,1,0
320,140,100093,5,0
320,124,100167,1,0
320,108,100242,2,0,B|320:40,2,53.3333333333333,4|0|0
256,52,100539,2,0,B|256:132,2,53.3333333333333,0|0|0
192,108,100836,2,0,B|192:40,2,53.3333333333333,0|0|0
128,52,101133,2,0,B|128:128,2,53.3333333333333,0|0|0
44,48,101429,5,8
44,64,101504,1,0
44,80,101578,1,2
44,96,101652,1,0
44,112,101726,1,2
48,128,101801,1,0
52,144,101875,1,2
56,160,101949,1,0
64,176,102023,5,8
72,192,102098,1,0
80,204,102172,1,2
88,216,102246,1,0
100,228,102320,1,2
112,236,102395,1,0
124,244,102469,1,2
136,252,102543,1,0
152,256,102617,6,0,B|216:272,7,40,8|0|2|0|2|0|2|0
208,268,103211,2,0,B|264:272,7,40,8|0|2|0|2|0|2|0
268,272,103806,5,8
288,272,103880,1,0
308,272,103954,1,2
328,272,104028,1,0
348,268,104103,1,2
368,264,104177,1,0
388,256,104251,1,2
404,244,104325,1,0
420,232,104400,6,0,B|452:188,7,40,8|0|2|0|2|0|2|0
456,184,104994,5,8
464,164,105068,1,0
468,144,105142,1,2
468,124,105217,1,0
464,104,105291,1,2
456,84,105365,1,0
444,68,105439,1,2
428,56,105514,1,0
412,48,105588,6,0,B|372:36,7,40,8|0|2|0|2|0|2|0
348,32,106182,5,8
324,32,106256,1,0
300,36,106331,1,2
280,44,106405,1,0
264,60,106479,1,2
248,80,106553,1,0
240,104,106628,1,2
240,128,106702,1,0
244,152,106776,5,8
256,172,106850,1,0
272,188,106924,1,2
296,196,106999,1,0
320,200,107073,1,2
344,196,107147,1,0
368,188,107222,1,2
384,172,107296,1,0
400,152,107370,5,8
404,128,107445,1,0
400,104,107519,1,2
388,84,107593,1,0
368,68,107667,1,2
344,60,107742,1,0
320,60,107815,1,2
296,68,107890,1,0
280,84,107964,6,0,B|248:120,7,40,8|0|2|0|2|0|2|0
236,136,108558,6,0,B|220:188,3,40,8|0|2|0
220,204,108855,2,0,B|220:252,3,40,8|0|2|0
216,272,109152,2,0,B|200:308,3,40,8|0|2|0
180,328,109449,2,0,B|128:336,3,40,8|0|2|0
112,336,109746,5,8
84,332,109821,1,0
60,320,109895,1,2
40,300,109969,1,0
24,276,110044,1,2
16,248,110118,1,0
12,220,110192,1,2
12,192,110266,1,0
20,164,110341,5,2
32,140,110414,1,0
52,120,110489,1,2
72,104,110563,1,0
100,96,110638,1,2
128,96,110712,1,0
156,104,110786,1,2
180,120,110860,1,0
200,132,110934,6,0,B|244:160,3,40
256,164,111231,2,0,B|316:180,3,40
320,176,111528,2,0,B|368:200,3,40
376,208,111826,5,0
432,320,111974,2,0,B|456:368,2,40
304,308,112271,2,0,B|272:276,2,40
420,256,112568,1,0
492,152,112717,5,0
484,140,112791,1,0
476,128,112865,1,0
468,116,112940,1,0
460,104,113014,1,0
452,92,113088,1,0
444,80,113162,1,0
320,40,113311,5,4
192,44,113459,1,0
184,56,113534,1,0
176,68,113608,1,0
168,80,113682,1,0
160,92,113756,2,0,B|168:143|216:180,1,80,0|0
76,208,114053,5,0
92,216,114128,1,0
108,224,114202,2,0,B|152:252|164:292,1,80,0|0
284,320,114499,2,0,B|304:252|364:212,1,120,0|0
364,212,114796,5,8
488,172,114945,1,0
376,108,115093,2,0,B|268:100,2,80
476,272,115687,5,4
460,280,115761,1,0
440,288,115836,1,0
416,292,115910,1,0
388,296,115984,1,0
356,296,116058,1,0
324,288,116133,1,0
296,272,116207,1,0
272,248,116281,5,0
260,220,116355,1,0
260,188,116430,1,0
264,156,116504,1,0
276,128,116578,1,0
296,104,116652,1,0
324,88,116727,1,0
356,84,116801,1,0
388,92,116875,5,0
412,116,116949,1,0
424,148,117024,1,0
424,180,117098,1,0
408,208,117172,1,0
380,220,117246,1,0
348,216,117321,1,0
320,200,117395,1,0
292,184,117469,5,0
268,164,117544,1,0
244,144,117618,1,0
212,136,117692,1,0
180,136,117766,1,0
148,144,117841,1,0
120,160,117915,1,0
96,184,117989,1,0
80,212,118063,6,0,B|92:280,3,40,12|0|0|0
100,280,118360,2,0,B|156:300,3,40,8|0|0|0
168,304,118657,2,0,B|232:292,3,40,8|0|0|0
240,292,118954,2,0,B|296:260,3,40,8|0|0|0
304,248,119251,5,2
324,216,119326,1,2
328,180,119400,1,2
320,144,119474,1,2
296,116,119548,1,2
268,96,119623,1,2
232,88,119697,5,2
196,88,119771,1,2
160,96,119845,1,2
132,116,119920,1,2
112,144,119994,1,2
104,180,120068,1,2
112,216,120143,1,2
360,176,120440,5,0
372,200,120514,1,0
384,224,120588,1,0
396,248,120662,1,0
408,272,120737,1,0
304,344,120885,5,0
316,320,120959,1,0
328,296,121034,1,0
340,272,121108,1,0
352,248,121182,1,0
248,172,121331,5,0
260,196,121405,1,0
272,220,121479,1,0
284,244,121553,1,0
296,268,121628,1,0
192,340,121776,5,0
204,316,121850,1,0
216,292,121925,1,0
228,268,121999,1,0
240,244,122073,1,0
120,192,122222,5,0
148,192,122296,1,0
176,192,122370,1,0
204,192,122445,1,0
232,192,122519,1,0
260,192,122593,1,0
288,192,122667,1,0
316,192,122742,1,0
344,192,122816,6,0,B|396:192,4,40
288,76,123261,2,0,B|320:36,4,40
228,188,123707,2,0,B|256:252,4,40
132,104,124152,2,0,B|68:84,4,40
64,212,124598,5,0
88,224,124672,1,0
112,236,124746,1,0
136,248,124821,1,0
160,260,124895,1,0
184,272,124969,1,0
208,284,125044,1,0
232,296,125118,1,0
256,308,125192,6,0,B|312:332,4,40
264,180,125638,2,0,B|212:136,4,40,0|0|0|0|0
360,96,126083,5,0
336,84,126157,1,0
312,72,126232,1,0
288,60,126306,1,0
264,48,126380,1,0
192,152,126529,5,0
216,140,126603,1,0
240,128,126677,1,0
264,116,126751,1,0
288,104,126826,1,0
408,152,126974,5,0
380,160,127048,1,0
352,168,127123,1,0
324,176,127197,1,0
296,184,127271,1,0
268,192,127345,1,0
240,200,127420,1,0
212,208,127494,1,0
184,216,127568,2,0,B|124:232,4,40
144,76,128014,5,0
176,92,128088,1,0
208,108,128162,1,0
240,124,128237,1,0
272,140,128311,1,0
368,308,128459,5,0
336,292,128534,1,0
304,276,128608,1,0
272,260,128682,1,0
240,244,128756,1,0
140,304,128905,5,0
156,272,128979,1,0
172,240,129053,1,0
188,208,129128,1,0
204,176,129202,1,0
372,80,129350,5,0
356,112,129425,1,0
340,144,129499,1,0
324,176,129573,1,0
308,208,129647,1,0
292,240,129722,1,0
276,272,129796,1,0
256,304,129870,1,0
240,336,129945,1,0
256,192,130093,12,0,134771
256,192,135216,5,0
