osu file format v5

[General]
AudioFilename: Hontou Ni Daijinanoha hitotsudake.mp3
AudioLeadIn: 320
PreviewTime: -1
Countdown: 1
SampleSet: Normal
StackLeniency: 0.7
Mode: 0
LetterboxInBreaks: 1

[Metadata]
Title:Hontou Ni Daiji Nanoha Hitotsu Dake
Artist:Hatsune Miku
Creator:merimeri
Version:Normal
Source:Nico Video
Tags:Vocaloid

[Difficulty]
HPDrainRate:3
CircleSize:4
OverallDifficulty:3
SliderMultiplier:1.2
SliderTickRate:1

[Events]
//Background and Video events
0,0,"hontouni daijinanoha hitotsudake.avi-2.jpg"
//Break Periods
2,19850,21450
2,27234,28892
//Storyboard Layer 0 (Background)
//Storyboard Layer 1 (Failing)
//Storyboard Layer 2 (Passing)
//Storyboard Layer 3 (Foreground)
//Storyboard Sound Samples
//Background Colour Transformations
3,100,163,162,255

[TimingPoints]
4881,461.538461538462,4,1,0,100,1,0
63957,-100,4,1,0,100,0,1

[Colours]
Combo1 : 35,175,126
Combo2 : 221,0,221
Combo3 : 0,152,225
Combo4 : 255,55,155

[HitObjects]
256,192,17573,5,12
88,280,18957,5,0
88,192,19304,1,0
88,104,19650,1,4
416,280,22650,5,0
416,192,22996,1,0
416,104,23342,1,4
256,192,23804,12,4,26342
256,192,27034,5,4
128,32,30034,5,4
256,32,30381,5,4
384,32,30727,5,4
256,192,31188,12,4,32804
384,192,34419,5,4
288,192,34765,1,4
64,32,36496,5,0
128,32,36727,1,0
224,32,37073,2,0,B|320:32,1,90
384,136,37881,1,0
384,136,38111,2,0,B|384:272|256:320|168:296|112:248,1,360
80,136,39957,1,4
208,136,40419,1,0
304,136,40765,2,0,B|400:136,1,90
392,256,41573,5,0
328,256,41804,1,0
232,256,42150,2,0,B|40:256|40:256|40:144|160:104,1,390
216,104,43881,1,0
280,104,44111,1,0
280,200,44457,2,0,B|384:200,1,90
368,328,45265,1,0
368,328,45496,2,0,B|176:328,1,180
80,256,46650,5,0
32,208,46881,1,0
80,160,47111,1,0
128,200,47342,2,8,B|256:200,1,120
376,200,48265,2,8,B|440:200,2,60
272,272,49188,1,4
144,272,49650,5,2
144,144,50111,2,0,B|216:144,1,60
204,144,50573,1,0
336,144,51034,2,0,B|408:144,1,60
396,144,51496,1,0
400,272,51957,2,2,B|336:272,3,60
280,272,52881,6,0,B|344:272,2,60
152,272,53804,2,0,B|152:200,1,60
152,212,54265,1,0
152,80,54727,2,0,B|224:80,1,60
212,80,55188,1,0
336,80,55650,2,8,B|400:80,3,60
400,144,56573,5,0
432,200,56804,1,0
400,256,57034,1,0
272,256,57496,2,0,B|208:256,1,60
184,192,57957,2,0,B|248:192,1,60
272,128,58419,2,0,B|200:128,2,60
400,128,59342,2,0,B|400:48|328:48,1,120
264,48,60034,2,0,B|192:48|192:128,1,120
224,184,60727,2,0,B|288:184,1,60
336,224,61188,2,0,B|336:304|264:304,1,120
200,304,61881,5,0
200,304,62111,2,8,B|200:232,1,60
136,224,62573,2,8,B|136:160,1,60
184,120,63034,2,0,B|256:120|256:200,2,120
80,56,64419,5,8
176,56,64765,2,0,B|272:56,1,90
266,56,65342,1,8
400,56,65804,2,0,B|400:120,1,60
400,116,66265,1,8
400,248,66611,2,0,B|304:248,1,90
310,248,67188,1,8
176,248,67650,5,4
176,120,68111,2,8,B|288:32|408:120,1,240
408,176,69265,2,0,B|408:248,1,60
344,216,69727,2,8,B|344:280,1,60
216,280,70419,2,4,B|136:280|136:200,2,120
344,216,71804,5,8
424,168,72150,2,0,B|424:104|376:104,1,90
375,103,72727,1,8
248,104,73188,1,0
184,104,73419,1,0
104,200,73881,2,2,B|56:200|56:264|56:264|272:264,1,300
266,264,75265,1,4
384,232,75727,1,0
408,176,75957,1,0
376,120,76188,1,4
256,64,76650,6,0,B|256:136,1,60
200,160,77111,2,8,B|200:96,1,60
144,64,77573,1,0
144,64,77804,2,0,B|80:64|80:152,2,120
256,128,79188,5,8
352,128,79534,2,0,B|400:128|400:200,1,90
399,191,80111,1,8
304,272,80573,2,4,B|232:272,1,60
244,272,81034,1,8
152,272,81381,2,0,B|96:272|96:208,1,90
96,215,81957,1,8
96,144,82188,6,4,B|160:144,1,60
208,112,82650,1,0
208,112,82881,2,8,B|352:112|376:264,1,240
352,312,84034,2,2,B|352:384,2,60
288,312,84727,2,8,B|288:384,2,60
224,312,85419,2,4,B|224:376|224:384,2,60
224,312,86111,5,4
224,184,86573,1,8
128,184,86919,2,0,B|128:112|176:112,1,90
167,112,87496,1,8
232,112,87727,1,0
296,112,87957,1,0
392,112,88304,1,0
392,208,88650,1,0
256,208,89111,6,2,B|256:112|176:112|128:112|32:112|32:208|32:304|128:304|176:304|224:272,1,480
344,272,91419,6,0,B|344:208,1,60
400,176,91881,1,0
344,144,92111,1,8
288,176,92342,1,0
232,144,92573,2,2,B|160:144|96:216|128:304|160:320,1,240
256,192,93957,12,4,97073
