osu file format v5

[General]
AudioFilename: Hontou Ni Daijinanoha hitotsudake.mp3
AudioLeadIn: 320
PreviewTime: -1
Countdown: 0
SampleSet: Normal
StackLeniency: 0.7
Mode: 0
LetterboxInBreaks: 0

[Metadata]
Title:Hontou Ni Daiji Nanoha Hitotsu Dake
Artist:Hatsune Miku
Creator:merimeri
Version:Hard
Source:Nico Video
Tags:Vocaloid

[Difficulty]
HPDrainRate:6
CircleSize:5
OverallDifficulty:6
SliderMultiplier:1.7
SliderTickRate:2

[Events]
//Background and Video events
0,0,"hontouni daijinanoha hitotsudake.avi-2.jpg"
//Break Periods
2,19850,21450
2,27234,28892
//Storyboard Layer 0 (Background)
//Storyboard Layer 1 (Failing)
//Storyboard Layer 2 (Passing)
//Storyboard Layer 3 (Foreground)
//Storyboard Sound Samples
//Background Colour Transformations
3,100,163,162,255

[TimingPoints]
4881,461.538461538462,4,1,0,100,1,0
9265,-100,4,1,1,100,0,0
9496,-100,4,1,0,100,0,0
12957,-100,4,1,1,100,0,0
13188,-100,4,1,0,100,0,0
63957,-100,4,1,0,100,0,1

[Colours]
Combo1 : 35,175,126
Combo2 : 221,0,221
Combo3 : 0,152,225
Combo4 : 255,55,155

[HitObjects]
256,192,4881,5,12
176,104,6034,5,0
224,64,6265,1,0
288,64,6496,1,8
336,104,6727,1,0
344,296,7881,5,0
288,320,8111,1,0
224,320,8342,1,8
168,296,8573,2,0,B|128:240|168:200,1,85
200,176,9034,2,0,B|264:184|272:120,1,85
312,96,9496,2,0,B|376:112|376:168,2,85
267,139,10188,1,8
216,96,10419,2,2,B|104:96|104:200,1,170
152,232,11111,2,2,B|152:336|264:336,1,170
312,304,11804,1,0
368,336,12034,2,0,B|424:336,2,42.5
312,304,12496,6,0,B|312:128,1,170
256,104,13188,1,0
200,136,13419,2,0,B|200:312,1,170
256,336,14111,1,0
256,272,14342,2,0,B|256:224,1,42.5
256,136,14804,1,0
256,24,15265,5,2
32,192,15611,1,2
256,352,15957,1,0
488,192,16304,1,2
256,24,16650,1,0
256,192,16996,2,0,B|256:240,1,42.5
256,352,17573,1,4
256,192,18034,12,4,19650
168,288,22650,5,0
256,288,22996,1,0
352,288,23342,1,4
256,192,23804,12,4,25419
256,192,25650,12,4,26342
256,192,26688,5,4
256,192,27034,1,4
488,192,30034,5,0
256,24,30381,5,0
24,192,30727,5,4
256,192,32111,12,4,32804
352,208,34419,5,0
288,208,34650,1,0
288,208,34765,1,0
216,144,35111,1,0
96,168,35573,1,0
16,72,36034,1,0
16,72,36265,1,4
64,32,36496,5,0
128,32,36727,1,0
128,32,36842,2,0,B|224:32,1,85
304,32,37419,1,0
360,72,37650,1,0
416,104,37881,5,0
416,104,38111,2,0,B|416:200,3,85
415,253,39034,2,0,B|344:318,3,85
288,312,39957,1,0
160,312,40419,5,0
160,217,40765,1,0
160,128,41111,1,0
288,128,41573,5,0
352,128,41804,1,4
416,128,42034,1,0
448,128,42150,2,4,B|448:288|192:288|192:128,1,382.5
96,288,43881,5,0
160,288,44111,1,0
160,288,44227,2,0,B|256:288,1,85
352,288,44804,6,2,B|448:288|448:224|448:224|192:224|192:224|192:160|288:160,1,510
400,144,46650,1,8
448,96,46881,1,0
400,56,47111,1,0
344,96,47342,5,8
296,136,47573,1,0
248,96,47804,1,8
208,144,48034,1,0
224,208,48265,2,0,B|136:208,1,85
112,264,48727,2,0,B|208:264,1,85
197,264,49188,1,4
320,256,49650,5,2
384,240,49881,1,0
424,184,50111,2,0,B|424:80,1,85
360,72,50573,2,0,B|360:168,1,85
296,176,51034,2,0,B|296:88,1,85
192,32,51727,1,2
128,64,51957,1,2
96,128,52188,1,8
96,192,52419,1,8
128,256,52650,1,2
320,256,53342,5,2
384,240,53573,1,0
424,184,53804,2,0,B|424:80,1,85
360,72,54265,2,0,B|360:160,1,85
296,176,54727,2,0,B|296:80,1,85
192,32,55419,1,8
192,96,55650,1,8
160,160,55881,1,0
96,192,56111,1,8
128,248,56342,1,8
320,256,57034,5,2
376,224,57265,1,0
408,168,57496,2,0,B|344:168|344:120,1,85
280,104,57957,2,0,B|176:104,1,85
136,72,58419,2,0,B|72:72|72:136,1,85
128,224,59111,1,0
192,256,59342,1,0
256,224,59573,1,2
320,256,59804,1,2
384,224,60034,1,2
352,96,60496,1,0
288,128,60727,1,0
224,96,60957,2,0,B|160:160|256:224|224:256,1,170
96,256,61881,5,0
96,256,62111,2,0,B|160:224|192:160,1,127.5
186,168,62573,2,0,B|222:225|286:259,1,127.5
278,254,63034,2,0,B|347:227|380:169|379:168|379:167,1,127.5
375,174,63496,2,0,B|411:244|474:265,1,127.5
384,320,64188,5,0
320,320,64419,1,8
320,320,64534,1,8
256,320,64765,2,0,B|160:320,1,85
171,320,65111,2,8,B|64:320|64:192,1,170
96,160,65804,2,0,B|192:160,1,85
181,160,66150,2,0,B|182:251,2,85
192,32,67188,2,0,B|320:32|320:128,1,170
320,192,67881,5,0
384,192,68111,1,0
384,192,68227,2,0,B|448:192|480:224,1,85
512,256,68688,1,0
415,282,69034,1,4
381,285,69150,1,0
351,287,69265,1,0
288,288,69496,2,0,B|192:288|192:224,1,127.5
192,224,69957,2,0,B|96:224|96:160,1,127.5
96,160,70419,2,0,B|0:160|0:96,1,127.5
0,99,70881,1,4
192,64,71573,5,0
256,64,71804,1,8
256,64,71919,1,8
320,64,72150,2,0,B|416:64,1,85
416,160,72727,1,8
416,224,72957,2,0,B|416:288|416:288|384:288,1,85
320,288,73419,1,0
224,224,73881,2,2,B|128:192|128:96|224:64|288:64|384:96|384:192|288:224,1,425
301,218,75265,1,4
32,288,76650,6,0,B|96:288|128:256,1,85
128,320,77111,2,0,B|192:320|224:288,1,85
275,287,77573,1,0
275,287,77688,1,0
333,325,77919,1,0
400,288,78150,2,0,B|472:217|455:189|412:181,1,127.5
384,64,78957,5,0
320,64,79188,1,8
320,64,79304,1,8
256,64,79534,2,0,B|160:64,1,85
171,64,79881,2,8,B|64:64|64:192,1,170
96,224,80573,2,12,B|189:224,1,85
181,224,80919,2,4,B|181:129,2,85
192,352,81957,2,0,B|320:352|320:256,1,170
320,192,82650,5,0
384,192,82881,1,0
384,192,82996,2,0,B|448:192|480:160,1,85
504,120,83457,1,0
416,96,83804,1,0
383,95,83919,1,0
351,95,84034,1,0
288,96,84265,2,2,B|192:96|192:160,1,127.5
192,159,84727,2,2,B|96:160|96:224,1,127.5
96,223,85188,2,2,B|0:226|-4:284,1,127.5
0,284,85650,1,4
192,320,86342,5,8
256,320,86573,1,8
352,320,86919,1,8
416,320,87150,5,0
416,224,87496,1,0
352,224,87727,1,0
256,224,87957,1,4
160,224,88304,1,4
64,224,88650,1,4
64,96,89111,5,2
128,32,89457,5,2
192,96,89804,5,0
128,160,90150,1,0
64,96,90496,1,0
160,96,90842,1,0
192,96,90957,1,0
320,32,91419,5,0
352,96,91650,1,8
288,128,91881,1,0
320,192,92111,1,8
256,224,92342,1,0
288,288,92573,2,2,B|224:256|160:288|64:288|32:256,1,255
56,200,93496,5,8
120,168,93727,5,8
192,168,93957,5,8
320,192,94419,5,4
376,232,94650,5,4
416,288,94881,5,4
256,192,95342,12,4,97073
