osu file format v9

[General]
AudioFilename: _re.mp3
AudioLeadIn: 1000
PreviewTime: 60706
Countdown: 0
SampleSet: Soft
StackLeniency: 0.7
Mode: 0
LetterboxInBreaks: 0

[Editor]
Bookmarks: 103468,119373
DistanceSpacing: 1.2
BeatDivisor: 4
GridSize: 4

[Metadata]
Title:Homework Crisis
Artist:Hatsune Miku
Creator:val0108
Version:Insane
Source:bibuko
Tags:Vocaloid BeatHopper Backfire

[Difficulty]
HPDrainRate:6
CircleSize:4
OverallDifficulty:7
ApproachRate:8
SliderMultiplier:1.8
SliderTickRate:2

[Events]
//Background and Video events
0,0,"BG.jpg"
//Break Periods
2,87592,102642
//Storyboard Layer 0 (Background)
//Storyboard Layer 1 (Fail)
//Storyboard Layer 2 (Pass)
//Storyboard Layer 3 (Foreground)
Sprite,Foreground,Centre,"SB\8gatu.png",320,240 M,0,17386,17719,-249,99,210,99 M,0,17719,22718,210,99,264,99 M,0,22718,22719,264,99,279,99 M,0,22719,23052,279,99,960,99
Sprite,Foreground,Centre,"SB\natsuyasumi.png",320,240 M,0,20052,20385,825,373,419,373 M,0,20385,22718,419,373,386,373 M,0,22718,23052,386,373,-359,373
Sprite,Foreground,Centre,"SB\demo.png",320,240 M,0,22718,23052,-280,99,286,99 M,0,23052,28052,286,99,346,99 M,0,28052,28385,346,99,1030,99
Sprite,Foreground,Centre,"SB\note.png",320,240 M,0,25385,25718,800,374,395,374 M,0,25718,28052,395,374,364,374 M,0,28052,28385,364,374,-402,374
Sprite,Foreground,Centre,"SB\unzanro.png",320,240 M,0,28052,28385,-255,93,220,93 M,0,28385,32885,220,93,323,93 M,0,32885,33218,323,93,1045,93
Sprite,Foreground,Centre,"SB\tetukazu.png",320,240 M,0,29552,29885,1086,389,413,389 M,0,29885,33218,413,389,335,389 M,0,33218,33552,335,389,-449,389
Sprite,Foreground,Centre,"SB\naniga.png",320,240 M,0,33385,33718,-407,89,220,89 M,0,33718,38718,220,89,283,89 M,0,38718,39052,283,89,978,89
Sprite,Foreground,Centre,"SB\omae.png",320,240 M,0,36052,36385,952,378,391,378 M,0,36385,38718,391,378,344,378 M,0,38718,39052,344,378,-305,378
Sprite,Foreground,Centre,"SB\honto.png",320,240 M,0,38718,39052,-400,92,261,92 M,0,39052,44052,261,92,332,92 M,0,44052,44385,332,92,1033,92
Sprite,Foreground,Centre,"SB\maruutusi.png",320,240 M,0,41385,41718,925,380,415,380 M,0,41718,44052,415,380,364,380 M,0,44052,44385,364,380,-419,380
Sprite,Foreground,Centre,"SB\nokoruha.png",320,240 M,0,44052,44385,-385,93,298,93 M,0,44385,48885,298,93,344,93 M,0,48885,49218,344,93,1061,93
Sprite,Foreground,Centre,"SB\sakiha.png",320,240 M,0,47052,47385,915,368,417,368 M,0,47385,49218,417,368,393,368 M,0,49218,49552,393,368,-616,368
Sprite,Foreground,Centre,"SB\daikirai.png",320,240 M,0,49385,49718,-505,92,195,92 M,0,49718,54718,195,92,260,92 M,0,54718,55052,260,92,924,92
Sprite,Foreground,Centre,"SB\kadai.png",320,240 M,0,52052,52385,1027,384,365,384 M,0,52385,54718,365,384,314,384 M,0,54718,55052,314,384,-428,384
Sprite,Foreground,Centre,"SB\nanika.png",320,240 M,0,54718,55052,-364,94,256,94 M,0,55052,60385,256,94,332,94 F,0,60218,,1 F,0,60218,60552,1,0.02702701 S,0,60218,60552,1,3.746762 M,0,60385,,332,94
Sprite,Foreground,Centre,"SB\genkou.png",320,240 M,0,57718,58052,945,386,399,386 M,0,58052,60385,399,386,361,386 F,0,60218,60552,1,0.09466202 S,0,60218,60552,1,5 M,0,60385,,361,386
Sprite,Foreground,Centre,"SB\kouiu.png",320,240 L,60718,7 S,0,0,167,1.05,1 S,0,334,501,1.05,1 S,0,501,668,1 F,0,60385,60718,0,1 S,0,60385,60718,4.206726,1.05 M,0,60718,,319,110 F,0,60718,65218,1 F,0,65218,65385,1,0
Sprite,Foreground,Centre,"SB\syujinkou.png",320,240 L,65552,9 S,0,-167,0,1.05,1 S,0,167,334,1.05,1 S,0,334,501,1 F,0,65218,65385,0,1 F,0,65385,71218,1 M,0,65718,,322,362 F,0,71218,71385,1,0
Sprite,Foreground,Centre,"SB\tenmki.png",320,240 M,0,121385,121718,1070,380,344,380 M,0,121718,124052,344,380,318,380 M,0,124052,124385,318,380,-572,380
Sprite,Foreground,Centre,"SB\enikki.png",320,240 M,0,118552,118885,-383,94,270,94 M,0,118885,124052,270,94,340,94 M,0,124052,124385,340,94,1044,94
Sprite,Foreground,Centre,"SB\gyuunyuu.png",320,240 M,0,124052,124385,-392,93,240,93 M,0,124385,129385,240,93,371,93 M,0,129385,129718,371,93,988,93
Sprite,Foreground,Centre,"SB\osyare.png",320,240 M,0,126718,127052,1091,385,350,385 M,0,127052,129385,350,385,303,385 M,0,129385,129718,303,385,-588,385
Sprite,Foreground,Centre,"SB\asagao.png",320,240 M,0,129385,129718,-388,86,186,86 M,0,129718,134218,186,86,282,86 M,0,134218,134552,282,86,1083,86
Sprite,Foreground,Centre,"SB\hooote.png",320,240 M,0,130885,131218,1148,378,429,378 M,0,131218,134552,429,378,350,378 M,0,134552,134885,350,378,-398,378
Sprite,Foreground,Centre,"SB\dakedo.png",320,240 M,0,134718,135052,-542,90,259,90 M,0,135052,140052,259,90,336,90 M,0,140052,140385,336,90,1003,90
Sprite,Foreground,Centre,"SB\norma.png",320,240 M,0,137385,137718,1098,391,400,391 M,0,137718,140052,400,391,368,391 M,0,140052,140385,368,391,-525,391
Sprite,Foreground,Centre,"SB\sasuga.png",320,240 M,0,140052,140385,-579,93,279,93 M,0,140385,145385,279,93,340,93 M,0,145385,145718,340,93,1039,93
Sprite,Foreground,Centre,"SB\tonikaku.png",320,240 M,0,142718,143052,1187,383,353,383 M,0,143052,145385,353,383,309,383 M,0,145385,145718,309,383,-581,383
Sprite,Foreground,Centre,"SB\syukudai kuraisisu.png",320,240 M,0,145385,145718,-574,88,268,88 M,0,145718,147885,268,88,344,88 M,0,147885,148218,344,88,265,362 F,0,147885,148218,1,0 S,0,147885,148218,1,5
Sprite,Foreground,Centre,"SB\tokuni.png",320,240 L,148718,7 S,0,0,167,1.03,0.9 S,0,334,501,1.03,0.9 S,0,501,668,0.9 M,0,148218,148718,222,324,322,108 F,0,148218,148718,0,1 S,0,148218,148718,4,1 F,0,148718,153052,1 F,0,153052,153385,1,0
Sprite,Foreground,Centre,"SB\masaka.png",320,240 L,153385,9 S,0,0,167,1.03,0.9 S,0,334,501,1.03,0.9 S,0,501,668,0.9 F,0,153218,153385,0,1 M,0,153385,,321,361 F,0,153385,159218,1 F,0,159218,159385,1,0
Sprite,Foreground,Centre,"SB\konnna.png",320,240 L,159385,7 S,0,0,167,1.03,0.9 S,0,334,501,1.03,0.9 S,0,501,668,0.9 F,0,159218,159385,0,1 M,0,159385,,327,108 F,0,159385,163659,1 F,0,163659,163885,1 F,0,163885,164052,1,0
Sprite,Foreground,Centre,"SB\kono.png",320,240 L,164218,9 S,0,-167,0,1.03,0.9 S,0,167,334,1.03,0.9 S,0,334,501,0.9 F,0,163885,164052,0,1 F,0,164052,169885,1 M,0,164218,,322,365 F,0,169885,170052,1,0
//Storyboard Sound Samples
//Background Colour Transformations
3,100,163,162,255

[TimingPoints]
726,333.333333333333,4,2,0,60,1,0
1559,-100,4,1,1,70,0,0
25725,-100,4,1,2,70,0,0
25809,-100,4,1,1,70,0,0
50059,-200,4,1,1,70,0,0
50392,-100,4,1,1,70,0,0
56059,-100,4,1,2,70,0,0
56142,-100,4,1,1,70,0,0
57392,-100,4,1,2,70,0,0
57475,-100,4,1,1,70,0,0
60725,-100,4,1,1,70,0,1
62725,-100,4,1,2,70,0,1
62809,-100,4,1,1,70,0,1
66725,-100,4,1,2,70,0,1
67142,-100,4,1,1,70,0,1
68059,-100,4,1,2,70,0,1
68142,-100,4,1,1,70,0,1
70059,-100,4,1,2,70,0,1
70142,-100,4,1,1,70,0,1
71392,-100,4,1,1,70,0,0
142725,-100,4,1,2,70,0,0
142809,-100,4,1,1,70,0,0
148725,-100,4,1,1,70,0,1
154725,-100,4,1,2,70,0,1
154809,-100,4,1,1,70,0,1
159059,-100,4,1,1,70,0,0
159392,-100,4,1,1,70,0,1
160059,-100,4,1,2,70,0,1
160142,-100,4,1,1,70,0,1
165392,-100,4,1,2,70,0,1
165809,-100,4,1,1,70,0,1
167392,-100,4,1,1,70,0,0
170059,-100,4,1,1,70,0,1
170142,-100,4,1,1,70,0,0

[Colours]
Combo1 : 128,0,255
Combo2 : 0,0,255
Combo3 : 255,128,255
Combo4 : 0,255,64

[HitObjects]
256,72,726,1,2
256,120,1059,1,2
256,160,1392,1,2
256,200,1559,5,8
256,200,1642,1,8
256,200,1725,2,0,B|328:248|168:296|272:364,1,180,0|12
260,355,2225,1,12
332,300,2392,2,0,B|436:300,1,90,0|0
488,240,2725,1,0
432,172,2892,1,0
364,232,3059,1,0
422,299,3225,1,0
488,360,3392,5,12
488,360,3559,1,12
422,299,3725,2,0,B|421:179,1,90
484,124,4059,1,0
388,28,4225,1,0
312,76,4392,1,0
332,164,4559,1,0
408,120,4725,5,12
332,232,4892,1,12
244,128,5059,2,0,B|132:128,1,90
80,244,5392,2,0,B|196:244,2,90,12|12|0
40,120,5892,6,2,B|40:80|40:80|40:40|76:16|120:16|120:16|176:16,1,180
236,16,6392,2,0,B|288:28|348:68,1,90,8|0
404,84,6725,2,8,B|472:84,2,45
336,144,7059,1,0
336,144,7225,1,0
412,192,7392,6,0,B|440:236|448:284,1,90,4|0
356,256,7725,2,0,B|348:304|300:328,1,90,8|8
264,244,8059,2,0,B|216:240|176:200,2,90,0|0|8
264,244,8559,2,2,B|236:300|176:336|80:336,1,180
80,252,9059,1,8
28,180,9225,1,8
160,204,9392,1,0
68,104,9559,1,0
156,116,9725,1,8
108,40,9892,1,0
196,32,10059,6,0,B|296:32,1,90,4|0
400,104,10392,2,0,B|288:104,1,90,8|8
256,176,10725,2,0,B|356:176,1,90
464,244,11059,2,0,B|368:244,1,90,8|0
312,308,11392,2,0,B|204:308,2,90,0|0|8
396,340,11892,2,2,B|456:340,6,45,8|0|0|0|0|0|8
312,308,12559,6,0,B|312:260|312:260|312:224|284:200|248:192|248:192|208:192,1,180,4|0
136,156,13059,2,0,B|108:192|108:240,1,90,8|8
136,156,13392,2,0,B|20:156,1,90
136,156,13726,2,0,B|108:120|108:72,2,90,8|0|0
136,156,14392,6,2,B|224:148|356:156,1,180,6|2
464,84,14892,1,8
376,220,15059,1,8
368,84,15226,6,2,B|412:180|500:236,1,180,6|2
480,222,15726,1,8
480,222,15892,1,8
484,312,16059,2,0,B|440:336|368:344,2,90,0|0|8
484,312,16559,1,0
136,304,16892,6,0,B|336:304,1,180,6|0
312,212,17392,1,6
224,232,17559,2,8,B|168:204|168:144,2,90
256,148,18059,6,0,B|232:100|200:80|148:72|76:104,2,180,4|8|0
256,148,18892,2,0,B|296:104|344:88,1,90,0|8
404,44,19225,1,0
408,136,19392,2,0,B|480:144|524:144,2,90,2|0|8
328,96,19892,2,2,B|340:184|332:312,1,180
408,240,20392,1,8
264,324,20559,1,8
188,372,20725,5,4
100,360,20892,1,0
60,280,21059,2,0,B|64:216|116:152|180:152,1,180,8|0
176,244,21559,1,0
244,184,21725,2,0,B|292:204|368:196,1,90,8|0
424,212,22059,1,2
312,108,22225,1,0
444,80,22392,1,8
312,108,22559,2,2,B|303:197|312:300,1,180
400,312,23059,2,8,B|440:344,2,45,8|8|8
480,240,23392,6,0,B|480:120,1,90,4|0
372,136,23725,2,0,B|372:12,1,90,8|0
264,240,24059,2,0,B|264:120,1,90
152,136,24392,2,0,B|152:32,1,90,8|0
56,240,24725,2,0,B|56:340,2,90,2|0|8
148,244,25225,2,2,B|188:308|236:320|332:292,2,180,10|2|10
184,156,26059,6,0,B|272:132|372:136,1,180,6|8
428,200,26559,1,0
384,272,26725,2,0,B|496:272,1,90
512,356,27059,2,2,B|308:356,1,180,10|2
264,296,27559,1,0
124,196,27725,1,8
108,284,27892,2,2,B|168:276|168:276|212:244|240:168,1,180
288,104,28392,2,8,B|288:40,2,45
168,152,28725,6,0,B|160:96|120:80,1,90,4|0
46,129,29059,2,0,B|94:114|126:74,1,90,10|0
64,24,29392,2,0,B|81:68|137:95,1,90,0|2
124,88,29725,1,8
124,88,29892,2,2,B|232:84|344:100,1,180
392,88,30392,2,0,B|440:100|500:104,2,90,8|0|0
340,12,30892,1,2
292,188,31059,1,10
380,172,31225,1,8
460,212,31392,6,0,B|428:252|368:276,1,90,4|0
344,344,31725,2,0,B|276:364|224:352,1,90,8|0
208,280,32059,2,0,B|156:268|120:236,1,90
196,184,32392,2,0,B|196:80,2,90,0|8|0
108,160,32892,5,6
287,160,33225,1,6
467,160,33559,1,0
467,249,33725,1,0
467,339,33892,1,8
400,280,34059,6,2,B|376:192|376:88,1,180,6|10
296,60,34559,1,0
208,36,34725,2,0,B|160:28|112:36,2,90,0|0|8
244,120,35225,1,0
244,120,35392,2,0,B|220:180|176:220,2,90,2|0|8
152,116,35892,2,2,B|232:156|320:228,1,180
372,160,36392,1,8
356,296,36559,1,8
276,340,36725,6,0,B|176:312|64:316,1,180,4|8
32,256,37225,1,0
32,256,37392,1,0
104,204,37559,1,0
168,140,37725,1,8
192,228,37892,5,0
36,148,38059,2,0,B|56:104|44:52,2,90,2|0|8
36,148,38559,2,2,B|120:128|232:144,1,180
280,204,39059,1,8
192,228,39225,1,8
215,141,39392,6,0,B|240:92|240:92|300:48|392:104,1,180,4|8
444,116,39892,1,0
488,196,40059,2,0,B|488:288,2,90,0|0|8
397,196,40559,1,0
444,116,40726,2,0,B|448:64|408:28,2,90,2|0|8
397,196,41226,2,2,B|381:244|324:296|264:320,1,180,10|2
180,300,41726,1,8
180,300,41892,1,8
96,336,42059,6,0,B|40:296|40:244,1,90,4|0
136,140,42392,2,0,B|96:140|56:176,1,90,8|0
124,236,42726,2,0,B|176:236|228:232,1,90
248,148,43059,1,8
248,148,43226,1,0
352,212,43392,5,2
368,48,43559,1,0
280,64,43726,1,8
336,132,43892,2,2,B|436:124|520:136,1,180
500,224,44392,1,8
436,344,44559,1,8
348,240,44726,1,4
428,272,44892,6,0,B|392:304|328:316,1,90,0|8
288,192,45226,2,0,B|284:144|240:100,2,90
208,236,45726,1,0
148,300,45892,1,0
68,256,46059,2,0,B|72:208|64:152,2,90,2|0|8
68,256,46559,2,2,B|132:232|184:188|200:112,1,180
196,44,47059,1,8
232,124,47226,6,0,B|304:152|436:152,1,180,12|0
440,68,47726,1,8
388,0,47892,1,0
304,36,48059,2,0,B|196:36,2,90,8|0|0
364,104,48559,2,2,B|428:132|488:196|496:272,1,180,10|14
400,260,49059,2,0,B|352:216|296:196,1,90,0|10
220,128,49392,2,0,B|252:184|240:228,1,90,0|10
252,348,49726,2,0,B|228:312|180:280,1,90,8|8
120,240,50059,6,2,B|80:264|24:256,1,90,6|10
16,168,50559,1,8
104,152,50726,1,0
136,68,50892,1,0
48,80,51059,1,8
104,152,51226,5,0
192,132,51392,1,2
232,52,51559,1,0
296,112,51726,1,8
384,132,51892,2,2,B|444:160|444:160|480:200|468:248|428:292,1,180,10|2
368,224,52392,1,8
368,224,52559,1,8
332,140,52726,6,0,B|288:176|288:176|216:136|148:168,1,180,4|8
212,240,53225,1,8
196,328,53392,2,0,B|152:324|136:292|136:292|80:332|12:300,1,180,0|8
92,236,53892,1,0
40,164,54059,6,0,B|44:124|36:64,2,90,2|0|8
41,164,54559,2,2,B|237:164,1,180,10|2
243,164,54975,1,0
265,164,55059,1,0
280,252,55225,1,0
352,200,55392,6,0,B|396:212|456:200,2,90,4|0|8
404,128,55892,2,0,B|340:96|288:80|212:80,1,180
148,116,56392,2,0,B|100:128|60:116,2,90,4|0|10
180,200,56892,1,0
28,148,57059,1,8
104,36,57226,2,2,B|104:224,1,180
52,292,57726,5,8
128,344,57892,1,0
200,288,58059,1,4
460,292,58392,5,8
384,344,58559,1,0
312,288,58726,1,4
256,56,59059,5,8
256,56,59226,2,2,B|256:244,1,180,6|2
256,326,59726,2,8,B|256:226,1,90
168,212,60059,5,0
340,162,60226,1,2
168,112,60392,1,6
340,60,60726,6,0,B|388:60|388:60|432:60|456:96|456:144|456:144|456:192,3,180,4|8|8|8
456,244,61892,2,0,B|456:340,2,90,0|10|0
376,200,62392,1,8
364,288,62559,2,2,B|316:260|248:240|176:248,1,180
232,328,63059,1,8
160,168,63226,1,0
76,268,63392,6,0,B|40:224|44:164,1,90,4|0
20,96,63726,2,0,B|120:96,1,90,8|0
160,168,64059,2,0,B|280:168,2,90,8|0|8
156,76,64559,2,2,B|352:76,1,180,2|2
425,76,65059,2,0,B|382:89|336:76,1,90,8|2
423,163,65392,2,0,B|447:119|419:67,1,90,8|2
334,164,65726,2,0,B|378:149|422:164,1,90,10|2
448,260,66059,6,0,B|392:280|324:284|244:252,1,180,4|8
204,200,66559,2,0,B|168:240|168:296|200:356|272:356,2,180
204,108,67392,1,10
128,60,67559,1,0
64,124,67726,1,8
96,208,67892,2,2,B|177:169|288:144,1,180
348,112,68392,1,8
432,144,68559,1,0
328,24,68726,5,12
256,76,68892,2,0,B|212:48|160:48,2,90,0|8|0
256,166,69392,2,0,B|300:194|352:194,2,90,8|0|8
180,120,69892,2,2,B|-4:120,1,180
28,204,70392,1,8
88,272,70559,1,0
148,204,70726,2,2,B|224:204|256:336|256:336|288:200|380:200,1,360,2|6
416,136,71559,5,0
340,84,71726,1,8
416,36,71892,1,0
494,80,72059,2,0,B|516:124|506:184,2,90,0|0|8
416,136,72559,2,0,B|408:184|368:208,1,90,2|0
280,236,72892,5,0
192,216,73059,2,0,B|192:108,1,90,8|0
168,36,73392,2,0,B|128:32|96:40,2,45,2|8|8
252,72,73725,1,0
168,36,73892,2,2,B|116:124|124:228,1,180,6|2
164,288,74392,6,0,B|112:284|64:288,1,90,8|0
248,340,74726,2,0,B|196:336|148:340,1,90
320,256,75059,2,0,B|268:252|220:256,1,90,8|0
392,180,75392,2,0,B|340:176|292:180,2,90,0|0|8
436,100,75892,2,2,B|412:76|412:76|388:104|388:104|352:80|352:80|312:96|312:96|255:83|255:83|188:88,1,270,2|10
112,144,76559,5,8
112,144,76642,1,8
112,144,76726,2,0,B|96:188|48:224,2,90,4|0|8
24,128,77226,1,0
58,215,77392,2,2,B|152:228|260:216,1,180,2|10
248,308,77892,2,0,B|260:256|304:380|320:280,1,90,2|0
396,268,78226,5,0
396,177,78392,1,8
396,86,78559,1,0
318,40,78725,5,0
318,130,78892,1,0
318,220,79059,1,8
318,309,79225,1,8
252,248,79392,5,6
252,248,79559,1,2
232,160,79725,2,0,B|188:124|132:124,1,90,8|0
156,216,80059,2,0,B|156:320,2,90,0|0|8
84,164,80559,1,0
32,92,80725,2,0,B|32:-4,2,90,2|0|8
32,92,81225,2,2,B|116:72|116:72|212:96|212:96|328:80,1,270,2|10
416,88,81892,5,8
446,88,81975,1,8
478,88,82059,2,0,B|482:144|470:188,1,90,4|0
400,228,82392,2,0,B|352:208|288:204,1,90,8|0
228,176,82725,2,0,B|176:160|104:164,2,90,0|0|8
256,260,83225,6,2,B|184:296|132:248|132:248|76:248,1,180
64,160,83725,1,8
108,80,83892,2,2,B|156:80|156:80|216:144|296:56,1,180,2|10
364,80,84392,1,8
428,140,84559,6,0,B|484:140,2,45,8|8|4
420,228,84892,1,0
348,280,85059,2,0,B|348:184,1,90,8|0
284,128,85392,1,0
244,208,85559,1,0
176,264,85725,1,8
88,280,85892,1,0
112,192,86059,6,0,B|64:160|20:168,2,90,2|0|8
112,192,86559,2,2,B|192:236|288:252|388:248,1,270
464,248,87225,1,8
464,248,87309,1,8
464,248,87392,1,12
100,68,103392,6,12,B|84:176,1,90
412,316,104725,6,12,B|428:208,1,90
256,192,106059,6,0,B|256:88,2,90,12|8|0
256,284,106559,1,0
184,232,106725,1,8
96,220,106892,1,8
28,280,107059,1,0
76,356,107225,6,2,B|100:336|100:336|124:364|124:364|156:344|156:344|248:344,1,180,6|2
252,344,107642,1,0
274,344,107725,1,0
340,284,107892,1,0
404,348,108059,2,8,B|456:376,2,45
408,256,108392,1,0
496,280,108559,1,0
484,192,108725,6,0,B|472:152|484:100,1,90,4|0
408,256,109059,2,0,B|400:200|412:148,1,90,8|8
332,120,109392,2,0,B|320:76|336:24,2,90,2|0|8
276,192,109892,2,2,B|232:156|156:120|88:112,1,180
32,148,110392,1,8
32,148,110559,1,8
104,200,110725,1,0
104,200,110892,1,0
52,272,111059,1,8
52,272,111225,1,0
132,316,111392,6,0,B|164:344|224:368,1,90,4|0
379,316,111725,2,0,B|348:344|302:361,1,90,0|0
176,248,112059,1,8
340,248,112225,1,0
256,284,112392,2,0,B|256:194,1,90,8|8
256,194,112725,5,2
256,104,112892,1,0
208,28,113059,1,8
297,28,113225,2,2,B|324:64|324:64|360:40|360:40|368:80|368:80|404:100|404:100|428:160|448:188,1,270,10|2
464,276,113892,1,8
438,304,113975,1,8
412,324,114059,6,0,B|388:276|336:268,1,90,4|0
320,356,114392,2,0,B|208:300,1,90,8|8
152,292,114725,2,0,B|104:304|52:292,1,90,2|0
104,212,115059,2,0,B|104:116,2,90,8|2|8
104,212,115725,6,2,B|165:206|165:206|219:217|219:217|300:212,1,180,6|2
372,208,116225,1,8
372,208,116392,1,8
452,168,116559,6,2,B|440:104|372:48|296:48,1,180,6|2
284,132,117059,1,8
284,132,117225,1,8
232,60,117392,2,2,B|180:52|140:60,1,90,2|2
92,132,117725,1,8
92,132,117892,2,0,B|87:178|92:256,1,90,0|0
153,285,118225,5,14
412,284,118559,1,2
412,284,118725,1,14
484,232,118892,5,8
496,320,119059,1,8
420,368,119225,1,8
412,284,119392,6,0,B|428:236|408:196,1,90,4|0
328,152,119725,2,0,B|308:200|336:260,1,90,8|0
408,196,120059,2,0,B|424:148|404:108,1,90
325,65,120392,2,0,B|308:108|336:172,1,90,8|0
240,164,120725,2,0,B|176:160|128:168,2,90,2|0|8
200,244,121225,2,2,B|296:240|400:244,1,180
456,292,121725,1,8
376,332,121892,1,8
288,312,122059,6,0,B|240:308|188:316,1,90,4|0
124,364,122392,2,0,B|100:312|128:248,1,90,8|0
56,208,122725,2,0,B|28:248|32:304,2,90,0|0|8
60,116,123225,2,0,B|32:76|36:20,2,90,0|2|0
140,160,123725,1,8
140,160,123892,2,2,B|204:116|248:208|344:152,1,180
276,84,124392,1,8
388,160,124559,1,8
348,32,124725,6,0,B|390:40|472:32,1,90,4|0
484,108,125059,2,0,B|441:99|384:108,1,90,8|0
360,192,125392,2,0,B|369:240|360:292,1,90
436,332,125725,2,0,B|420:284|436:224,1,90,8|0
304,324,126059,1,2
284,236,126225,2,0,B|238:241|192:236,1,90,0|8
144,312,126559,2,2,B|100:280|92:232|104:188|152:156,1,180
160,72,127059,1,8
160,72,127225,1,8
160,72,127392,6,0,B|201:100|260:120|348:116,1,180,4|8
331,116,127892,1,0
331,116,128059,2,0,B|304:168|304:224,2,90,0|0|8
404,172,128559,2,0,B|448:168|496:172,2,90,0|2|0
384,260,129059,1,8
296,260,129225,2,2,B|232:244|148:240|84:248,1,180
32,212,129725,2,8,B|4:256,2,45
96,148,130059,6,0,B|64:120|64:56,1,90,4|0
132,4,130392,1,8
212,44,130559,1,0
196,132,130725,1,0
280,104,130892,2,0,B|332:88|400:84,1,90,2|8
368,86,131225,2,2,B|356:152|360:212|384:272,1,180
448,200,131725,1,8
292,252,131892,1,0
420,352,132059,1,0
332,352,132225,2,0,B|232:352,2,90,0|10|2
184,264,132725,6,0,B|112:188,1,90,4|0
324,264,133059,2,0,B|400:184,1,90,8|0
256,264,133392,2,0,B|256:148,1,90
256,84,133725,1,8
256,84,133892,2,0,B|208:76|144:72,1,90
76,80,134225,6,8,B|24:80,2,45,10|8|8
132,152,134559,2,8,B|188:152,2,45,10|8|8
46,191,134892,1,0
56,210,134975,1,0
66,230,135059,1,0
81,245,135142,1,0
96,260,135225,1,0
112,276,135309,1,0
132,288,135392,6,2,B|172:260|248:240|328:264,1,180,6|10
364,328,135892,1,8
416,256,136059,2,0,B|452:288|464:340,2,90,0|0|8
416,256,136559,2,0,B|472:240|488:200,2,90,0|2|0
416,256,137059,1,8
416,256,137225,2,2,B|416:68,1,180,10|2
344,20,137725,1,8
260,48,137892,1,8
196,111,138059,6,2,B|152:67|152:67|108:47|60:47|16:67,1,180,6|10
88,136,138559,1,8
160,188,138725,2,2,B|204:232|204:232|248:252|296:252|340:232,1,180,2|10
408,252,139225,1,0
480,196,139392,2,0,B|480:96,2,90,2|0|8
392,176,139892,2,2,B|348:184|296:184,1,90,10|2
216,208,140225,2,8,B|188:256,2,45
152,144,140559,1,0
128,56,140725,5,12
128,56,140892,1,0
128,56,141059,2,0,B|200:40|200:40|328:72,1,180,8|8
388,96,141559,1,0
472,128,141725,1,8
472,218,141892,1,0
388,188,142059,2,0,B|385:230|388:296,2,90,6|0|8
472,218,142559,2,2,B|272:218,1,180
200,220,143059,1,8
236,304,143225,1,8
104,220,143392,5,0
92,132,143559,2,2,B|136:112|208:104|296:108,1,180,6|2
356,88,144059,1,0
420,152,144225,2,0,B|432:196|420:256,1,90,0|8
444,328,144559,2,2,B|376:332|328:332|240:304,1,180,10|2
356,244,145059,1,0
265,311,145225,2,2,B|288:248|295:186|276:128,1,180,2|10
208,80,145725,2,8,B|176:40,2,45
128,124,146059,5,0
128,124,146225,1,0
208,168,146392,1,8
208,168,146559,1,0
128,212,146725,1,0
128,212,146892,1,0
48,252,147059,1,8
48,252,147225,1,0
120,304,147392,6,0,B|88:344|40:348,2,90,2|0|8
120,304,147892,2,2,B|304:304,1,180
380,264,148392,1,0
398,251,148475,1,0
414,234,148559,1,0
429,218,148642,1,0
444,202,148725,6,0,B|444:154|444:154|436:116|400:80|324:80,3,180,4|8|8|8
352,172,149892,1,0
264,168,150059,2,0,B|212:144|212:92,2,90,10|0|8
264,168,150559,2,2,B|208:200|192:276|228:328,1,180
300,272,151059,1,8
300,272,151225,1,8
344,192,151392,6,0,B|352:140|296:84,1,90,4|0
367,40,151725,2,0,B|367:84|307:116,1,90,8|0
268,32,152059,1,8
222,109,152225,1,0
131,109,152392,1,8
56,160,152559,6,2,B|108:200|108:200|244:200,1,180,2|10
280,268,153059,2,0,B|172:268,1,90,10|0
132,336,153392,2,0,B|256:336,1,90,10|0
312,336,153725,2,8,B|312:388,2,45,8|8|10
384,280,154059,6,0,B|484:280,2,90,4|0|8
316,220,154559,2,2,B|268:188|268:188|128:188,1,180
55,188,155059,1,8
108,260,155225,1,0
200,260,155392,5,10
120,116,155559,1,0
209,116,155725,1,8
272,52,155892,2,2,B|324:40|324:40|460:40,1,180
488,120,156392,1,8
400,136,156559,1,8
310,136,156725,5,4
232,184,156892,2,0,B|184:208|184:208|124:208,2,90,0|8|0
308,296,157392,2,0,B|352:272|352:272|408:272,2,90,0|0|8
184,348,157892,2,2,B|152:308|152:308|16:312,1,180
36,220,158392,1,8
20,132,158559,1,0
68,56,158726,1,0
148,96,158892,2,8,B|180:64,2,45
184,180,159226,1,0
260,132,159392,6,0,B|304:112|304:112|448:112,1,180,4|8
396,192,159892,2,0,B|320:192|320:192|216:244,1,180
156,296,160392,2,0,B|116:308|60:296,2,90,8|0|10
236,336,160892,2,0,B|288:352|332:340,1,90,0|8
236,336,161226,2,2,B|256:260|212:192|140:160,1,180
116,112,161726,1,8
116,112,161892,1,8
184,52,162059,6,0,B|232:32|284:24,1,90,4|0
296,112,162392,2,0,B|348:112|416:144,1,90,8|0
328,200,162726,2,0,B|360:248|336:316,2,90,8|0|8
328,200,163226,2,2,B|240:224|132:200,1,180,2|10
77,255,163726,2,0,B|121:239|161:191,1,90,10|0
84,143,164059,2,0,B|108:179|160:211,1,90,10|0
202,132,164392,2,8,B|166:160|146:212,1,90,10|10
149,203,164726,6,0,B|204:184|288:184|352:208,1,180,4|8
408,160,165226,2,0,B|388:208|392:304|428:368,2,180
468,228,166059,1,10
320,296,166226,1,0
480,308,166392,1,0
320,212,166559,2,0,B|268:188|196:188,1,90,6|8
160,136,166892,2,0,B|165:85|156:32,2,90,0|8|0
68,140,167392,5,6
60,224,167559,2,0,B|60:312,2,90,0|8|0
136,176,168059,2,0,B|136:272,2,90,2|0|8
212,124,168559,2,2,B|216:340,1,180
296,344,169059,1,8
296,254,169226,1,8
296,163,169392,2,2,B|332:164|332:164|360:164|396:200|400:240|400:240|400:284,2,180,2|4|6
