osu file format v9

[General]
AudioFilename: hitohira no.mp3
AudioLeadIn: 0
PreviewTime: 81000
Countdown: 0
SampleSet: Normal
StackLeniency: 0.7
Mode: 0
LetterboxInBreaks: 0

[Editor]
Bookmarks: 87157,89884
DistanceSpacing: 0.7
BeatDivisor: 4
GridSize: 4

[Metadata]
Title:Hitohira no
Artist:Hatsune Miku
Creator:Lizsig
Version:Hard
Source:NoriP
Tags:vocaloid season collection snow songs Butterfly short ver.

[Difficulty]
HPDrainRate:6
CircleSize:4
OverallDifficulty:6
ApproachRate:8
SliderMultiplier:2.2
SliderTickRate:1

[Events]
//Background and Video events
0,0,"bg.jpg"
//Break Periods
2,25091,32515
2,38374,41788
2,99157,107127
2,151713,159491
2,199714,203134
//Storyboard Layer 0 (Background)
//Storyboard Layer 1 (Fail)
//Storyboard Layer 2 (Pass)
//Storyboard Layer 3 (Foreground)
//Storyboard Sound Samples
//Background Colour Transformations
3,100,0,0,0

[TimingPoints]
2540,631.578947368421,4,2,1,73,1,0
9961,-100,4,2,1,53,0,0
23993,545.454545454546,4,1,1,70,1,0
25084,545.454545454546,4,1,1,70,1,0
33129,-133.333333333333,4,1,1,73,0,0
42402,-100,4,2,1,73,0,0
44584,-133.333333333333,4,2,1,73,0,0
45811,-133.333333333333,4,1,1,63,0,0
47038,-100,4,2,1,73,0,0
53720,-100,4,1,1,63,0,0
55084,-100,4,2,1,73,0,0
57947,-100,4,2,1,20,0,0
58356,-100,4,2,1,40,0,0
58629,-100,4,2,1,50,0,0
58902,-100,4,2,1,60,0,0
59174,-100,4,2,1,70,0,0
59856,-100,4,2,1,93,0,0
66129,-100,4,1,1,73,0,0
68584,-100,4,2,1,93,0,0
73902,-111.111111111111,4,2,1,93,0,0
74447,-100,4,2,1,93,0,0
77311,-100,4,1,1,80,0,0
79493,-100,4,2,1,60,0,0
80993,-100,4,2,1,50,0,0
81696,545.454545454546,4,1,1,83,1,1
96968,-133.333333333333,4,2,1,63,0,0
97650,-100,4,2,1,63,0,0
98059,-100,4,2,1,63,0,0
107741,-100,4,1,1,70,0,0
116468,-100,4,2,1,83,0,0
132832,-100,4,2,1,93,0,0
142377,-100,4,2,1,63,0,0
143468,-100,4,2,1,73,0,0
144559,-100,4,2,1,83,0,0
145650,-100,4,2,1,93,0,0
149196,-100,4,1,1,50,0,0
150832,-100,4,2,1,90,0,0
160105,-133.333333333333,4,1,1,60,0,0
161741,-133.333333333333,4,2,1,83,0,0
162014,-133.333333333333,4,1,1,60,0,0
163923,-133.333333333333,4,2,1,83,0,0
164196,-133.333333333333,4,1,1,60,0,0
166105,-133.333333333333,4,2,1,83,0,0
166377,-133.333333333333,4,1,1,70,0,0
168968,-100,4,1,1,80,0,1
186423,-100,4,1,1,90,0,0
195696,-100,4,1,1,30,0,0
196241,-100,4,2,1,40,0,0
196786,-100,4,2,1,50,0,0
197332,-100,4,2,1,60,0,0
197877,-100,4,2,1,70,0,0
198423,-100,4,2,1,80,0,0
198968,-100,4,2,1,90,0,0
203884,705.882352941176,4,2,1,83,1,0
203884,-133.333333333333,4,2,1,83,0,0
206707,750,4,2,1,73,1,0
206707,-133.333333333333,4,2,1,73,0,0
209707,800,4,2,1,63,1,0
209707,-133.333333333333,4,2,1,63,0,0
212907,1090.90909090909,4,2,1,40,1,0
213997,-100,4,2,1,30,0,0
215088,-100,4,2,1,20,0,0
216179,-100,4,2,1,10,0,0
216725,-100,4,2,1,5,0,0

[Colours]
Combo1 : 255,255,128
Combo2 : 128,255,255
Combo3 : 255,128,255
Combo4 : 255,128,0
Combo5 : 255,255,255

[HitObjects]
116,272,2540,1,0
200,304,2855,1,0
196,216,3171,1,2
200,304,3487,1,2
244,300,3645,2,0,B|300:276|296:204,1,110
284,168,4118,1,2
248,88,4434,1,2
160,88,4750,1,2
120,168,5066,5,0
160,244,5382,1,0
248,244,5697,1,2
160,244,6013,1,2
168,288,6171,2,0,B|204:336|264:324,1,110
308,312,6645,1,2
368,248,6961,1,2
308,184,7276,1,2
244,124,7592,5,0
200,200,7908,1,0
112,204,8224,2,0,B|84:188|52:188,2,55,2|0|2
108,248,8697,2,0,B|136:304|200:304,1,110
240,312,9171,1,2
328,296,9487,1,2
408,260,9803,1,2
464,192,10118,5,2
256,32,10750,1,0
44,192,11382,1,2
256,352,12013,1,0
392,236,12645,5,4
376,148,12961,1,2
300,104,13276,1,8
212,88,13592,2,0,B|152:88,1,55,2|0
180,128,13908,2,0,B|140:172,1,55,0|0
188,172,14224,2,0,B|188:228,1,55,2|0
224,200,14539,2,0,B|260:248|316:256,1,110,8|0
372,188,15171,5,0
440,244,15487,1,2
392,316,15803,1,0
304,328,16118,2,0,B|248:296,1,55,2|0
240,340,16434,2,0,B|204:296,1,55,0|0
176,332,16750,2,0,B|156:272,1,55,2|0
128,312,17066,2,0,B|108:204,1,110,0|0
184,164,17697,6,0,B|196:100|260:92,1,110,0|2
272,180,18329,1,8
360,196,18645,1,2
360,196,18803,2,0,B|348:260|284:268,1,110,0|0
244,268,19276,1,2
244,268,19592,1,8
244,268,19908,1,2
256,192,20224,12,2,22750
256,192,23993,5,4
256,192,24538,1,4
144,192,33265,5,8
228,192,33538,1,0
312,192,33811,2,0,B|384:180|392:104,2,123.749996311963,4|0|0
308,108,34902,1,0
164,192,35447,5,8
134,267,35720,1,0
164,192,35993,2,0,B|92:176|60:240,2,123.749996311963,4|0|0
220,252,37084,1,0
384,268,37629,5,8
384,116,37902,1,0
256,192,38174,1,4
96,168,42538,5,0
116,256,42811,1,0
192,208,43084,1,8
212,296,43356,1,2
212,296,43493,2,0,B|272:312|316:264,1,110,2|0
348,240,43902,1,2
432,212,44174,1,8
368,152,44447,1,2
304,100,44720,6,0,B|264:72|224:88,1,82.4999975413085,0|2
228,44,45129,2,0,B|156:52|136:120,1,123.749996311963,2|0
172,236,45947,2,0,B|208:252,2,41.2499987706542,0|0|0
132,220,46356,1,4
56,184,46629,1,8
60,268,46902,1,4
156,316,47174,6,0,B|216:332|264:288,1,110,0|8
292,212,47720,1,2
292,212,47856,2,0,B|334:173|394:189,1,110,2|0
432,220,48265,1,2
360,268,48538,1,8
292,212,48811,1,2
344,140,49084,2,0,B|292:112|240:140,1,110,0|2
228,96,49493,2,0,B|140:124|132:220,1,165,2|0
136,260,50038,5,0
156,300,50174,1,2
228,252,50447,1,0
228,252,50720,1,10
288,316,50993,2,0,B|344:316,2,55,8|8|0
312,232,51538,5,0
380,176,51811,1,8
296,156,52084,1,2
296,156,52220,2,0,B|232:164|192:120,1,110,2|0
180,84,52629,1,2
268,72,52902,1,8
296,156,53174,1,2
328,240,53447,6,0,B|288:280|228:272,1,110
184,268,53856,1,0
148,240,53993,1,8
220,188,54265,1,0
316,96,54674,2,0,B|284:96|268:72,2,55,0|0|4
360,96,55084,2,0,B|424:100|448:152,1,110,8|0
424,260,55629,5,2
328,316,55902,1,0
224,280,56174,1,8
172,184,56447,1,0
172,72,56720,2,0,B|116:72,2,55,2|0|0
276,112,57265,2,0,B|365:121|346:247|432:262,1,220,8|4
256,192,58084,12,4,59447
40,220,59993,5,6
104,280,60265,1,0
128,188,60538,1,8
192,252,60811,1,2
228,280,60947,2,0,B|284:296|332:264,1,110,2|0
352,224,61356,1,2
268,204,61629,1,8
296,356,61902,1,0
424,272,62174,5,2
432,184,62447,1,0
352,224,62720,1,8
276,268,62993,1,2
232,284,63129,2,0,B|168:288|140:236,1,110,2|0
132,192,63538,1,2
220,204,63811,1,8
140,336,64084,1,0
276,268,64356,5,2
364,280,64629,1,0
336,196,64902,1,8
420,220,65174,1,2
420,220,65311,2,0,B|480:208|488:144,1,110,2|0
476,100,65720,1,2
392,124,65993,1,8
353,45,66265,6,0,B|300:60,1,55
256,72,66538,1,2
172,92,66811,1,0
168,180,67084,6,0,B|115:165,2,55,8|0|0
212,192,67493,1,0
256,204,67629,1,2
300,280,67902,2,0,B|353:265,2,55,2|0|8
256,292,68311,1,0
216,304,68447,1,2
436,316,68720,5,6
416,232,68993,1,0
448,152,69265,1,8
384,92,69538,1,2
384,92,69674,2,0,B|336:56|280:80,1,110,2|0
280,80,70084,5,2
156,120,70356,1,8
256,204,70629,1,0
256,336,70902,5,2
344,328,71174,1,0
416,276,71447,1,8
444,192,71720,1,2
444,192,71856,2,0,B|392:160|340:192,1,110,2|0
340,192,72265,5,2
276,76,72538,1,8
192,180,72811,1,0
260,292,73084,5,2
196,352,73356,1,0
116,312,73629,1,8
128,224,73902,1,2
128,224,74038,2,0,B|180:248|220:212,1,98.9999952793124,2|0
220,212,74447,5,2
108,144,74720,1,8
220,76,74993,1,0
328,148,75265,5,2
424,296,75811,1,8
260,356,76356,1,2
296,276,76629,5,0
236,212,76902,1,8
160,256,77174,1,2
168,344,77447,2,0,B|84:356|8:308,2,165,0|4|4
256,328,78538,2,0,B|284:328|308:312,1,55
252,244,78947,2,0,B|276:229|289:204,2,55
216,268,79356,1,4
156,240,81129,5,2
156,240,81402,1,2
156,240,81696,2,0,B|184:300|248:300,1,110,4|0
296,292,82105,1,0
340,260,82241,1,8
256,192,82514,1,0
356,144,82786,2,0,B|328:84|264:84,1,110
168,124,83332,5,8
256,192,83605,1,0
156,240,83877,2,0,B|184:296|248:300,1,110,0|0
296,312,84286,2,0,B|352:328|404:300,1,110,0|0
444,264,84695,1,0
512,184,84968,1,0
468,84,85241,1,0
360,104,85514,5,8
340,212,85786,1,0
296,312,86059,2,0,B|252:348|192:336,1,110,0|0
140,320,86468,1,0
96,288,86605,1,8
128,184,86877,1,0
128,184,87150,2,0,B|169:147|230:152,1,110,0|0
292,244,87695,6,0,B|353:249|400:208,1,110,8|0
460,124,88241,2,0,B|435:70|373:65,1,110,0|0
336,96,88650,1,0
300,136,88786,1,8
188,112,89059,5,0
224,216,89332,1,0
336,216,89605,1,0
120,260,89877,2,0,B|144:316|208:324,1,110,8|0
224,216,90423,1,4
116,204,90695,5,0
120,260,90832,2,0,B|144:316|208:324,1,110,8|0
260,316,91241,1,0
332,232,91514,1,0
224,216,91786,1,0
328,176,92059,2,0,B|304:120|244:112,1,110,8|0
224,216,92605,1,4
332,232,92877,5,0
328,176,93014,2,0,B|304:120|244:112,1,110,8|0
192,100,93423,1,0
120,184,93695,1,0
224,216,93968,1,0
156,304,94241,5,8
264,320,94514,1,0
332,232,94786,1,4
436,272,95059,5,0
412,324,95195,2,0,B|364:360|308:352,1,110,8|0
264,320,95605,1,0
208,228,95877,2,0,B|152:220|104:256,1,110,0|0
8,200,96423,5,8
8,200,96695,1,0
128,148,96968,2,0,B|192:156|248:112,1,123.749996311963,2|0
344,56,97786,1,0
344,56,98059,1,0
268,84,107877,6,0,B|320:124,3,55
328,76,108423,2,0,B|380:36,3,55,8|0|0|0
392,84,108968,6,0,B|448:84,1,55
424,120,109241,2,0,B|472:148,1,55
432,168,109514,2,0,B|460:216,1,55,8|0
416,212,109786,2,0,B|416:272,1,55
300,332,110332,6,0,B|244:332,1,55
200,332,110605,1,8
172,248,110877,2,0,B|232:248,1,55
272,248,111150,1,0
300,164,111423,2,0,B|244:164,1,55
200,164,111695,1,8
172,80,111968,2,0,B|232:80,1,55
272,80,112241,1,0
360,84,112514,6,0,B|416:84,1,55
388,120,112786,2,0,B|436:148,1,55,8|0
396,168,113059,2,0,B|424:216,1,55,0|0
380,216,113332,6,0,B|380:276,1,55,0|0
344,244,113605,2,0,B|316:292,1,55
296,252,113877,2,0,B|244:282,1,55,8|0
248,236,114150,2,0,B|192:236,1,55
256,192,114423,12,0,116332
172,224,116605,5,4
208,132,116877,1,0
304,132,117150,1,8
340,224,117423,1,0
256,280,117695,1,0
256,280,117832,2,0,B|304:320|360:320,1,110,2|2
356,320,118241,1,8
256,280,118514,5,0
172,224,118786,1,0
208,132,119059,1,0
304,132,119332,1,8
340,224,119605,1,0
256,280,119877,1,0
256,280,120014,2,0,B|208:320|152:320,1,110,2|2
156,320,120423,1,8
156,164,120695,5,2
296,104,120968,1,0
296,104,121105,2,0,B|360:104,2,55,2|0|2
248,244,121786,1,2
340,280,122059,1,0
340,280,122195,2,0,B|308:336|244:336,1,110,2|2
128,256,122877,5,2
128,156,123150,1,0
128,156,123286,2,0,B|128:92,2,55,2|0|2
248,244,123968,1,2
288,152,124241,1,2
288,152,124377,2,0,B|320:200|384:196,1,110,2|2
432,188,124786,1,8
328,300,125059,5,8
172,308,125332,2,0,B|180:340|212:348,2,55,0|0|0
248,244,125877,1,8
328,300,126150,2,0,B|388:284|400:216,1,110,0|0
432,188,126559,2,0,B|416:124|364:108,1,110,8|0
364,108,126968,1,8
264,108,127241,1,0
164,108,127514,6,0,B|104:108,1,55,2|0
136,204,127923,2,0,B|100:252,1,55,0|8
196,280,128332,1,2
296,284,128605,2,0,B|340:316,1,55,2|8
388,228,129014,2,0,B|437:205,1,55,0|8
364,140,129423,1,0
308,60,129695,6,0,B|368:40,2,55,0|0|2
296,108,130105,2,0,B|248:144|188:128,1,110,8|0
156,96,130514,1,2
96,172,130786,2,0,B|44:128,2,55,0|0|2
100,220,131195,2,0,B|176:256|264:232,1,165,8|2
344,284,131877,6,0,B|400:304,1,55,2|0
396,204,132286,2,0,B|444:176,1,55,0|8
364,116,132695,1,2
272,80,132968,2,0,B|200:48,1,55,0|0
200,156,133377,2,0,B|140:196,1,55,0|8
220,268,133786,5,0
316,292,134059,2,0,B|432:260,1,110,0|2
380,236,134468,2,0,B|420:200,1,55,0|8
352,128,134877,5,2
260,88,135150,2,0,B|152:56,1,110,0|2
172,104,135559,2,0,B|112:120,1,55,0|8
140,216,135968,5,0
156,312,136241,2,0,B|96:328,2,55,0|0|2
204,300,136650,2,0,B|257:285,1,55,2|8
352,256,137059,5,2
276,192,137332,2,0,B|222:206,2,55,0|0|2
324,176,137741,2,0,B|376:161,1,55,2|8
308,88,138150,5,0
216,124,138423,1,2
148,196,138695,2,0,B|124:244,1,55,0|2
123,245,138968,1,8
204,296,139241,5,0
296,260,139514,1,2
364,188,139786,2,0,B|388:140,1,55,0|2
388,138,140059,1,8
272,72,140332,5,0
172,88,140605,2,0,B|176:152|236:168,1,110,0|2
284,168,141014,1,2
284,168,141150,1,8
184,252,141423,5,0
88,268,141695,2,0,B|92:332|152:348,1,110,0|2
196,348,142105,1,2
196,348,142241,1,8
284,280,142514,5,0
392,280,142786,1,2
284,280,143059,1,0
392,280,143332,1,8
340,184,143605,5,0
208,184,143877,1,2
340,184,144150,1,0
208,184,144423,1,8
120,84,144695,5,0
276,84,144968,1,2
120,84,145241,1,0
276,84,145514,1,8
208,220,145786,5,0
32,220,146059,1,2
208,220,146332,1,0
32,220,146605,1,8
180,316,146877,5,0
188,324,147014,1,2
196,332,147150,2,0,B|308:332,1,110,2|0
316,340,147559,1,2
324,348,147695,1,8
400,288,147968,1,0
428,192,148241,1,2
384,104,148514,1,0
288,84,148786,5,0
208,144,149059,1,2
160,236,149332,2,0,B|212:332|280:332|308:272|280:216|212:216|180:272|212:332|280:332|328:332,1,330,0|0
400,280,150423,1,0
416,84,150968,6,0,B|380:36|320:40,2,110,0|0|4
328,260,160241,5,0
328,192,160514,2,0,B|244:192,1,82.4999975413085
244,124,161059,1,0
244,124,161332,1,0
116,156,161877,1,2
152,284,162423,5,0
152,284,162696,2,0,B|180:320|228:308,1,82.4999975413085
208,244,163241,1,0
216,232,163377,1,0
224,220,163514,1,0
292,108,164059,1,2
404,176,164605,5,0
384,240,164877,2,0,B|368:284|316:288,1,82.4999975413085
256,300,165423,1,0
256,300,165696,1,0
256,168,166241,1,2
388,100,166786,1,0
444,236,167332,5,0
444,268,167468,1,0
428,296,167605,1,0
400,312,167741,1,0
368,316,167877,1,0
284,252,168150,1,4
104,128,168423,5,4
192,192,168696,1,0
92,236,168968,2,0,B|120:292|180:292,1,110,0|0
236,284,169377,1,0
284,252,169514,1,12
192,192,169786,1,0
288,136,170059,2,0,B|260:80|200:76,1,110,0|0
104,128,170605,5,8
192,192,170877,1,0
92,236,171150,2,0,B|120:292|180:292,1,110
168,348,171559,2,0,B|224:368|272:336,1,110,8|0
312,296,171968,1,0
276,192,172241,2,0,B|332:172|380:204,1,110
312,296,172786,5,8
204,268,173059,1,0
180,164,173332,2,0,B|124:184|75:150,1,110
64,140,173741,1,0
56,132,173877,1,8
216,60,174150,1,0
284,148,174423,2,0,B|340:128|392:164,1,110,0|0
320,248,174968,5,8
320,248,175241,1,0
320,248,175514,2,0,B|264:268|216:232,1,110,0|0
208,224,175923,1,0
200,216,176059,1,8
196,104,176332,1,0
292,48,176605,1,0
392,92,176877,1,0
476,236,177150,6,0,B|464:296|404:312,1,110,8|0
356,212,177696,1,4
468,180,177968,5,0
476,236,178105,2,0,B|460:300|400:312,1,110,8|0
348,320,178514,1,0
356,212,178786,1,0
244,212,179059,1,0
148,268,179332,6,0,B|176:320|240:320,1,110,8|0
244,212,179877,1,4
132,216,180150,5,0
148,268,180286,2,0,B|176:320|240:320,1,110,8|0
292,312,180696,1,0
244,212,180968,1,0
304,120,181241,1,0
244,212,181514,5,8
292,312,181786,1,0
352,220,182059,1,4
460,228,182332,5,0
436,280,182468,2,0,B|404:332|340:332,1,110,8|0
292,312,182877,1,0
352,220,183150,2,0,B|374:163|432:152,1,110,0|0
292,312,183696,5,8
352,220,183968,1,0
240,220,184241,2,0,B|160:209|102:130,1,165,0|0
28,280,185059,1,0
28,280,185332,1,0
240,220,185877,1,8
152,60,186423,5,4
152,192,186696,1,0
100,232,186832,1,0
208,312,187105,2,0,B|244:356|312:360,2,110
316,236,187923,1,0
368,192,188059,1,8
420,68,188332,1,0
288,88,188605,5,0
368,192,188877,1,0
420,236,189014,1,0
316,316,189286,2,0,B|280:364|220:364,2,110
220,224,190105,1,0
168,180,190241,1,8
204,52,190514,1,0
76,84,190786,5,4
168,180,191059,1,0
220,224,191196,1,0
208,356,191468,2,0,B|144:364|104:320,2,110
284,252,192286,1,0
344,220,192423,1,8
448,160,192696,1,0
460,292,192968,6,0,B|412:316,1,55
348,348,193241,1,0
236,276,193514,2,0,B|284:252,1,55,8|0
344,220,193786,1,0
296,96,194059,2,0,B|248:120,1,55
188,152,194332,1,0
72,88,194605,2,0,B|120:64,1,55,8|0
180,32,194877,1,0
296,96,195150,5,4
256,192,195423,12,4,199514
124,208,203884,5,0
124,292,204236,1,0
52,252,204589,1,2
124,292,204942,1,0
164,308,205119,2,0,B|220:328|288:304,1,123.749996311963,2|0
352,260,206001,1,2
424,216,206354,1,0
352,176,206707,5,0
352,92,207082,1,0
280,132,207457,1,2
352,176,207832,1,0
340,216,208019,2,0,B|280:240|220:216,1,123.749996311963,2|0
164,156,208957,1,2
164,156,209332,1,0
224,104,209707,5,0
224,104,210107,1,0
300,136,210507,1,2
376,168,210907,1,0
376,168,211107,2,0,B|336:224|264:216,1,123.749996311963,2|0
188,192,212107,1,2
188,192,212507,2,0,B|168:244|220:280,1,82.4999975413085
256,192,213452,12,0,216725
