osu file format v9

[General]
AudioFilename: Hatsune Miku - Secret Police.mp3
AudioLeadIn: 1996
PreviewTime: 53925
Countdown: 0
SampleSet: Normal
StackLeniency: 0.7
Mode: 0
LetterboxInBreaks: 1

[Editor]
Bookmarks: 15225,24375,43575,53925,72825,82425,91575,101925,120825,130425,152325,171225,180825,190425
DistanceSpacing: 1
BeatDivisor: 4
GridSize: 8

[Metadata]
Title:Himitsu Keisatsu
Artist:Hatsune Miku
Creator:wakarimasenlol
Version:Insane
Source:burirup
Tags:vocaloid vocaloid2

[Difficulty]
HPDrainRate:7
CircleSize:4
OverallDifficulty:7
ApproachRate:9
SliderMultiplier:1.8
SliderTickRate:1

[Events]
//Background and Video events
0,0,"Himitsu Keisatsu.jpg"
//Break Periods
2,34625,42975
2,130475,139425
2,140225,151425
//Storyboard Layer 0 (Background)
//Storyboard Layer 1 (Fail)
//Storyboard Layer 2 (Pass)
//Storyboard Layer 3 (Foreground)
//Storyboard Sound Samples
//Background Colour Transformations
3,100,163,162,255

[TimingPoints]
825,300,4,1,0,20,1,0
5625,-100,4,1,0,40,0,0
8025,-100,4,1,0,60,0,0
10425,-100,4,1,0,10,0,0
10725,-100,4,1,0,15,0,0
11025,-100,4,1,0,20,0,0
11325,-100,4,1,0,26,0,0
11625,-100,4,1,0,30,0,0
11925,-100,4,1,0,35,0,0
12225,-100,4,1,0,40,0,0
12525,-100,4,1,0,45,0,0
12825,-100,4,1,0,50,0,0
13125,-100,4,1,0,55,0,0
13425,-100,4,1,0,60,0,0
13725,-100,4,1,0,70,0,0
14025,-100,4,1,0,75,0,0
14325,-100,4,1,0,80,0,0
14625,-100,4,1,0,90,0,0
14925,-100,4,1,0,100,0,0
15225,-100,4,1,0,80,0,0
59025,-100,4,1,0,60,0,0
59325,-100,4,1,0,80,0,0
59925,-100,4,1,0,60,0,0
60225,-100,4,1,0,80,0,0
71025,-133.333333333333,4,1,0,80,0,0
72525,-100,4,1,0,80,0,0
72825,-100,4,1,0,80,0,1
81825,-66.6666666666667,4,1,0,80,0,1
82425,-100,4,1,0,80,0,0
107025,-100,4,1,0,60,0,0
107325,-100,4,1,0,80,0,0
107925,-100,4,1,0,59,0,0
108225,-100,4,1,0,80,0,0
120825,-100,4,1,0,80,0,1
130425,-100,4,1,0,80,0,0
171225,-100,4,1,0,80,0,1
180825,-100,4,1,0,90,0,1
189825,-100,4,1,0,0,0,1
189975,-100,4,1,0,30,0,1
190125,-100,4,1,0,60,0,1
190275,-100,4,1,0,80,0,1
190425,-100,4,1,0,100,0,0

[Colours]
Combo1 : 192,192,192
Combo2 : 0,128,192
Combo3 : 128,128,128
Combo4 : 0,128,0

[HitObjects]
184,240,825,1,0
224,160,975,1,0
304,200,1125,2,0,B|304:248,2,45
368,136,1425,1,0
440,80,1575,2,0,B|440:24,2,45
456,168,1875,1,0
368,136,2025,6,0,B|312:128|288:80,1,90
208,64,2325,2,0,B|160:64,2,45
160,144,2625,1,0
104,216,2775,2,0,B|152:216,2,45
160,144,3075,2,0,B|216:152|248:216,1,90
304,248,3375,1,0
360,320,3525,5,0
384,328,3600,1,0
408,320,3675,1,0
464,248,3825,1,0
408,176,3975,1,0
384,168,4050,1,0
360,176,4125,1,0
304,248,4275,1,0
248,176,4425,6,0,B|216:136|240:88,1,90
160,40,4725,2,0,B|160:96,2,45
238,91,5025,1,0
312,144,5175,2,0,B|312:88,2,45
280,232,5475,1,0
192,208,5625,6,0,B|192:112,1,90
280,144,5925,2,0,B|280:240,1,90
176,208,6225,2,0,B|176:104,1,90
296,144,6525,2,0,B|296:248,1,90
160,208,6825,2,0,B|160:112,1,90
312,144,7125,2,0,B|312:240,1,90
144,208,7425,2,0,B|144:96,1,90
328,144,7725,2,0,B|328:248,1,90
256,288,8025,5,0
256,288,8175,1,0
216,208,8325,1,0
216,208,8475,1,0
296,160,8625,1,0
296,160,8775,1,0
256,80,8925,1,0
256,80,9075,1,0
256,288,9225,2,0,B|256:176,1,90
256,80,9525,2,0,B|256:200,1,90
136,184,9825,2,0,B|232:184,1,90
368,184,10125,2,0,B|248:184,1,90
256,192,10425,12,4,14925
144,240,15225,6,0,B|168:296|240:312,1,90,4|0
240,216,15525,1,0
320,264,15675,2,0,B|344:176|296:88,2,180
240,216,16425,1,0
192,88,16575,2,0,B|144:-8,1,90
72,112,16875,1,0
104,240,17025,1,0
240,216,17175,2,0,B|288:128|400:112,1,180
440,184,17625,5,0
360,224,17775,2,0,B|384:272|456:280,1,90
360,328,18075,2,0,B|256:344|176:328,2,180
240,256,18825,1,0
352,184,18975,1,0
240,256,19125,1,0
128,184,19275,2,0,B|72:112|120:0,2,180
184,112,20025,5,4
248,176,20175,1,0
312,112,20325,1,0
248,176,20475,2,0,B|248:368,1,180
248,356,21075,1,0
176,240,21225,2,0,B|112:304,2,90
320,240,21675,2,0,B|376:312,2,90
248,184,22125,1,0
248,184,22275,1,0
184,112,22425,6,0,B|232:104|264:56,1,90
336,104,22725,1,0
384,184,22875,2,0,B|384:288|456:344,2,180
448,64,23625,1,0
312,72,23775,1,0
200,144,23925,1,0
96,232,24075,1,0
40,352,24225,1,0
120,312,24375,6,0,B|176:328|232:288,1,90
184,216,24675,1,0
96,232,24825,2,0,B|88:136|136:48,1,180,4|0
224,56,25275,2,0,B|272:152|256:240,1,180
200,296,25725,1,0
288,328,25875,1,0
368,288,26025,1,0
408,208,26175,1,0
376,120,26325,2,0,B|296:192,1,90
240,120,26625,2,0,B|168:192,2,90
304,56,27075,1,0
304,56,27225,2,0,B|304:248,1,180
264,320,27675,6,0,B|264:128,1,180
208,72,28125,2,0,B|176:128|184:176,1,90
104,112,28425,2,0,B|80:176|96:216,1,90
72,288,28725,1,0
152,336,28875,1,0
152,336,29025,2,0,B|272:352|360:328,1,180
272,264,29475,2,0,B|192:216|168:120,1,180
160,96,29850,1,0
160,72,29925,1,0
248,56,30075,5,0
264,72,30150,1,0
280,88,30225,1,0
296,104,30300,1,0
312,120,30375,1,0
328,136,30450,1,0
344,152,30525,1,0
360,168,30600,1,0
376,184,30675,2,0,B|448:248,2,90
360,168,31050,5,0
344,184,31125,1,0
328,200,31200,1,0
312,216,31275,1,0
296,232,31350,1,0
280,248,31425,1,0
264,264,31500,1,0
248,280,31575,1,0
232,296,31650,1,0
216,312,31725,1,0
200,328,31800,1,0
184,344,31875,2,0,B|112:272,1,90
120,256,32100,5,0
120,232,32175,1,0
120,208,32250,1,0
120,184,32325,1,0
120,160,32400,1,0
120,136,32475,1,0
120,112,32550,1,0
120,88,32625,1,0
200,48,32775,5,0
280,96,32925,2,0,B|280:144,2,45
224,168,33225,2,0,B|256:208|312:192,1,90
368,128,33525,1,0
368,128,33600,1,0
368,128,33675,1,0
416,208,33825,1,0
416,208,33900,1,0
416,208,33975,1,0
400,296,34125,1,0
400,296,34200,2,0,B|256:296,1,135,0|4
176,192,43575,5,0
256,152,43725,1,0
336,192,43875,1,0
256,240,44025,2,0,B|256:56,1,180,4|0
344,88,44475,2,0,B|160:88,1,180
88,40,44925,2,0,B|56:136|88:232,1,180
48,304,45375,1,0
136,288,45525,2,0,B|184:272|232:304,1,90
312,328,45825,2,0,B|368:344|424:312,1,90
352,248,46125,1,0
352,248,46275,1,0
296,176,46425,6,0,B|200:192|96:176,1,180
184,120,46875,2,0,B|200:224|288:272,1,180
336,200,47325,1,0
424,216,47475,2,0,B|432:168|376:128,1,90
304,120,47775,1,0
224,168,47925,1,0
176,248,48075,1,0
104,304,48225,1,0
32,248,48375,2,0,B|16:208|32:144,1,90
104,80,48675,6,0,B|104:160|184:200,1,135
192,208,48975,1,0
208,224,49050,1,0
224,240,49125,1,0
240,256,49200,1,0
256,272,49275,1,0
280,288,49350,1,0
296,304,49425,2,0,B|296:352,3,45
296,304,49725,5,0
312,288,49800,1,0
328,272,49875,1,0
344,256,49950,1,0
360,240,50025,1,0
376,224,50100,1,0
392,208,50175,1,0
408,192,50250,1,0
424,176,50325,6,0,B|440:136|416:80,1,90
336,56,50625,1,0
256,104,50775,1,0
184,152,50925,2,0,B|128:152,2,45
208,168,51150,1,0
232,160,51225,2,0,B|240:224|216:264,1,90
208,272,51450,1,0
192,296,51525,1,0
168,312,51600,1,0
144,320,51675,1,0
56,288,51825,5,0
40,264,51900,1,0
32,240,51975,1,0
24,216,52050,1,0
24,192,52125,1,0
24,168,52200,1,0
32,144,52275,1,0
40,120,52350,1,0
56,96,52425,2,0,B|88:64|144:72,2,90
72,120,52800,1,0
80,144,52875,2,0,B|128:160|152:208,1,90
184,280,53175,1,0
256,336,53325,1,0
328,280,53475,2,0,B|328:80,1,180
408,136,53925,6,0,B|240:240,1,180
328,280,54375,1,0
408,232,54525,2,0,B|232:128,1,180
160,128,54975,1,0
104,200,55125,1,0
128,288,55275,2,0,B|216:336|304:288,1,180
256,208,55725,1,0
256,112,55875,2,0,B|256:16,1,90
176,256,56325,6,0,B|256:280|376:256,2,180
112,192,57075,1,0
64,120,57225,2,0,B|8:192|32:296,1,180
112,256,57675,2,0,B|168:344|288:336,1,180
352,320,58125,1,0
424,264,58275,2,0,B|448:224|440:168,2,90
352,208,58725,6,0,B|368:112|304:24,2,180
280,152,59475,1,0
200,104,59625,2,0,B|184:200|248:288,2,180
120,136,60375,1,0
72,208,60525,1,0
72,208,60675,1,0
88,296,60825,5,0
168,336,60975,2,0,B|208:264|168:136,1,180
256,192,61425,12,0,63225
168,128,63525,6,0,B|256:168|360:128,1,180
256,112,63975,1,0
320,56,64125,2,0,B|176:184,1,180
256,232,64575,1,0
336,280,64725,2,0,B|360:328|336:376,2,90
256,232,65175,1,0
184,280,65325,1,0
256,328,65475,1,0
336,280,65625,1,0
408,224,65775,1,0
392,312,65925,6,0,B|344:216|392:112,1,180
464,104,66375,1,0
432,184,66525,2,0,B|344:208|256:152,1,180
184,104,66975,1,0
104,64,67125,1,0
56,136,67275,1,0
56,136,67575,1,0
136,248,67725,1,0
264,304,67875,1,0
160,216,68025,1,0
216,144,68175,5,0
216,144,68325,2,0,B|304:168|408:136,2,180
272,72,69075,1,0
360,96,69225,2,0,B|360:192|304:264,1,180
384,304,69675,2,0,B|312:368|184:344,1,180
128,320,70125,1,0
56,208,70275,1,0
136,48,70425,1,0
136,48,70575,2,0,B|120:136|176:232,1,180
256,184,71025,2,0,B|256:128,15,45
256,320,72825,5,4
256,320,72975,1,0
176,272,73125,1,8
176,184,73275,1,0
176,184,73425,1,0
256,136,73575,1,0
336,184,73725,1,8
336,184,73875,1,0
336,272,74025,1,0
256,224,74175,1,0
256,136,74325,1,8
256,48,74475,1,0
256,136,74625,5,8
120,248,74775,1,8
256,368,74925,1,12
392,248,75075,1,8
304,240,75225,6,0,B|232:168,1,90,4|0
168,120,75525,1,8
168,120,75675,1,0
192,256,75825,2,0,B|88:184,1,90
48,152,76125,1,8
48,152,76275,1,0
128,336,76425,2,0,B|8:312,2,90,0|0|8
208,376,76875,1,0
296,376,77025,5,12
280,200,77175,1,8
264,24,77325,1,12
280,200,77475,1,8
192,200,77625,5,4
104,200,77775,1,0
152,120,77925,2,0,B|152:16,1,90,8|0
152,120,78225,1,0
192,200,78375,1,0
224,288,78525,2,0,B|264:376,1,90,8|0
224,288,78825,1,0
280,200,78975,1,0
328,120,79125,2,0,B|384:40,1,90,8|0
432,120,79425,5,12
304,248,79575,1,8
176,120,79725,1,12
48,248,79875,1,8
112,184,80025,6,0,B|112:56,1,90,4|0
200,96,80325,1,8
200,184,80475,1,0
288,184,80625,2,0,B|288:280,1,90
200,272,80925,1,8
200,184,81075,1,0
112,272,81225,2,0,B|200:272,1,90
288,96,81525,2,0,B|200:96,1,90,8|0
80,320,81825,6,12,B|232:320,1,134.999995976687
328,56,82125,2,8,B|192:56,1,134.999995976687,12|8
136,120,82425,5,4
176,200,82575,1,0
264,200,82725,1,0
264,200,82875,2,0,B|360:184|424:88,2,180
256,288,83625,1,0
184,176,83775,1,0
72,248,83925,1,0
144,360,84075,1,0
256,288,84225,1,0
184,176,84375,1,0
240,104,84525,1,0
240,104,84675,1,0
328,112,84825,6,0,B|400:176|416:288,1,180,4|0
320,264,85275,2,0,B|320:160|400:104,2,180
256,328,86025,1,0
256,328,86175,1,0
152,184,86325,1,0
152,184,86475,1,0
152,96,86625,2,0,B|152:208,1,90
152,272,86925,2,0,B|152:168,1,90
152,184,87225,1,4
240,216,87375,5,0
320,168,87525,1,0
400,216,87675,2,0,B|360:304|248:328,2,180
320,168,88425,1,0
208,96,88575,1,0
136,208,88725,1,0
248,280,88875,1,0
208,96,89025,1,0
184,8,89175,2,0,B|232:192,1,180
229,182,89625,1,4
208,272,89775,5,0
144,336,89925,1,0
80,272,90075,2,0,B|32:200|80:72,2,180,0|0|0
144,208,90825,1,0
256,136,90975,1,0
368,208,91125,1,0
256,280,91275,1,0
184,168,91425,1,0
328,168,91575,5,0
328,312,91725,1,0
184,320,91875,1,0
112,264,92025,2,0,B|64:200|64:64,1,180,4|0
152,120,92475,2,0,B|56:160|16:264,1,180
64,328,92925,1,0
152,312,93075,2,0,B|200:288|224:224,1,90
256,168,93375,2,0,B|264:120|320:80,1,90
384,64,93675,1,0
384,64,93825,1,0
440,136,93975,2,0,B|432:224|328:312,1,180
272,328,94425,2,0,B|224:336|160:328,2,90
232,248,94875,6,0,B|144:208|32:264,1,180
112,184,95325,1,0
192,144,95475,2,0,B|240:160|296:144,1,90
352,96,95775,1,0
352,96,95925,1,0
376,184,96075,5,0
448,240,96225,2,0,B|432:288|368:296,1,90
296,272,96525,1,0
232,336,96675,2,0,B|144:344|104:304,1,135
88,288,96975,1,0
72,264,97050,1,0
56,240,97125,1,0
40,216,97200,1,0
24,192,97275,1,0
96,144,97425,2,0,B|96:48,1,90
184,80,97725,5,0
200,96,97800,1,0
216,112,97875,1,0
232,128,97950,1,0
248,144,98025,1,0
264,160,98100,1,0
280,176,98175,1,0
296,192,98250,1,0
312,208,98325,2,0,B|312:304,1,90
328,280,98550,5,0
344,264,98625,1,0
360,248,98700,1,0
376,232,98775,1,0
392,216,98850,1,0
408,200,98925,1,0
424,184,99000,1,0
440,168,99075,1,0
456,152,99150,1,0
472,136,99225,2,0,B|472:80,3,45
472,152,99525,5,0
472,176,99600,1,0
472,200,99675,1,0
472,224,99750,1,0
472,248,99825,1,0
472,272,99900,1,0
472,296,99975,2,0,B|472:384,2,90
448,304,100350,1,0
424,312,100425,2,0,B|376:336|312:304,1,90
256,272,100725,2,0,B|256:200,2,45
256,88,101175,2,0,B|256:176,2,90
384,320,101925,6,0,B|344:232|376:144,1,180
456,192,102375,1,0
464,280,102525,2,0,B|376:240|288:288,1,180
208,248,102975,1,0
144,312,103125,1,0
64,280,103275,2,0,B|16:208|72:96,1,180
152,80,103725,2,0,B|192:120|200:176,2,90
120,168,104175,1,0
176,240,104325,6,0,B|272:256|360:240,1,180
408,312,104775,1,0
320,336,104925,2,0,B|288:248|320:152,1,180
384,96,105375,1,0
456,152,105525,1,0
384,200,105675,2,0,B|288:224|192:200,1,180
128,152,106125,1,0
56,200,106275,2,0,B|40:256|80:304,2,90
136,240,106725,6,0,B|200:328|320:336,2,180
224,224,107475,1,0
312,192,107625,2,0,B|240:128|136:112,2,180
352,272,108375,1,0
352,272,108525,1,0
280,328,108675,1,0
280,240,108825,1,0
280,240,108975,2,0,B|280:40,1,180
256,192,109425,12,0,111225
168,192,111525,6,0,B|352:192,1,180
344,280,111975,1,0
256,280,112125,2,0,B|256:96,1,180
176,64,112575,1,0
96,96,112725,1,0
96,96,112875,1,0
64,176,113025,1,0
72,264,113175,2,0,B|96:328|144:336,2,90
152,216,113625,1,0
224,272,113775,1,0
296,216,113925,6,0,B|384:248|488:216,2,180
224,160,114675,1,0
152,104,114825,2,0,B|104:200|152:296,1,180
224,320,115275,1,0
296,272,115425,1,0
320,184,115575,1,0
296,96,115725,1,0
224,48,115875,2,0,B|184:88|208:144,2,90
296,96,116325,6,0,B|352:176|472:184,2,180
352,24,117075,1,0
408,96,117225,2,0,B|352:176|256:192,1,180
328,248,117675,2,0,B|280:288|144:280,1,180
80,232,118125,1,0
40,152,118275,1,0
80,72,118425,1,0
160,32,118575,2,0,B|216:120|168:208,1,180
256,192,119025,12,0,120525
168,192,120825,6,0,B|64:192,2,90,0|0|8
256,192,121275,1,0
344,192,121425,2,0,B|448:192,2,90,0|0|8
256,192,121875,1,0
256,104,122025,1,0
256,192,122175,1,0
256,280,122325,1,8
256,368,122475,1,0
256,280,122625,5,12
96,192,122775,1,8
256,104,122925,1,12
416,192,123075,1,8
352,256,123225,5,0
352,256,123375,1,0
352,168,123525,2,0,B|352:264,1,90,8|0
272,208,123825,1,0
272,208,123975,1,0
272,296,124125,2,0,B|272:200,1,90,8|0
192,248,124425,1,0
192,248,124575,1,0
192,160,124725,2,0,B|192:248,1,90,8|0
120,304,125025,5,12
296,352,125175,1,8
344,176,125325,1,12
168,128,125475,1,8
256,104,125625,5,4
256,192,125775,1,0
256,192,125925,1,8
256,280,126075,1,0
168,192,126225,1,0
256,192,126375,1,0
256,192,126525,1,8
344,192,126675,1,0
344,104,126825,2,0,B|344:192,1,90
168,280,127125,2,0,B|168:176,1,90,8|0
80,160,127425,5,12
256,112,127575,1,8
432,160,127725,1,12
256,208,127875,1,8
184,152,128025,5,4
272,152,128175,1,0
272,240,128325,1,8
184,240,128475,1,0
224,192,128625,1,4
312,192,128775,1,0
312,280,128925,1,8
224,280,129075,1,0
272,240,129225,1,4
360,240,129375,1,0
360,328,129525,1,8
272,328,129675,1,0
312,280,129825,5,12
136,288,129975,1,8
136,112,130125,1,12
312,112,130275,1,8
256,192,140025,5,4
256,192,152025,5,0
96,104,152325,2,0,B|48:192|96:296,1,180
256,192,152925,2,0,B|280:96|248:16,1,180
168,176,153525,1,0
168,176,153675,2,0,B|160:272|224:360,1,180
256,80,154425,1,0
312,152,154575,1,0
312,152,154725,6,0,B|304:256|400:312,2,180
464,56,155625,1,0
408,224,155925,1,0
408,224,156075,2,0,B|336:288|216:280,1,180
152,264,156525,1,0
136,256,156600,1,0
120,248,156675,1,0
104,240,156750,1,0
88,232,156825,1,0
48,152,156975,1,0
104,80,157125,6,0,B|192:120|288:88,1,180
360,48,157575,1,0
352,136,157725,2,0,B|352:240|432:304,1,180
488,360,158175,1,0
400,328,158325,2,0,B|296:304|200:344,1,180
136,352,158775,1,0
56,312,158925,2,0,B|32:272|56:208,2,90
128,264,159375,6,0,B|160:168|120:72,1,180
256,192,159825,12,4,161625
192,256,161925,6,0,B|320:128,1,180
384,192,162375,1,0
304,240,162525,2,0,B|192:272|88:240,1,180
40,216,162975,1,0
16,128,163125,1,0
104,104,163275,1,0
128,192,163425,1,0
40,216,163575,2,0,B|40:304,2,90
128,248,164025,1,0
208,296,164175,1,0
208,208,164325,6,0,B|176:112|208:24,2,180
280,264,165075,1,0
352,208,165225,2,0,B|384:112|352:24,1,180
288,96,165675,2,0,B|352:160|456:160,1,180
448,248,166125,1,0
384,312,166275,2,0,B|336:320|288:312,2,90
336,232,166725,6,0,B|232:232|152:296,1,180
120,208,167175,1,0
56,272,167325,2,0,B|24:176|64:72,2,180
120,208,168075,2,0,B|120:104|184:40,1,180
272,64,168525,1,0
328,136,168675,1,0
328,136,168825,1,0
416,144,168975,2,0,B|392:240|264:272,1,180
256,192,169425,12,0,170925
128,192,171225,5,4
192,128,171375,1,0
256,192,171525,1,8
192,256,171675,1,0
256,192,171825,1,0
320,128,171975,1,0
384,192,172125,1,8
320,256,172275,1,0
256,320,172425,1,0
240,232,172575,1,0
272,152,172725,1,8
256,64,172875,1,0
256,64,173025,5,12
128,192,173175,1,8
256,320,173325,1,12
384,192,173475,1,8
424,272,173625,6,0,B|384:280|328:272,1,90,4|0
272,208,173925,1,8
272,208,174075,1,0
128,144,174225,2,0,B|168:136|224:144,1,90
272,208,174525,1,8
272,208,174675,1,0
128,280,174825,2,0,B|168:288|232:272,1,90
272,208,175125,1,8
272,208,175275,1,0
352,176,175425,5,12
200,72,175575,1,8
96,224,175725,1,12
248,328,175875,1,8
192,256,176025,6,0,B|176:200|192:152,2,90,4|0|8
272,288,176475,1,0
352,256,176625,2,0,B|368:216|352:160,2,90,0|0|8
272,208,177075,1,0
272,120,177225,2,0,B|272:16,2,90,0|0|8
272,208,177675,1,0
272,288,177825,5,12
96,248,177975,1,8
272,208,178125,1,12
448,248,178275,1,8
368,208,178425,5,4
368,208,178575,1,0
368,208,178725,1,8
368,208,178875,1,0
288,248,179025,1,0
288,248,179175,1,0
200,232,179325,1,8
200,232,179475,1,0
120,192,179625,1,0
120,104,179775,1,0
200,56,179925,1,8
280,96,180075,1,0
280,184,180225,5,12
208,352,180375,1,8
384,304,180525,1,12
240,192,180675,1,8
312,248,180825,6,0,B|312:128,1,90,4|0
392,200,181125,2,0,B|392:88,1,90,8|0
472,152,181425,2,0,B|472:256,1,90
392,200,181725,2,0,B|392:288,1,90,8|0
320,344,182025,2,0,B|320:240,1,90
248,200,182325,2,0,B|248:288,1,90,8|0
248,200,182625,5,12
152,352,182775,1,8
56,200,182925,1,12
152,48,183075,1,8
200,120,183225,5,4
248,40,183375,1,0
296,120,183525,1,8
248,200,183675,1,0
200,280,183825,1,0
248,360,183975,1,0
296,280,184125,1,8
248,200,184275,1,0
248,288,184425,2,0,B|248:184,1,90
248,112,184725,2,0,B|248:200,1,90,8|0
160,192,185025,5,12
312,88,185175,1,8
416,240,185325,1,12
264,344,185475,1,8
192,296,185625,6,0,B|96:296,1,90,4|0
144,216,185925,2,0,B|40:216,1,90,8|0
96,136,186225,2,0,B|208:136,1,90
144,56,186525,2,0,B|248:56,1,90,8|0
272,136,186825,1,0
344,80,186975,1,0
400,152,187125,1,8
328,208,187275,1,0
344,80,187425,5,12
448,224,187575,1,8
304,328,187725,1,12
200,184,187875,1,8
200,272,188025,5,4
144,344,188175,1,0
88,272,188325,1,8
144,200,188475,1,0
232,200,188625,1,4
176,272,188775,1,0
120,200,188925,1,8
176,128,189075,1,0
264,128,189225,1,4
208,200,189375,1,0
152,128,189525,1,8
208,56,189675,1,0
296,56,189825,5,8
296,56,189975,1,8
296,232,190125,1,8
296,232,190275,1,8
408,120,190425,5,12
