osu file format v9

[General]
AudioFilename: keisatsu.mp3
AudioLeadIn: 0
PreviewTime: 53240
Countdown: 0
SampleSet: Normal
StackLeniency: 0.7
Mode: 0
LetterboxInBreaks: 1

[Editor]
DistanceSpacing: 1.3
BeatDivisor: 4
GridSize: 4

[Metadata]
Title:Himitsu Keisatsu
Artist:Hatsune Miku
Creator:Lalarun
Version:Normal
Source:BuriruP
Tags:Vocaloid

[Difficulty]
HPDrainRate:3
CircleSize:4
OverallDifficulty:2
ApproachRate:5
SliderMultiplier:1.3
SliderTickRate:1

[Events]
//Background and Video events
0,0,"mikubgg.jpg"
Video,-500,"pv.avi"
//Break Periods
2,34079,41829
2,81879,89829
//Storyboard Layer 0 (Background)
//Storyboard Layer 1 (Fail)
//Storyboard Layer 2 (Pass)
//Storyboard Layer 3 (Foreground)
//Storyboard Sound Samples
//Background Colour Transformations
3,100,163,162,255

[TimingPoints]
9879,300,4,1,1,70,1,0
14604,-200,4,1,1,70,0,0
53379,-200,4,1,1,70,0,1
72279,-200,4,1,1,70,0,0
101379,-200,4,1,1,70,0,1
120279,-200,4,1,1,70,0,0

[Colours]
Combo1 : 255,255,255
Combo2 : 87,174,0
Combo3 : 0,73,147
Combo4 : 230,234,83

[HitObjects]
96,296,14679,2,0,B|84:232|96:164,1,130,4|0
148,100,15579,1,2
64,96,15879,2,0,B|28:120,2,32.5,0|0|10
144,68,16479,2,0,B|188:60,1,32.5,0|10
276,140,17079,6,0,B|340:152|408:140,1,130
480,180,17979,1,2
424,244,18279,2,0,B|432:284,2,32.5,0|0|10
344,216,18879,1,0
264,244,19179,1,10
184,216,19479,6,0,B|120:204|52:216,2,130,4|0|0
156,296,20979,1,10
71,300,21279,2,0,B|39:324,2,32.5,0|10|0
56,216,21879,2,0,B|44:148|56:84,1,130
124,36,22779,1,2
168,108,23079,2,0,B|260:80,1,97.5
288,204,23979,6,0,B|332:156,1,65,0|4
448,104,24729,2,0,B|440:208,1,97.5,0|2
480,276,25479,2,0,B|460:308,2,32.5,0|0|2
400,252,26079,2,0,B|368:232,1,32.5
172,80,27129,6,0,B|164:188,1,97.5,0|2
230,231,27879,2,0,B|262:219,2,32.5,0|0|2
153,267,28479,2,0,B|136:300,1,32.5
58,268,28929,6,0,B|58:220|74:172,1,97.5,0|2
80,88,29679,2,0,B|40:76,2,32.5,0|0|2
152,132,30279,1,0
236,140,30579,1,2
320,132,30879,1,0
392,88,31179,1,2
476,80,31479,6,0,B|512:88,2,32.5,0|0|2
448,160,32079,2,0,B|464:192,2,32.5,0|0|2
368,188,32679,2,0,B|372:224|372:264,1,65,0|2
312,312,33279,2,0,B|300:348,2,32.5,0|0|2
240,268,33879,1,4
440,220,43029,6,0,B|352:264,1,97.5,0|4
280,160,43929,2,0,B|224:240,1,97.5,0|2
188,316,44679,2,0,B|208:340,2,32.5,0|0|2
104,324,45279,2,0,B|92:284,1,32.5
196,60,46329,6,0,B|204:108|204:164,1,97.5,0|2
148,220,47079,2,0,B|164:256,2,32.5,0|0|2
68,192,47679,2,0,B|60:260,2,65,0|2|0
124,128,48579,5,2
208,120,48879,1,0
280,164,49179,1,2
308,244,49479,2,0,B|296:280,2,32.5,0|0|2
388,264,50079,2,0,B|400:328,2,65,0|2|0
448,204,50979,1,2
460,120,51279,2,0,B|484:96,2,32.5,0|0|2
387,77,51879,2,0,B|339:69|291:69,1,97.5,0|0
244,140,52629,6,0,B|264:176,2,32.5
152,52,53379,6,0,B|100:88|64:148,1,130,14|10
144,176,54279,2,0,B|208:156,2,65,0|10|0
80,232,55179,2,0,B|36:228,2,32.5,10|0|0
160,260,55779,1,10
232,304,56079,1,0
316,312,56379,1,10
400,304,56679,2,0,B|416:272|428:240,1,65,0|10
372,180,57279,2,0,B|376:144|384:116,1,65,0|10
444,56,57879,1,0
488,128,58179,6,0,B|484:192|456:256,1,130,10|10
392,200,59079,2,0,B|384:128,2,65,0|10|0
364,280,59979,1,10
256,192,60279,12,4,62379
116,100,62979,6,0,B|92:160|88:228,1,130,10|10
159,272,63879,2,0,B|175:244|183:212,1,65,0|10
221,136,64479,2,0,B|253:124|285:124,1,65,0|10
365,149,65079,1,0
408,76,65379,2,0,B|388:40,2,32.5,10|0|0
436,156,65979,5,10
428,240,66279,1,0
356,284,66579,1,10
272,276,66879,1,0
188,284,67179,2,0,B|172:316,2,32.5,10|0|0
160,204,67779,6,0,B|176:140|172:76,1,130,10|10
92,103,68679,2,0,B|64:163,2,65,0|10|0
171,75,69579,1,10
248,112,69879,2,0,B|288:100,1,32.5
256,192,70329,12,4,72279
88,232,72879,6,0,B|100:200|116:172,1,65,0|10
196,200,73479,2,0,B|228:212|256:228,1,65,0|10
228,308,74079,2,0,B|196:316,2,32.5,4|8|10
312,316,74679,6,0,B|344:308|376:304,1,65,0|10
364,220,75279,2,0,B|356:188|352:156,1,65,0|10
412,96,75879,1,0
331,71,76179,1,10
269,128,76479,2,0,B|253:165,1,32.5,4|0
196,268,77079,6,0,B|164:264|132:264,1,65,0|10
48,280,77679,2,0,B|52:248|52:216,1,65,0|10
116,160,78279,2,0,B|132:188,2,32.5,0|0|10
36,132,78879,2,0,B|-4:148,2,32.5,4|8|10
120,124,79479,5,0
200,152,79779,1,10
284,160,80079,1,0
364,132,80379,1,10
444,104,80679,2,0,B|484:112,2,32.5,0|0|10
432,188,81279,2,0,B|440:224,1,32.5,4|0
76,160,91029,6,0,B|92:260,1,97.5,0|4
216,280,91929,2,0,B|316:264,1,97.5,0|2
392,292,92679,2,0,B|388:328,2,32.5,0|0|2
404,208,93279,2,0,B|372:192,1,32.5
132,120,94329,6,0,B|228:92,1,97.5,0|2
308,112,95079,2,0,B|320:80,2,32.5,0|0|2
252,176,95679,2,0,B|268:212,1,32.5
244,288,96129,6,0,B|192:284|144:288,1,97.5,0|2
80,340,96879,2,0,B|40:328,2,32.5,0|0|2
164,328,97479,1,0
236,284,97779,1,2
264,204,98079,1,0
256,120,98379,1,2
212,48,98679,2,0,B|180:60|152:72,1,65,0|2
96,136,99279,2,0,B|56:120,2,32.5,0|0|2
179,152,99879,2,0,B|168:192,1,32.5
96,224,100329,1,0
168,268,100629,6,0,B|176:304,2,32.5
260,180,101379,6,0,B|320:160|392:160,1,130,14|10
360,240,102279,2,0,B|352:276|340:308,2,65,0|10|0
444,232,103179,2,0,B|448:264,2,32.5,10|0|0
393,164,103779,1,10
312,140,104079,1,0
228,148,104379,1,10
148,120,104679,2,0,B|140:88|140:56,2,65,0|10|0
160,204,105579,2,0,B|140:240,2,32.5,10|0|0
240,232,106179,6,0,B|304:216,1,65,10|0
312,300,106779,2,0,B|376:292,1,65,10|0
440,236,107379,1,10
396,164,107679,2,0,B|408:124,2,32.5,0|0|10
256,192,108279,12,0,110379
436,252,110979,6,0,B|460:192|464:124,1,130,14|10
393,80,111879,2,0,B|377:108|369:140,1,65,0|10
360,224,112479,1,0
404,296,112779,2,0,B|440:288,2,32.5,10|0|0
320,308,113379,5,10
236,300,113679,1,0
164,256,113979,1,10
84,284,114279,2,0,B|92:316|96:348,2,65,0|10|0
56,204,115179,2,0,B|68:164,2,32.5,10|0|0
136,232,115779,6,0,B|192:208|264:204,1,130,10|10
332,252,116679,2,0,B|304:276|268:288,2,65,0|10|0
340,168,117579,1,10
420,140,117879,2,0,B|440:176,1,32.5
256,192,118329,12,0,120279
424,152,120879,6,0,B|412:184|396:212,1,65,0|10
316,184,121479,2,0,B|284:172|256:156,1,65,0|10
284,76,122079,2,0,B|316:68,2,32.5,4|8|10
200,68,122679,6,0,B|168:76|136:80,1,65,0|10
148,164,123279,2,0,B|156:196|160:228,1,65,0|10
100,288,123879,1,0
181,313,124179,1,10
243,256,124479,2,0,B|259:219,1,32.5,4|0
316,116,125079,6,0,B|348:120|380:120,1,65,0|10
464,104,125679,2,0,B|460:136|460:168,1,65,0|10
396,224,126279,2,0,B|380:196,2,32.5,0|0|10
476,252,126879,2,0,B|516:236,2,32.5,4|8|10
392,260,127479,5,0
312,232,127779,1,10
228,224,128079,1,0
148,252,128379,1,10
68,280,128679,2,0,B|28:272,2,32.5,0|0|10
80,196,129279,2,0,B|72:160,1,32.5,4|0
