osu file format v9

[General]
AudioFilename: keisatsu.mp3
AudioLeadIn: 0
PreviewTime: 53240
Countdown: 0
SampleSet: Normal
StackLeniency: 0.7
Mode: 0
LetterboxInBreaks: 1

[Editor]
DistanceSpacing: 0.8
BeatDivisor: 4
GridSize: 4

[Metadata]
Title:Himitsu Keisatsu
Artist:Hatsune Miku
Creator:Lalarun
Version:Insane
Source:BuriruP
Tags:Vocaloid

[Difficulty]
HPDrainRate:6
CircleSize:4
OverallDifficulty:7
ApproachRate:9
SliderMultiplier:2
SliderTickRate:1

[Events]
//Background and Video events
0,0,"mikubgg.jpg"
Video,-500,"pv.avi"
//Break Periods
2,81879,90429
2,129879,136329
2,150629,151179
//Storyboard Layer 0 (Background)
//Storyboard Layer 1 (Fail)
//Storyboard Layer 2 (Pass)
//Storyboard Layer 3 (Foreground)
//Storyboard Sound Samples
//Background Colour Transformations
3,100,163,162,255

[TimingPoints]
9879,300,4,1,1,70,1,0
47904,-100,4,1,1,20,0,0
48054,-100,4,1,1,70,0,0
53379,-100,4,1,1,70,0,1
72279,-100,4,1,1,70,0,0
101379,-100,4,1,1,70,0,1
120279,-100,4,1,1,70,0,0
139404,-100,4,1,1,60,0,0
141204,-100,4,1,1,65,0,0
141804,-100,4,1,1,70,0,0
146604,-100,4,1,1,50,0,0
147204,-100,4,1,1,55,0,0
147804,-100,4,1,1,60,0,0
148404,-100,4,1,1,65,0,0
149004,-100,4,1,1,70,0,0
150354,-100,4,2,0,70,0,0
150504,-100,4,1,1,70,0,0
156579,-100,4,1,1,70,0,1
170679,-100,4,1,1,70,0,0
189504,-100,4,1,1,10,0,0
189654,-100,4,1,1,70,0,0

[Colours]
Combo1 : 255,255,255
Combo2 : 87,174,0
Combo3 : 0,73,147
Combo4 : 230,234,83

[HitObjects]
256,192,9879,12,4,14379
84,180,14679,6,0,B|68:228|64:280,1,100,4|0
120,335,14979,1,2
181,283,15129,2,0,B|209:187|221:87,2,200
104,260,15879,2,0,B|108:208|116:160,1,100
204,80,16179,2,0,B|200:132|192:180,1,100,10|0
144,244,16479,2,0,B|148:192|156:144,1,100,0|0
244,64,16779,2,0,B|240:116|232:164,1,100,10|0
256,240,17079,5,0
317,291,17229,1,0
353,219,17379,1,2
305,155,17529,2,0,B|313:107|329:59,1,100
444,20,17829,2,0,B|436:68|420:116,1,100
348,152,18129,1,0
272,176,18279,2,0,B|256:224|248:272,1,100
168,280,18579,1,10
92,256,18729,2,0,B|76:156|88:56,1,200
169,59,19179,5,10
185,71,19254,1,0
201,83,19329,1,0
217,95,19404,1,0
232,108,19479,2,0,B|320:176,1,100,4|0
452,173,19779,2,0,B|364:105,1,100,2|0
276,88,20079,1,0
228,176,20229,1,0
320,216,20379,1,0
368,128,20529,1,0
268,120,20679,6,0,B|252:72|248:20,1,100
348,120,20979,2,0,B|364:168|368:220,1,100,10|0
232,184,21279,2,0,B|216:136|212:84,1,100
312,184,21579,2,0,B|328:232|332:284,1,100,10|0
264,324,21879,5,0
184,332,22029,1,0
120,284,22179,1,2
96,208,22329,2,0,B|96:156|112:108,1,100
224,68,22629,2,0,B|216:116|196:164,1,100
111,109,22929,1,0
184,40,23079,2,0,B|232:28|284:32,1,100
348,80,23379,1,10
300,144,23529,2,0,B|284:248|312:344,1,200
388,320,23979,1,10
384,240,24129,5,0
388,220,24204,1,0
392,200,24279,2,0,B|412:92,1,100,4|0
92,124,24729,1,0
56,196,24879,2,0,B|56:244|68:296,1,100,0|0
150,237,25179,2,0,B|198:237|250:225,1,100,2|0
351,128,25479,2,0,B|303:128|251:140,1,100,0|0
312,220,25779,2,0,B|312:268|324:320,1,100,2|0
404,328,26079,1,0
428,252,26229,2,0,B|428:140|392:48,2,200,0|0|0
168,148,27129,6,0,B|168:260|204:352,2,200,0|0|0
244,172,27879,2,0,B|244:220|232:272,1,100,0|0
88,200,28329,1,0
52,128,28479,2,0,B|64:76|88:36,1,100
244,76,28929,6,0,B|344:48|444:60,1,200
442,59,29304,1,0
442,59,29379,1,2
396,148,29529,1,0
382,180,29604,1,0
374,214,29679,1,0
369,248,29754,1,0
370,282,29829,1,0
300,320,29979,2,0,B|266:354,2,50,2|0|0
276,244,30279,6,0,B|268:196|272:144,1,100
184,96,30579,1,2
184,96,30654,1,0
184,96,30729,2,0,B|220:60|272:44,1,100
276,244,31029,1,0
176,252,31179,1,2
144,240,31254,1,0
120,216,31329,1,0
108,184,31404,1,0
105,149,31479,6,0,B|105:97|113:49,1,100
241,105,31779,1,2
329,57,31929,1,0
249,117,32079,1,0
349,109,32229,1,0
305,199,32379,1,2
305,199,32454,1,0
305,199,32529,1,0
329,57,32679,6,0,B|412:112|450:216,1,200,0|2
305,199,33129,1,0
181,133,33279,1,0
176,152,33354,1,0
172,172,33429,1,0
84,220,33579,1,2
88,240,33654,1,0
92,260,33729,1,0
96,280,33804,1,0
100,300,33879,1,4
256,192,34029,12,0,35079
256,192,35379,5,10
93,75,35679,2,0,B|69:115|57:167,1,100
256,192,35979,1,10
256,192,36129,1,0
304,256,36279,6,0,B|288:304|260:344,1,100
180,336,36579,1,2
188,256,36729,2,0,B|228:156|292:80,2,200
144,188,37479,2,0,B|184:160|236:152,1,100
284,216,37779,1,10
364,216,37929,2,0,B|420:132|444:32,1,200
364,32,38379,5,10
344,40,38454,1,0
324,48,38529,1,0
304,56,38604,1,0
284,64,38679,2,0,B|176:108,1,100,4|0
68,36,38979,2,0,B|52:84|44:136,1,100,2|0
100,216,39279,1,0
188,168,39429,1,0
88,160,39579,1,0
128,252,39729,1,0
228,256,39879,6,0,B|272:236|312:204,1,100
392,88,40179,2,0,B|348:108|308:140,1,100,10|0
261,206,40479,2,0,B|305:186|345:154,1,100
425,38,40779,2,0,B|381:58|341:90,1,100,10|0
320,168,41079,5,0
296,244,41229,1,0
224,280,41379,1,2
148,256,41529,2,0,B|124:160|136:56,1,200
240,152,41979,2,0,B|292:148|340:136,1,100
236,40,42279,2,0,B|184:44|136:56,1,100
128,136,42579,1,10
204,160,42729,2,0,B|228:260|224:360,1,200
436,120,43179,1,10
360,144,43329,5,0
353,162,43404,1,0
345,180,43479,2,0,B|304:280,1,100,4|0
120,328,43929,2,0,B|132:224|120:128,1,200
184,80,44379,2,0,B|212:36,2,50,2|0|0
232,144,44679,1,0
252,140,44754,1,0
272,136,44829,2,0,B|380:112,2,100,0|2|0
272,216,45279,1,0
352,224,45429,2,0,B|400:136|416:36,2,200
161,164,46329,6,0,B|117:252|105:356,2,200
228,208,47079,2,0,B|220:260|204:304,1,100
264,252,47379,2,0,B|256:304|240:348,1,100,2|0
160,340,47679,1,0
136,264,47829,2,0,B|144:212|160:168,1,100
240,176,48129,6,0,B|312:108|416:84,1,200
480,132,48579,2,0,B|520:160,2,50,2|0|0
408,168,48879,1,0
396,200,48954,1,0
389,234,49029,1,0
393,268,49104,1,0
402,301,49179,2,0,B|349:336,3,50,2|0|0|0
326,336,49479,6,0,B|294:288,3,50
268,274,49779,1,2
234,265,49854,1,0
199,265,49929,1,0
165,274,50004,1,0
136,294,50079,2,0,B|96:260|78:214,1,100
100,116,50379,1,2
128,136,50454,1,0
152,160,50529,1,0
172,188,50604,1,0
185,220,50679,6,0,B|204:268|244:300,1,100
276,204,50979,2,0,B|284:156,2,50,2|0|0
336,284,51279,2,0,B|372:252,3,50
396,224,51579,1,2
408,191,51654,1,0
412,156,51729,1,0
409,121,51804,1,0
394,89,51879,2,0,B|342:100,3,50
316,78,52179,2,0,B|324:30,2,50,2|0|0
64,204,52629,6,0,B|40:160|32:104,2,100
133,131,53079,1,4
432,332,53379,6,0,B|468:228|460:132,1,200,14|0
360,140,53829,1,0
300,220,53979,2,0,B|200:200,1,100,10|0
76,140,54279,2,0,B|160:88|268:88,1,200,0|10
392,152,54729,2,0,B|308:204|200:204,1,200
266,88,55179,5,10
392,152,55329,1,0
384,172,55404,1,0
376,192,55479,1,4
295,280,55629,1,0
176,292,55779,6,0,B|164:192|180:92,1,200,10|0
272,52,56229,1,0
305,146,56379,2,0,B|283:245,1,100,10|0
392,332,56679,2,0,B|452:252|456:144,1,200,0|10
392,20,57129,2,0,B|332:100|328:208,1,200
455,145,57579,5,10
392,20,57729,1,0
372,24,57804,1,0
352,28,57879,2,0,B|252:48,1,100,4|0
182,117,58179,6,0,B|162:161|158:213,1,100,10|0
256,192,58479,2,0,B|304:204|352:216,1,100
392,124,58779,1,10
300,84,58929,1,0
300,84,59004,1,0
300,84,59079,2,0,B|232:156|208:260,1,200,0|10
88,332,59529,2,0,B|72:284|72:232,2,100
166,270,59979,2,0,B|221:271|269:251,1,100,10|0
200,175,60279,5,4
111,129,60429,2,0,B|139:65|225:50|278:106,2,200,2|2|2
277,105,61179,1,10
111,129,61329,1,0
200,175,61479,6,0,B|200:224|216:276,1,100,4|0
296,215,61779,2,0,B|345:215|397:199,1,100,10|0
331,122,62079,2,0,B|331:73|315:21,1,100,4|0
236,84,62379,2,0,B|187:84|132:100,1,100,14|0
200,176,62679,1,4
292,216,62829,5,0
308,204,62904,1,0
324,192,62979,2,0,B|411:124,1,100,14|0
400,271,63279,2,0,B|313:339,1,100
224,280,63579,1,10
264,188,63729,2,0,B|308:164|360:164,2,100
196,262,64179,1,10
96,252,64329,2,0,B|72:156|88:52,1,200
185,30,64779,1,10
260,96,64929,5,0
280,93,65004,1,0
301,91,65079,2,0,B|401:79,2,100,4|0|10
312,192,65529,1,0
300,208,65604,1,0
288,224,65679,2,0,B|226:313,2,100,0|0|10
368,284,66129,1,0
460,244,66279,2,0,B|460:192|452:144,1,100
356,116,66579,1,10
328,212,66729,2,0,B|228:244|128:232,1,200
76,148,67179,1,10
156,88,67329,5,0
176,92,67404,1,0
196,96,67479,2,0,B|308:120,1,100,4|0
232,196,67779,2,0,B|344:220,2,100,10|0|0
293,116,68229,1,0
387,82,68379,1,10
453,157,68529,1,0
360,193,68679,2,0,B|352:244|352:296,2,100,0|0|10
441,252,69129,1,0
352,292,69279,5,0
268,238,69429,1,0
172,260,69579,2,0,B|148:304|140:356,1,100,10|0
240,340,69879,1,4
70,234,70029,5,4
256,192,70329,12,0,71979
80,120,72279,6,0,B|60:164|56:216,1,100
168,300,72579,2,0,B|168:244|152:200,1,100,10|0
200,136,72879,2,0,B|272:72|384:60,1,200,0|10
452,100,73329,1,0
404,164,73479,6,0,B|416:212|444:260,1,100
380,308,73779,2,0,B|332:296|280:296,1,100,10|0
212,255,74079,1,4
200,223,74154,1,0
196,188,74229,1,8
196,153,74304,1,0
205,119,74379,1,10
159,53,74529,1,0
92,96,74679,6,0,B|76:144|72:196,1,100
169,168,74979,2,0,B|220:172|269:184,1,100,10|0
356,136,75279,2,0,B|372:88|376:32,2,100,0|0|10
272,80,75729,1,0
180,124,75879,6,0,B|176:172|184:224,1,100
292,312,76179,2,0,B|296:264|288:212,1,100,10|0
234,152,76479,2,0,B|230:200|238:252,1,100,4|0
237,251,76929,5,0
346,340,77079,2,0,B|350:292|342:240,1,100
234,152,77379,2,0,B|230:200|238:252,1,100,10|0
292,312,77679,2,0,B|296:264|288:212,1,100
180,124,77979,2,0,B|176:172|184:224,1,100,10|0
316,176,78279,6,0,B|364:168|416:172,1,100
480,296,78579,2,0,B|432:304|380:300,1,100,10|0
316,252,78879,1,4
280,248,78954,1,0
244,248,79029,1,8
208,248,79104,1,0
172,252,79179,1,10
108,300,79329,1,0
72,228,79479,6,0,B|76:180|72:128,1,100
156,72,79779,1,10
248,112,79929,1,0
340,72,80079,2,0,B|388:64|440:72,2,100,0|0|10
388,160,80529,5,0
388,180,80604,1,0
388,200,80679,2,0,B|388:300,1,100
256,348,80979,2,0,B|256:300|256:248,1,100,10|0
127,95,81279,2,0,B|127:195,1,100,4|0
136,316,91029,5,0
100,244,91179,2,0,B|88:192,2,50
180,248,91479,2,0,B|204:152|200:48,1,200,4|2
280,44,91929,1,0
292,60,92004,1,0
304,76,92079,2,0,B|369:166,2,100,0|0|2
376,40,92529,1,0
424,104,92679,2,0,B|424:152|412:204,1,100
300,288,92979,2,0,B|300:240|312:188,1,100,2|0
424,104,93279,1,0
300,288,93429,2,0,B|300:184|328:88,2,200
176,36,94329,6,0,B|176:140|140:240,1,200
36,140,94779,2,0,B|128:104,1,100,2|0
260,148,95079,2,0,B|168:184,2,100,0|0|2
308,84,95529,1,0
388,92,95679,2,0,B|408:136|416:188,1,100
320,316,96129,6,0,B|212:296|120:316,1,200
36,264,96579,1,2
59,238,96654,1,0
71,205,96729,1,0
75,170,96804,1,0
71,135,96879,2,0,B|60:86,3,50
76,55,97179,6,0,B|128:75,3,50,2|0|0|0
157,78,97479,1,0
191,77,97554,1,0
224,67,97629,1,0
252,47,97704,1,0
286,39,97779,2,0,B|386:43|482:87,1,200,2|0
428,172,98229,5,0
400,192,98304,1,2
380,220,98379,2,0,B|356:264,3,50
328,284,98679,1,0
296,296,98754,1,0
260,296,98829,2,0,B|204:288,3,50,0|0|2|0
180,272,99129,1,0
144,264,99204,1,0
112,276,99279,2,0,B|40:348,1,100
24,208,99579,6,0,B|96:136,1,100,2|0
188,172,99879,1,0
222,176,99954,1,0
256,169,100029,1,0
286,152,100104,1,0
317,137,100179,2,0,B|366:154,2,50,2|0|0
126,343,100629,6,0,B|150:299|158:243,2,100
57,270,101079,1,4
256,72,101379,6,0,B|344:32|456:44,1,200,14|0
424,140,101829,1,0
336,188,101979,2,0,B|236:168,1,100,10|0
116,100,102279,2,0,B|72:188|68:296,1,200,0|10
149,352,102729,2,0,B|165:304|161:252,2,100
68,292,103179,5,10
160,252,103329,1,0
180,260,103404,1,0
200,268,103479,2,0,B|296:308,1,100,4|0
348,224,103779,6,0,B|444:264,2,100,10|0|0
308,132,104229,1,0
208,128,104379,2,0,B|180:168|168:220,1,100,10|0
76,324,104679,2,0,B|48:228|64:124,1,200,0|10
168,220,105129,2,0,B|264:192|368:208,1,200
408,276,105579,5,10
404,136,105729,2,0,B|448:116,2,50,0|0|4
232,32,106029,1,0
40,88,106179,6,0,B|28:136|28:188,1,100,10|0
136,355,106479,2,0,B|164:255|160:151,1,200,0|10
84,92,106929,1,0
276,36,107079,2,0,B|380:28|472:72,1,200,0|10
352,148,107529,2,0,B|368:196|368:248,2,100
172,236,107979,2,0,B|227:237|275:217,1,100,10|0
204,144,108279,5,4
116,96,108429,2,0,B|144:32|230:17|283:73,2,200,2|2|2
282,72,109179,1,10
116,96,109329,1,0
204,144,109479,6,0,B|204:193|220:245,1,100,4|0
384,356,109779,2,0,B|384:307|368:255,1,100,14|0
300,68,110079,2,0,B|300:117|316:169,1,100,4|0
480,280,110379,2,0,B|480:231|464:179,1,100,14|0
376,136,110679,1,4
292,188,110829,5,0
296,208,110904,1,0
300,228,110979,2,0,B|328:352,1,100,14|0
192,172,111279,2,0,B|220:296,2,100,0|0|10
92,164,111729,1,0
64,68,111879,2,0,B|148:16|260:20,1,200,0|10
284,116,112329,2,0,B|264:160|260:216,2,100
384,108,112779,1,10
444,188,112929,5,0
432,204,113004,1,0
420,220,113079,2,0,B|360:300,2,100,4|0|10
324,192,113529,1,0
308,204,113604,1,0
292,216,113679,2,0,B|212:276,2,100,0|0|10
252,124,114129,1,0
152,128,114279,2,0,B|96:204|76:312,1,200,0|10
212,272,114729,2,0,B|268:196|288:88,1,200
152,128,115179,1,10
288,88,115329,5,0
308,92,115404,1,0
328,96,115479,2,0,B|424:116,1,100,4|0
456,212,115779,1,10
360,241,115929,2,0,B|344:289|336:341,2,100
433,308,116379,2,0,B|449:260|457:208,1,100,10|0
376,152,116679,2,0,B|276:116|180:128,1,200,0|10
101,191,117129,1,0
124,288,117279,1,0
205,229,117429,5,0
304,240,117579,2,0,B|328:284|336:336,1,100,10|0
236,320,117879,1,4
406,214,118029,5,4
256,192,118329,12,4,119979
78,314,120279,6,0,B|62:266|58:214,1,100
150,110,120579,2,0,B|166:158|170:210,1,100,10|0
242,242,120879,2,0,B|326:194|438:202,1,200,0|10
470,274,121329,1,0
434,201,121479,6,0,B|445:149|445:101,1,100
352,140,121779,2,0,B|300:129|252:129,1,100,10|0
268,228,122079,1,4
238,244,122154,1,0
204,252,122229,1,8
169,250,122304,1,0
135,241,122379,1,10
37,263,122529,1,0
24,164,122679,6,0,B|56:128|108:108,1,100
116,208,122979,1,10
116,208,123129,1,0
252,176,123279,2,0,B|268:128|268:76,1,100
176,116,123579,1,10
176,116,123729,1,0
192,256,123879,6,0,B|240:276|300:268,1,100
252,176,124179,2,0,B|252:128|268:72,1,100,10|0
339,44,124479,1,4
392,104,124629,2,0,B|400:216|356:324,1,200,0|0
281,188,125079,6,0,B|168:171,1,100
65,249,125379,2,0,B|178:266,1,100,10|0
317,133,125679,2,0,B|204:116,1,100
101,194,125979,2,0,B|214:211,1,100,10|0
297,181,126279,5,0
377,241,126429,2,0,B|377:293|357:349,2,100,0|10|0
280,269,126879,1,4
246,260,126954,1,0
211,256,127029,1,8
176,255,127104,1,0
141,257,127179,1,10
55,308,127329,1,0
50,208,127479,6,0,B|62:160|62:108,1,100
140,88,127779,2,0,B|184:64|240:64,1,100,10|0
300,112,128079,1,0
388,64,128229,1,0
460,160,128379,1,10
348,244,128529,5,0
344,264,128604,1,0
340,284,128679,2,0,B|318:393,2,100,0|0|10
216,216,129129,1,0
80,252,129279,2,0,B|76:354,1,100,4|0
256,192,136929,12,4,139179
81,286,139479,5,0
89,252,139554,1,0
107,222,139629,1,0
136,202,139704,1,0
169,192,139779,2,0,B|220:185,3,50,0|0|0|0
239,213,140079,6,0,B|247:267,3,50
266,290,140379,1,0
296,307,140454,1,0
330,306,140529,1,0
361,291,140604,1,0
395,284,140679,6,0,B|449:300,3,50
460,268,140979,2,0,B|476:215,3,50
457,190,141279,6,0,B|473:150|481:82,1,100
385,126,141579,2,0,B|337:106|285:102,1,100
308,200,141879,5,0
276,214,141954,1,0
241,212,142029,1,0
213,191,142104,1,0
193,162,142179,2,0,B|145:186,3,50
113,188,142479,5,0
78,184,142554,1,0
49,164,142629,1,0
29,135,142704,1,0
20,101,142779,2,0,B|68:77,3,50
98,89,143079,6,0,B|146:65,3,50
176,57,143379,1,0
210,52,143454,1,0
244,49,143529,1,0
278,50,143604,1,0
312,53,143679,2,0,B|360:29,3,50
380,57,143979,6,0,B|372:105|372:157,2,100
464,112,144429,2,0,B|476:212|444:316,2,200
352,196,145179,2,0,B|236:184,1,100
134,109,145479,2,0,B|218:53|326:65,1,200
252,185,145929,1,0
258,204,146004,1,0
264,223,146079,2,0,B|292:320,2,100
56,164,146679,6,0,B|56:264,1,100,4|0
56,264,147129,1,0
184,320,147279,6,0,B|184:220,1,100
184,220,147729,1,0
312,108,147879,6,0,B|312:212,1,100,4|0
312,208,148329,1,0
458,344,148479,6,0,B|458:240,1,100
458,244,148929,1,0
256,192,149079,12,4,150429
128,96,151779,5,4
412,228,152679,2,0,B|352:316|244:340,1,200
256,192,153129,2,0,B|316:104|424:80,2,200
256,192,153879,1,4
384,288,154179,5,4
100,156,155079,2,0,B|160:68|268:44,1,200
256,192,155529,2,0,B|196:280|88:304,2,200
256,192,156279,1,4
304,104,156429,5,0
324,108,156504,1,0
344,112,156579,2,0,B|444:136,2,100,14|0|0
284,192,157029,1,0
364,252,157179,2,0,B|356:308|332:360,1,100,10|0
268,276,157479,2,0,B|164:256|68:276,1,200,0|10
141,347,157929,1,0
216,229,158079,2,0,B|172:121,2,100,0|0|10
325,316,158529,1,0
399,198,158679,5,4
356,108,158829,2,0,B|292:136|277:222|333:275,2,200,2|2|2
399,198,159579,1,10
399,198,159729,1,0
232,132,159879,6,0,B|220:180|224:232,1,100,4|0
316,192,160179,1,10
316,192,160329,1,0
24,124,160479,6,0,B|12:176|16:232,1,100,4|0
164,184,160779,1,10
164,184,160929,1,0
248,296,161079,1,4
384,264,161229,5,0
388,244,161304,1,0
392,224,161379,2,0,B|412:104,1,100,14|0
324,12,161679,2,0,B|304:132,1,100
284,208,161979,2,0,B|196:256|88:244,1,200,10|0
36,160,162429,1,0
124,112,162579,2,0,B|124:60|108:12,2,100,10|0|0
116,212,163029,2,0,B|116:264|132:312,1,100,0|10
256,244,163329,5,0
256,244,163404,1,0
256,244,163479,2,0,B|308:244|356:228,2,100,4|0|10
276,104,163929,1,0
276,104,164004,1,0
276,104,164079,2,0,B|224:104|176:120,2,100,0|0|10
359,159,164529,1,0
336,256,164679,2,0,B|336:308|352:356,1,100
452,344,164979,1,10
452,244,165129,2,0,B|376:172|272:152,1,200
196,268,165579,1,10
68,212,165729,5,0
72,192,165804,1,0
76,172,165879,2,0,B|98:49,1,100,4|0
192,96,166179,2,0,B|280:56|388:64,1,200,10|0
444,192,166629,1,0
320,256,166779,2,0,B|324:308|340:360,1,100,10|0
444,192,167079,2,0,B|352:144|252:136,1,200,0|10
133,210,167529,2,0,B|113:166|113:114,2,100
253,136,167979,5,10
376,204,168129,1,0
256,276,168279,1,4
373,64,168429,5,4
256,192,168729,12,0,170379
92,328,170679,6,0,B|100:276|124:228,1,100
200,296,170979,2,0,B|247:316|301:316,1,100,10|0
396,296,171279,2,0,B|424:200|420:96,1,200,0|10
336,44,171729,1,0
276,124,171879,6,0,B|284:224,1,100
192,264,172179,1,10
128,184,172329,1,0
128,184,172404,1,0
128,184,172479,2,0,B|72:184|24:200,2,100,4|8|10
228,192,172929,5,0
228,192,173004,1,0
228,192,173079,2,0,B|284:192|332:176,2,100,0|0|10
180,104,173529,1,0
252,36,173679,2,0,B|352:32|448:75,1,200,0|10
424,172,174129,1,0
336,220,174279,6,0,B|316:268|308:320,1,100
172,348,174579,2,0,B|192:300|200:248,1,100,10|0
120,192,174879,1,4
112,92,175029,2,0,B|200:52|308:60,1,200,0|0
228,176,175479,6,0,B|232:224|244:276,1,100
336,316,175779,2,0,B|368:276|412:248,1,100,10|0
432,152,176079,2,0,B|352:88|248:64,1,200,0|10
292,200,176529,1,0
284,216,176604,1,0
276,232,176679,2,0,B|232:320,1,100
97,364,176979,2,0,B|141:276,1,100,10|0
85,192,177279,1,4
94,158,177354,1,0
110,127,177429,1,8
137,105,177504,1,0
170,93,177579,1,10
252,36,177729,1,0
312,116,177879,6,0,B|292:160|280:212,1,100
336,340,178179,2,8,B|356:296|368:244,1,100,10|0
280,64,178479,2,0,B|260:108|248:160,1,100
304,288,178779,2,0,B|324:244|336:192,1,100,10|0
276,112,179079,1,0
196,172,179229,2,0,B|144:168|96:144,2,100,0|10|0
168,76,179679,1,4
100,145,179829,2,0,B|68:240|72:344,1,200,0|0
187,261,180279,6,0,B|239:261|291:273,1,100
231,356,180579,1,10
231,356,180729,1,0
368,328,180879,2,0,B|412:237|416:132,1,200,0|10
338,71,181329,5,0
338,71,181404,1,0
338,71,181479,2,0,B|322:119|318:171,1,100
245,237,181779,2,0,B|225:189|225:141,1,100,10|0
145,78,182079,1,4
119,101,182154,1,0
102,131,182229,1,8
93,165,182304,1,0
93,200,182379,1,10
64,296,182529,1,0
152,344,182679,6,0,B|196:324|248:320,1,100
344,352,182979,2,0,B|376:312|388:264,1,100,10|0
295,226,183279,2,0,B|267:130|280:28,1,200,0|10
380,127,183729,1,0
380,127,183804,1,0
380,127,183879,2,0,B|434:129|483:114,2,100,0|0|10
243,93,184329,1,0
125,168,184479,2,0,B|123:222|138:271,1,100,4|0
136,266,184929,5,0
260,332,185079,2,0,B|272:284|268:232,1,100
151,70,185379,2,0,B|139:118|143:170,1,100,10|0
268,232,185679,1,0
368,134,185829,2,0,B|420:134|468:146,2,100,0|10|0
230,162,186279,5,0
116,80,186429,2,0,B|96:124|92:180,1,100,0|10
44,264,186729,1,0
140,292,186879,1,4
169,273,186954,1,0
202,263,187029,1,8
236,258,187104,1,0
270,253,187179,1,10
364,286,187329,1,0
432,212,187479,6,0,B|440:164|436:112,1,100
348,64,187779,1,10
228,136,187929,1,0
368,144,188079,1,0
260,54,188229,1,0
121,72,188379,2,0,B|104:116|100:172,1,100,10|0
172,356,188679,6,0,B|189:312|193:256,1,100
268,140,188979,2,0,B|312:108|368:104,1,100,10|0
436,224,189279,1,4
300,256,189429,2,0,B|288:304|292:356,2,100,0|0|0
300,256,189804,1,0
300,256,189879,1,4
