osu file format v9

[General]
AudioFilename: keisatsu.mp3
AudioLeadIn: 0
PreviewTime: 53240
Countdown: 0
SampleSet: Normal
StackLeniency: 0.7
Mode: 0
LetterboxInBreaks: 1

[Editor]
DistanceSpacing: 1.4
BeatDivisor: 4
GridSize: 4

[Metadata]
Title:Himitsu Keisatsu
Artist:Hatsune Miku
Creator:Lalarun
Version:Hard
Source:BuriruP
Tags:Vocaloid

[Difficulty]
HPDrainRate:5
CircleSize:4
OverallDifficulty:5
ApproachRate:8
SliderMultiplier:1.6
SliderTickRate:1

[Events]
//Background and Video events
0,0,"mikubgg.jpg"
Video,-500,"pv.avi"
//Break Periods
2,81879,90279
//Storyboard Layer 0 (Background)
//Storyboard Layer 1 (Fail)
//Storyboard Layer 2 (Pass)
//Storyboard Layer 3 (Foreground)
//Storyboard Sound Samples
//Background Colour Transformations
3,100,163,162,255

[TimingPoints]
9879,300,4,1,1,70,1,0
53379,-100,4,1,1,70,0,1
72279,-100,4,1,1,70,0,0
101379,-100,4,1,1,70,0,1
120279,-100,4,1,1,70,0,0

[Colours]
Combo1 : 255,255,255
Combo2 : 87,174,0
Combo3 : 0,73,147
Combo4 : 230,234,83

[HitObjects]
256,192,9879,12,0,14379
108,44,14679,6,0,B|76:68|56:112,2,80,4|0|2
144,124,15129,2,0,B|196:144|252:104|308:124,1,160
388,276,15729,1,0
464,232,15879,2,0,B|472:192|472:152,2,80,0|0|10
376,240,16329,1,0
312,180,16479,2,0,B|232:176,1,80,2|10
104,296,16929,6,0,B|68:264,2,40,2|0|0
180,252,17229,1,0
144,332,17379,1,2
56,324,17529,2,0,B|36:244|48:164,1,160
192,64,18129,1,0
236,140,18279,2,0,B|312:116,1,80
400,108,18579,1,10
332,164,18729,2,0,B|312:240|308:324,1,160
308,321,19179,1,10
176,204,19479,6,0,B|144:288,1,80,4|0
68,316,19779,1,2
38,233,19929,2,0,B|46:153|74:77,1,160
152,119,20379,2,0,B|188:103|232:99,1,80
308,140,20679,2,0,B|332:108|344:68,2,80,2|0|8
233,187,21129,1,0
184,260,21279,2,0,B|176:300|176:340,1,80,2|10
348,300,21729,6,0,B|372:332,2,40,2|0|0
420,248,22029,2,0,B|432:168,1,80,0|2
360,116,22329,2,0,B|284:88|204:88,1,160
108,236,22929,1,0
28,200,23079,2,0,B|20:160|24:120,2,80,0|0|10
115,187,23529,2,0,B|191:159|275:163,1,160
312,84,23979,6,0,B|296:40,2,40,10|0|0
384,136,24279,2,0,B|364:212|368:296,1,160,4|0
288,256,24729,2,0,B|204:240|124:252,1,160
64,312,25179,1,2
80,136,25479,2,0,B|68:92|68:48,2,80,0|0|2
244,72,26079,1,0
320,116,26229,2,0,B|396:88|480:92,2,160
408,268,27129,6,0,B|332:296|248:292,1,160
172,252,27579,1,2
84,268,27729,2,0,B|96:352,2,80
104,92,28329,1,0
184,128,28479,2,0,B|196:212,1,80
340,308,28929,6,0,B|368:232|368:148,1,160
420,80,29379,2,0,B|460:56,2,40,2|0|0
332,72,29679,2,0,B|292:64|252:64,1,80
248,152,29979,2,0,B|212:184,2,40,2|0|0
172,107,30279,2,0,B|168:63|172:27,2,80,0|0|2
196,192,30729,1,0
252,260,30879,2,0,B|284:296,2,40
180,312,31179,2,0,B|176:352,2,40,2|0|0
124,244,31479,6,0,B|92:268|64:304,1,80
124,244,31779,2,0,B|84:236|44:240,1,80,2|0
124,244,32079,2,0,B|112:164|120:84,1,160,0|2
292,124,32679,6,0,B|336:116|384:120,1,80
448,164,32979,2,0,B|484:148,2,40,2|0|0
376,216,33279,2,0,B|364:256|360:300,1,80
276,320,33579,2,0,B|284:364,2,40,2|0|0
196,284,33879,1,4
256,192,34029,12,0,35079
204,192,35379,5,10
320,324,35679,1,2
404,300,35829,2,0,B|432:224|432:140,1,160,10|2
344,152,36279,6,0,B|328:188|320:232,2,80,0|0|2
384,73,36729,2,0,B|332:53|276:93|220:73,1,160
140,228,37329,1,0
60,192,37479,2,0,B|48:112,2,80,0|0|10
112,264,37929,2,0,B|188:240|272:248,1,160
316,324,38379,2,0,B|288:360,2,40,10|0|0
360,248,38679,6,0,B|372:208|376:164,1,80,4|0
445,115,38979,1,2
362,85,39129,2,0,B|282:61|202:61,2,160
316,160,39879,2,0,B|300:196|292:236,1,80
212,272,40179,2,0,B|192:196|200:112,1,160,10|2
260,48,40629,1,10
84,64,40929,6,0,B|52:32,2,40,2|0|0
160,108,41229,2,0,B|156:148|144:188,1,80,0|2
60,212,41529,1,0
204,312,41829,2,0,B|168:324|124:324,2,80
290,329,42279,2,0,B|362:297|450:297,1,160,0|10
445,297,42729,1,0
364,140,43029,5,0
420,72,43179,2,0,B|460:60,2,40,10|0|0
332,60,43479,2,0,B|248:44|172:52,1,160,4|2
96,96,43929,1,0
168,256,44229,2,0,B|200:232|240:220,2,80,0|2|0
96,308,44679,2,0,B|64:236|68:152,1,160,0|2
232,88,45279,1,0
308,132,45429,2,0,B|384:104|468:112,2,160
396,284,46329,5,0
240,204,46629,2,0,B|224:240|220:280,2,80,0|2|0
284,128,47079,2,0,B|204:104|124:112,1,160,0|2
100,196,47529,1,0
24,152,47679,2,0,B|20:112|24:72,1,80
196,112,48129,6,0,B|276:96|356:108,1,160,0|0
440,84,48579,2,0,B|420:44,2,40,2|0|0
417,169,48879,2,0,B|409:209|409:253,1,80
480,300,49179,2,0,B|500:264,2,40,2|0|0
398,334,49479,6,0,B|318:310|238:314,1,160,0|2
156,340,49929,1,0
68,332,50079,2,0,B|60:292|60:248,1,80
104,176,50379,2,0,B|64:164,2,40,2|0|0
147,253,50679,6,0,B|183:233|223:225,1,80
277,294,50979,2,0,B|256:336,2,40,2|0|0
364,276,51279,2,0,B|384:200|380:116,1,160,0|2
300,80,51729,1,0
244,148,51879,2,0,B|204:148|160:140,1,80
104,76,52179,2,0,B|68:108,2,40,2|0|0
52,244,52629,6,0,B|128:224,1,80,0|2
132,312,52929,2,0,B|208:292,1,80,0|4
380,332,53379,6,0,B|412:260|412:176,1,160,14|0
480,120,53829,1,0
404,76,53979,2,0,B|332:116,1,80,10|0
252,84,54279,2,0,B|172:68|92:72,1,160,0|10
120,156,54729,2,0,B|104:236|108:316,1,160
188,352,55179,1,10
364,348,55479,1,0
352,172,55779,5,10
396,248,55929,1,0
472,204,56079,2,0,B|456:124|464:44,1,160,0|10
376,36,56529,1,0
308,92,56679,2,0,B|228:76|148:84,1,160,0|10
68,48,57129,2,0,B|28:120,2,80
156,36,57579,1,10
268,172,57879,1,0
196,332,58179,6,0,B|112:316,2,80,10|0|0
264,276,58629,1,0
196,220,58779,2,0,B|192:180|196:140,1,80,10|0
144,68,59079,2,0,B|216:40|304:48,1,160,0|10
388,32,59529,2,0,B|360:104|368:192,1,160
408,268,59979,2,0,B|356:332,1,80,10|0
284,280,60279,1,0
220,340,60429,2,0,B|140:316|60:324,2,160
308,332,61179,5,10
404,184,61479,2,0,B|388:104,1,80,4|0
316,56,61779,2,0,B|236:72,1,80,10|0
212,156,62079,2,0,B|228:236,1,80,4|0
300,284,62379,2,0,B|380:268,1,80,10|0
404,184,62679,1,4
268,72,62979,6,0,B|188:52|108:60,1,160,10|0
36,108,63429,1,0
72,188,63579,2,0,B|68:268,1,80,10|0
144,313,63879,2,0,B|176:241|180:157,1,160,0|10
111,102,64329,2,0,B|143:78|187:70,2,80
128,188,64779,1,10
288,116,65079,1,0
440,204,65379,6,0,B|464:128,2,80,10|0|0
476,284,65829,1,0
400,328,65979,2,0,B|340:272,1,80,10|0
256,296,66279,2,0,B|176:276|96:288,1,160,0|10
124,204,66729,2,0,B|104:124|116:44,1,160
200,20,67179,1,10
296,168,67479,1,0
472,152,67779,6,0,B|444:76,1,80,10|0
356,80,68079,2,0,B|276:60|196:68,1,160,0|10
116,104,68529,1,0
184,160,68679,2,0,B|164:240|172:320,1,160,0|10
88,292,69129,2,0,B|48:216,2,80
172,320,69579,1,10
252,284,69729,1,0
332,248,69879,1,0
428,320,70029,5,0
256,192,70329,12,4,71979
100,224,72279,6,0,B|88:304,2,80,0|0|10
32,168,72729,1,0
115,139,72879,2,0,B|191:115|275:123,1,160,0|10
348,76,73329,2,0,B|332:36,2,40
354,164,73629,2,0,B|348:204|332:240,2,80,0|10|0
428,116,74079,2,0,B|444:80,2,40,4|0|8
436,204,74379,1,10
320,336,74679,6,0,B|276:272|268:184,1,160,0|10
308,108,75129,1,0
228,144,75279,2,0,B|204:176|192:216,1,80
228,296,75579,2,0,B|188:288|148:288,1,80,10|0
84,348,75879,2,0,B|56:276|64:188,1,160,0|10
32,108,76329,1,0
120,104,76479,2,0,B|168:176,1,80,4|0
280,304,76929,6,0,B|264:344,2,40
444,240,77379,2,0,B|456:196|456:160,1,80,10|0
368,156,77679,2,0,B|292:124|212:124,1,160,0|10
136,80,78129,2,0,B|164:52,2,40
68,136,78429,2,0,B|56:96|56:56,2,80,0|10|0
112,212,78879,1,4
120,300,79029,2,0,B|76:336,2,40,8|0|10
236,168,79479,6,0,B|312:148|396:156,1,160,0|10
468,204,79929,1,0
432,124,80079,2,0,B|424:84|424:40,2,80,0|0|10
444,212,80529,1,0
408,292,80679,2,0,B|332:264|252:264,1,160,0|10
168,292,81129,1,0
76,228,81279,1,4
84,116,81429,1,0
384,344,91029,6,0,B|412:268,2,80
312,292,91479,2,0,B|292:212|300:132,1,160,0|2
348,60,91929,1,0
172,76,92229,2,0,B|128:64|84:64,2,80,0|2|0
136,156,92679,2,0,B|148:236|132:316,1,160,0|2
272,208,93279,1,0
316,132,93429,2,0,B|392:104|476:112,2,160
180,244,94329,6,0,B|152:168|160:84,1,160
72,96,94779,2,0,B|64:56|44:20,2,80,2|0|0
160,88,95229,2,0,B|236:68|320:72,1,160
312,160,95679,2,0,B|328:196|332:240,1,80,0|0
192,344,96129,6,0,B|160:276|156:188,1,160
68,196,96579,2,0,B|56:240,2,40,2|0|0
102,114,96879,2,0,B|130:86|170:70,1,80
228,136,97179,2,0,B|268:124|320:124,1,80,2|0
392,100,97479,2,0,B|416:68|428:28,2,80,0|0|2
436,176,97929,2,0,B|496:196,2,40
424,264,98229,6,0,B|416:308,2,40,0|0|2
356,208,98529,2,0,B|312:196|264:200,2,80
328,292,98979,1,2
241,278,99129,2,0,B|160:264|80:280,1,160
52,196,99579,2,0,B|44:156|44:116,1,80,2|0
108,56,99879,2,0,B|72:28,2,40
133,140,100179,2,0,B|173:124|217:120,1,80,2|0
376,60,100629,6,0,B|356:136,1,80
444,140,100929,2,0,B|424:216,1,80
284,324,101379,6,0,B|212:292|128:292,1,160,14|0
48,328,101829,1,0
44,240,101979,2,0,B|116:200,1,80,10|0
188,248,102279,2,0,B|268:264|348:260,1,160,0|10
432,284,102729,2,0,B|448:204|444:124,1,160
380,64,103179,1,10
232,160,103479,1,0
132,304,103779,5,10
52,340,103929,1,0
60,252,104079,2,0,B|76:172|68:92,1,160,0|10
136,36,104529,1,0
180,112,104679,2,0,B|260:96|340:104,1,160,0|10
428,104,105129,2,0,B|456:76|472:36,2,80
352,148,105579,1,10
300,316,105879,1,0
132,264,106179,6,0,B|48:248,2,80,10|0|0
196,324,106629,1,0
240,248,106779,2,0,B|244:208|240:168,1,80,10|0
252,80,107079,2,0,B|180:108|92:100,1,160,0|10
104,188,107529,2,0,B|76:260|84:348,1,160
172,336,107979,2,0,B|224:272,1,80,10|0
308,296,108279,1,0
285,211,108429,2,0,B|261:131|269:51,2,160
356,264,109179,5,10
236,136,109479,2,0,B|220:216,1,80,4|0
148,264,109779,2,0,B|68:248,1,80,10|0
44,164,110079,2,0,B|60:84,1,80,4|0
132,36,110379,2,0,B|212:52,1,80,10|0
236,136,110679,1,4
244,312,110979,6,0,B|324:332|404:324,1,160,10|0
476,276,111429,1,0
440,196,111579,2,0,B|444:116,1,80,10|0
368,71,111879,2,0,B|336:143|332:227,1,160,0|10
401,282,112329,2,0,B|369:306|325:314,2,80
384,196,112779,1,10
224,268,113079,1,0
72,180,113379,6,0,B|48:256,2,80,10|0|0
36,100,113829,1,0
112,56,113979,2,0,B|172:112,1,80,10|0
256,88,114279,2,0,B|336:108|416:96,1,160,0|10
388,180,114729,2,0,B|408:260|396:340,1,160
312,364,115179,1,10
216,216,115479,1,0
40,232,115779,6,0,B|68:308,1,80,10|0
156,304,116079,2,0,B|236:324|316:316,1,160,0|10
396,280,116529,1,0
328,224,116679,2,0,B|348:144|340:64,1,160,0|10
424,92,117129,2,0,B|464:168,2,80
340,64,117579,1,10
260,100,117729,1,0
180,136,117879,1,0
84,64,118029,5,0
256,192,118329,12,4,119979
412,144,120279,6,0,B|424:64,2,80,0|0|10
336,188,120729,1,0
292,112,120879,2,0,B|216:136|132:128,1,160,0|10
60,80,121329,2,0,B|76:40,2,40
48,168,121629,2,0,B|54:208|70:244,2,80,0|10|0
132,140,122079,2,0,B|148:96,2,40,4|0|8
160,224,122379,1,10
312,312,122679,6,0,B|356:248|364:160,1,160,0|10
436,112,123129,1,0
356,76,123279,2,0,B|316:68|276:68,1,80
196,32,123579,2,0,B|188:72|188:112,1,80,10|0
196,200,123879,2,0,B|124:172|36:180,1,160,0|10
40,268,124329,1,0
116,312,124479,2,0,B|208:288,1,80,4|0
368,312,124929,6,0,B|384:352,2,40
444,152,125379,2,0,B|456:108|456:72,1,80,10|0
368,80,125679,2,0,B|292:48|212:48,1,160,0|10
124,48,126129,2,0,B|96:76,2,40
168,124,126429,2,0,B|180:164|180:204,2,80,0|10|0
80,116,126879,1,4
72,204,127029,2,0,B|28:240,2,40,8|0|10
196,328,127479,6,0,B|272:308|356:316,1,160,0|10
400,240,127929,1,0
480,276,128079,2,0,B|488:316|488:360,2,80,0|0|10
424,208,128529,1,0
344,244,128679,2,0,B|268:216|188:216,1,160,0|10
116,164,129129,1,0
180,72,129279,1,4
292,80,129429,1,0
