osu file format v9

[General]
AudioFilename: keisatsu.mp3
AudioLeadIn: 0
PreviewTime: 53240
Countdown: 0
SampleSet: Normal
StackLeniency: 0.7
Mode: 0
LetterboxInBreaks: 1

[Editor]
DistanceSpacing: 1
BeatDivisor: 4
GridSize: 4

[Metadata]
Title:Himitsu Keisatsu
Artist:Hatsune Miku
Creator:Lalarun
Version:Easy
Source:BuriruP
Tags:Vocaloid

[Difficulty]
HPDrainRate:2
CircleSize:3
OverallDifficulty:1
ApproachRate:3
SliderMultiplier:1
SliderTickRate:1

[Events]
//Background and Video events
0,0,"mikubgg.jpg"
Video,-500,"pv.avi"
//Break Periods
2,34079,41739
2,82079,89589
//Storyboard Layer 0 (Background)
//Storyboard Layer 1 (Fail)
//Storyboard Layer 2 (Pass)
//Storyboard Layer 3 (Foreground)
//Storyboard Sound Samples
//Background Colour Transformations
3,100,163,162,255

[TimingPoints]
9879,300,4,1,1,70,1,0
14604,-200,4,1,1,70,0,0
53379,-200,4,1,1,70,0,1
72279,-200,4,1,1,70,0,0
101379,-200,4,1,1,70,0,1
120279,-200,4,1,1,70,0,0

[Colours]
Combo1 : 255,255,255
Combo2 : 87,174,0
Combo3 : 0,73,147
Combo4 : 230,234,83

[HitObjects]
48,128,14679,2,0,B|100:124|148:128,1,100,4|2
196,216,15879,2,0,B|168:260,2,50,0|10|10
284,168,17079,1,0
344,248,17679,1,2
424,188,18279,2,0,B|472:168,2,50,0|10|10
376,100,19479,6,0,B|336:72|284:56,1,100,4|2
188,76,20679,1,0
164,120,20979,1,10
120,144,21279,1,10
112,244,21879,2,0,B|72:272,2,50,0|0|2
204,280,23079,1,0
248,256,23379,2,0,B|344:300,1,100,10|2
388,288,24279,1,4
468,228,24879,6,0,B|480:176|480:128,1,100
404,64,26079,2,0,B|392:116|392:164,1,100
316,228,27279,2,0,B|244:204|168:204,1,150,0|2
129,235,28479,1,0
68,156,29079,6,0,B|24:176,2,50,0|2|0
128,76,30279,2,0,B|80:44,2,50,0|2|0
189,155,31479,1,0
236,138,31779,1,2
273,104,32079,1,0
369,76,32679,1,0
400,115,32979,1,2
409,164,33279,2,0,B|408:220,2,50,0|0|4
88,184,43179,6,0,B|108:140,1,50,0|4
204,108,44079,2,0,B|216:152|220:208,1,100
256,300,45279,2,0,B|296:272|348:260,1,100
440,296,46479,2,0,B|428:348,2,50
423,197,47679,1,0
400,100,48279,6,0,B|412:48,2,50,0|2|0
300,100,49479,1,0
254,80,49779,1,2
204,80,50079,1,0
232,176,50679,2,0,B|272:208,2,50,0|2|0
134,153,51879,2,0,B|106:217|98:298,1,150,0|2
195,321,53379,6,0,B|247:305|299:309,2,100,10|10|10
136,240,55179,1,10
112,196,55479,1,0
88,152,55779,2,0,B|176:104,1,100,10|10
276,96,56979,2,0,B|288:48,2,50,10|0|10
336,176,58179,6,0,B|388:184|436:176,2,100,10|10|10
248,128,59979,1,10
152,100,60579,1,10
108,124,60879,1,0
84,168,61179,1,10
92,268,61779,2,0,B|52:296,2,50,14|0|14
224,316,62979,6,0,B|248:268|256:212,2,100,14|10|10
144,256,64779,1,10
133,207,65079,1,0
137,157,65379,1,10
68,84,65979,1,10
165,61,66579,2,0,B|213:53|265:57,1,100,10|10
364,72,67779,6,0,B|412:40,2,50,10|0|10
304,152,68979,2,0,B|296:200|304:256,1,100,10|10
256,192,69879,12,0,72279
212,164,72879,5,0
308,192,73479,1,0
404,164,74079,1,4
464,244,74679,5,0
360,304,75279,1,0
256,244,75879,1,0
152,304,76479,1,4
40,220,77079,5,0
160,148,77679,1,0
280,220,78279,1,0
400,148,78879,1,4
264,64,79479,5,0
136,160,80079,1,0
264,256,80679,1,0
392,160,81279,1,4
264,160,81879,5,4
156,268,91029,6,0,B|232:236,1,75
304,300,92079,2,0,B|356:312|404:312,1,100
412,212,93279,2,0,B|424:160|424:112,1,100
324,104,94479,2,0,B|252:80|176:80,1,150,0|2
128,92,95679,1,0
80,180,96279,6,0,B|36:200,2,50,0|2|0
160,240,97479,2,0,B|153:288,2,50,0|2|0
200,148,98679,1,0
244,124,98979,1,2
293,114,99279,1,0
388,144,99879,2,0,B|416:216|416:296,1,150
316,280,101379,6,0,B|264:296|212:292,2,100,10|10|10
308,180,103179,1,10
264,156,103479,1,0
220,132,103779,2,0,B|132:180,1,100,10|10
124,280,104979,2,0,B|112:328,2,50,10|0|10
44,220,106179,6,0,B|52:168|44:120,2,100,10|10|10
124,280,107979,1,10
204,220,108579,1,10
248,196,108879,1,0
298,196,109179,1,10
396,216,109779,2,0,B|436:188,2,50,14|0|14
368,120,110979,6,0,B|392:72|400:16,2,100,14|10|10
272,92,112779,1,10
223,82,113079,1,0
173,87,113379,1,10
80,49,113979,1,10
80,149,114579,2,0,B|72:197|76:249,1,100,10|10
156,308,115779,6,0,B|122:348,2,50,10|0|10
204,220,116979,2,0,B|212:172|204:116,1,100,10|10
256,192,117879,12,0,120279
300,220,120879,5,0
204,192,121479,1,0
108,220,122079,1,4
48,140,122679,5,0
152,80,123279,1,0
256,140,123879,1,0
360,80,124479,1,4
472,164,125079,5,0
352,236,125679,1,0
232,164,126279,1,0
112,236,126879,1,4
248,320,127479,5,0
376,224,128079,1,0
248,128,128679,1,0
120,224,129279,1,4
248,224,129879,5,4
