osu file format v14

[General]
AudioFilename: High risk lol.mp3
AudioLeadIn: 0
PreviewTime: 70961
Countdown: 0
SampleSet: None
StackLeniency: 0.7
Mode: 0
LetterboxInBreaks: 1
WidescreenStoryboard: 0

[Editor]
DistanceSpacing: 1.2
BeatDivisor: 4
GridSize: 4
TimelineZoom: 1

[Metadata]
Title:High risk Lolita(short Ver.)
TitleUnicode:High risk Lolita(short Ver.)
Artist:Hatsune Miku
ArtistUnicode:Hatsune Miku
Creator:osuyo
Version:Normal
Source:vocaloid
Tags:Tom
BeatmapID:2140917
BeatmapSetID:1023419

[Difficulty]
HPDrainRate:4
CircleSize:3
OverallDifficulty:4
ApproachRate:5
SliderMultiplier:0.8
SliderTickRate:1

[Events]
//Background and Video events
0,0,"bg.jpg",0,0
//Break Periods
2,92686,96386
//Storyboard Layer 0 (Background)
//Storyboard Layer 1 (Fail)
//Storyboard Layer 2 (Pass)
//Storyboard Layer 3 (Foreground)
//Storyboard Layer 4 (Overlay)
//Storyboard Sound Samples

[TimingPoints]
1286,300,4,1,0,50,1,0
73289,-100,4,1,0,50,0,1
92491,-100,4,1,0,50,0,0
135675,300,4,1,0,50,1,1
154877,-100,4,1,0,50,0,0

[Colours]
Combo1 : 255,163,23
Combo2 : 7,250,7
Combo3 : 0,128,255
Combo4 : 255,36,36

[HitObjects]
100,108,35186,6,0,B|132:76|180:68,2,80,8|0|8,0:0|0:0|0:0,0:0:0:0:
72,148,35936,2,0,B|72:280,1,120,0|8,0:0|0:0,0:0:0:0:
148,324,36686,6,0,B|185:318|217:286,1,80,0|8,0:0|0:0,0:0:0:0:
256,256,37136,2,0,B|256:132,1,120,0|8,0:0|0:0,0:0:0:0:
320,64,37886,6,0,B|357:69|389:101,1,80,0|8,0:0|0:0,0:0:0:0:
428,132,38336,2,0,B|448:180|404:224|432:300,2,160,0|0|4,0:0|0:0|0:0,0:0:0:0:
328,236,39986,6,0,B|328:344,2,80,8|0|8,0:0|0:0|0:0,0:0:0:0:
328,188,40736,2,0,B|268:188|196:248,1,120,0|8,0:0|0:0,0:0:0:0:
128,264,41486,6,0,B|128:172,1,80,0|8,0:0|0:0,0:0:0:0:
128,136,41936,2,0,B|188:136|260:76,1,120,0|8,0:0|0:0,0:0:0:0:
324,52,42686,6,0,B|412:52,1,80,0|8,0:0|0:0,0:0:0:0:
452,52,43136,2,0,B|472:100|428:144|456:220,2,160,0|0|4,0:0|0:0|0:0,0:0:0:0:
344,148,44786,5,8,0:0:0:0:
340,244,45086,2,0,B|304:233|268:209,1,80,0|8,0:0|0:0,0:0:0:0:
224,188,45536,2,0,B|224:72,1,80
224,60,45986,1,8,0:0:0:0:
128,60,46286,6,0,B|24:60,2,80,0|8|0,0:0|0:0|0:0,0:0:0:0:
128,156,47186,1,8,0:0:0:0:
128,252,47486,6,0,B|164:276|204:288,1,80,0|8,0:0|0:0,0:0:0:0:
248,292,47936,2,0,B|248:192,1,80
248,164,48386,2,0,B|288:140|324:164,2,80,8|0|8,0:0|0:0|0:0,0:0:0:0:
76,244,49586,6,0,B|36:268|0:244,2,80,8|0|8,0:0|0:0|0:0,0:0:0:0:
112,212,50336,2,0,B|112:164|112:164|104:124|104:124|116:84,2,120,0|8|0,0:0|0:0|0:0,0:0:0:0:
148,244,51386,2,0,B|188:268|224:244,2,80,8|0|8,0:0|0:0|0:0,0:0:0:0:
192,156,52286,6,0,B|232:132|268:156,1,80,0|8,0:0|0:0,0:0:0:0:
304,184,52736,2,0,B|304:232|304:232|312:272|312:272|300:312,2,120,0|8|0,0:0|0:0|0:0,0:0:0:0:
344,156,53786,1,8,0:0:0:0:
393,73,54086,6,0,B|325:-3|257:73,3,160,4|0|0|0,0:0|0:0|0:0|0:0,0:0:0:0:
228,164,56186,1,8,0:0:0:0:
176,84,56486,6,0,B|152:48|104:28,1,80,0|4,0:0|0:0,0:0:0:0:
104,128,57086,2,0,B|61:119|13:139,1,80,0|4,0:0|0:0,0:0:0:0:
84,212,57686,2,0,B|47:236|27:284,1,80,0|4,0:0|0:0,0:0:0:0:
128,284,58286,2,0,B|119:326|139:374,1,80,0|4,0:0|0:0,0:0:0:0:
211,304,58886,6,0,B|259:384|359:376,3,160
440,368,60986,1,8,0:0:0:0:
440,272,61286,6,0,B|440:164,1,80,0|4,0:0|0:0,0:0:0:0:
440,96,61886,2,0,B|360:96,1,80,0|4,0:0|0:0,0:0:0:0:
264,96,62486,2,0,B|264:200,1,80,0|4,0:0|0:0,0:0:0:0:
264,272,63086,2,0,B|172:272,1,80,0|4,0:0|0:0,0:0:0:0:
88,272,63686,6,0,B|88:192|88:192|168:192,3,160
264,192,65786,1,8,0:0:0:0:
264,96,66086,6,0,B|344:48,1,80,0|4,0:0|0:0,0:0:0:0:
348,148,66686,2,0,B|415:212,1,80,0|4,0:0|0:0,0:0:0:0:
332,264,67286,2,0,B|286:345,1,80,0|4,0:0|0:0,0:0:0:0:
216,276,67886,2,0,B|125:253,1,80,0|4,0:0|0:0,0:0:0:0:
48,220,68486,6,0,B|84:148|172:80,3,160
236,52,70586,1,8,0:0:0:0:
296,128,70886,6,0,B|408:128,1,80,2|0,0:0|0:0,0:0:0:0:
424,212,71486,2,0,B|316:212,1,80,2|0,0:0|0:0,0:0:0:0:
296,296,72086,2,0,B|320:336|368:360,2,80,2|2|2,0:0|0:0|0:0,0:0:0:0:
256,208,72986,1,0,0:0:0:0:
216,296,73286,6,0,B|192:336|144:360,1,80,6|2,0:0|0:0,0:0:0:0:
84,296,73886,1,2,0:0:0:0:
148,224,74186,2,0,B|168:176|124:132|152:56,2,160,2|2|6,0:0|0:0|0:0,0:0:0:0:
244,224,75686,5,2,0:0:0:0:
340,224,75986,2,0,B|340:120,1,80,2|2,0:0|0:0,0:0:0:0:
340,48,76586,2,0,B|412:48|412:136|488:136,2,160,2|2|2,0:0|0:0|0:0,0:0:0:0:
244,48,78086,6,0,B|160:48,2,80,0|4|4,0:0|0:0|0:0,0:0:0:0:
244,144,78986,1,2,0:0:0:0:
244,240,79286,6,0,B|340:240,2,80,0|4|4,0:0|0:0|0:0,0:0:0:0:
244,336,80186,1,2,0:0:0:0:
148,336,80486,6,0,B|148:228,1,80,2|2,0:0|0:0,0:0:0:0:
148,160,81086,1,2,0:0:0:0:
148,64,81386,2,0,B|76:64|76:152|0:152,2,160,2|2|2,0:0|0:0|0:0,0:0:0:0:
244,64,82886,5,2,0:0:0:0:
244,160,83186,1,2,0:0:0:0:
340,160,83486,1,2,0:0:0:0:
340,256,83786,2,0,B|423:255|423:255|424:344,2,160,2|2|2,0:0|0:0|0:0,0:0:0:0:
244,256,85286,5,2,0:0:0:0:
244,160,85586,1,2,0:0:0:0:
148,160,85886,1,2,0:0:0:0:
148,64,86186,2,0,B|64:63|64:63|64:152,2,160,2|2|2,0:0|0:0|0:0,0:0:0:0:
244,64,87686,5,0,0:0:0:0:
311,131,87986,1,4,0:0:0:0:
378,63,88286,1,4,0:0:0:0:
242,198,88886,5,0,0:0:0:0:
174,266,89186,1,4,0:0:0:0:
241,334,89486,1,4,0:0:0:0:
105,198,90086,5,2,0:0:0:0:
176,132,90386,2,0,B|284:132,1,80,2|2,0:0|0:0,0:0:0:0:
352,132,90986,2,0,B|428:200|352:268,2,160,2|2|2,0:0|0:0|0:0,0:0:0:0:
276,76,92486,1,2,0:0:0:0:
111,159,97586,6,0,B|79:127|71:79,2,80,8|0|8,0:0|0:0|0:0,0:0:0:0:
151,187,98336,2,0,B|250:89,1,120,0|8,0:0|0:0,0:0:0:0:
316,50,99086,6,0,B|353:55|385:87,1,80,0|8,0:0|0:0,0:0:0:0:
413,128,99536,2,0,B|328:213,1,120,0|8,0:0|0:0,0:0:0:0:
258,278,100286,6,0,B|221:273|189:241,1,80,0|8,0:0|0:0,0:0:0:0:
150,210,100736,2,0,B|130:162|174:118|146:42,2,160,0|0|4,0:0|0:0|0:0,0:0:0:0:
150,354,102386,5,8,0:0:0:0:
232,304,102686,2,0,B|232:376|328:384,2,120,0|0|8,0:0|0:0|0:0,0:0:0:0:
232,208,103886,6,0,B|232:96,1,80,0|8,0:0|0:0,0:0:0:0:
236,80,104336,2,0,B|316:80|352:144,1,120,0|8,0:0|0:0,0:0:0:0:
396,208,105086,6,0,B|396:312,1,80,0|8,0:0|0:0,0:0:0:0:
376,332,105536,2,0,B|336:356|300:332,1,80,0|8,0:0|0:0,0:0:0:0:
228,268,106136,2,0,B|188:244|152:268,1,80,8|8,0:0|0:0,0:0:0:0:
80,332,106736,1,4,0:0:0:0:
80,188,107186,5,8,0:0:0:0:
84,92,107486,2,0,B|120:103|156:127,1,80,0|8,0:0|0:0,0:0:0:0:
200,148,107936,2,0,B|200:264,1,80
200,276,108386,1,8,0:0:0:0:
296,276,108686,6,0,B|400:276,2,80,0|8|0,0:0|0:0|0:0,0:0:0:0:
296,180,109586,1,8,0:0:0:0:
292,84,109886,6,0,B|328:60|368:48,1,80,0|8,0:0|0:0,0:0:0:0:
412,44,110336,2,0,B|412:144,1,80
412,172,110786,2,0,B|452:196|488:172,2,80,8|0|8,0:0|0:0|0:0,0:0:0:0:
220,172,111986,6,0,B|180:196|144:172,2,80,8|0|8,0:0|0:0|0:0,0:0:0:0:
256,140,112736,2,0,B|256:92|256:92|248:52|248:52|260:12,2,120,0|8|0,0:0|0:0|0:0,0:0:0:0:
292,172,113786,2,0,B|332:196|368:172,2,80,8|0|8,0:0|0:0|0:0,0:0:0:0:
204,132,114686,6,0,B|164:108|128:132,1,80,0|8,0:0|0:0,0:0:0:0:
92,160,115136,2,0,B|92:208|92:208|84:248|84:248|96:288,2,120,0|8|0,0:0|0:0|0:0,0:0:0:0:
92,112,116186,1,8,0:0:0:0:
168,52,116486,6,0,B|220:28|220:28|256:52|256:52|256:116,3,160,4|0|0|0,0:0|0:0|0:0|0:0,0:0:0:0:
256,192,118586,1,8,0:0:0:0:
324,260,118886,6,0,B|348:296|396:316,1,80,0|4,0:0|0:0,0:0:0:0:
452,244,119486,2,0,B|428:208|380:188,1,80,0|4,0:0|0:0,0:0:0:0:
324,128,120086,6,0,B|348:92|396:72,1,80,0|4,0:0|0:0,0:0:0:0:
452,144,120686,2,0,B|428:180|380:200,1,80,0|4,0:0|0:0,0:0:0:0:
324,260,121286,6,0,B|256:336|188:260,3,160,4|0|0|0,0:0|0:0|0:0|0:0,0:0:0:0:
256,192,123386,1,8,0:0:0:0:
188,128,123686,6,0,B|164:92|127:77,1,80,0|4,0:0|0:0,0:0:0:0:
60,144,124286,2,0,B|84:180|120:194,1,80,0|4,0:0|0:0,0:0:0:0:
188,260,124886,6,0,B|164:296|127:310,1,80
60,244,125486,2,0,B|84:208|120:193,1,80,0|4,0:0|0:0,0:0:0:0:
188,124,126086,6,0,B|256:48|324:124,3,160,4|0|0|0,0:0|0:0|0:0|0:0,0:0:0:0:
256,192,128186,1,8,0:0:0:0:
324,260,128486,6,0,B|360:284|380:332,1,80,0|4,0:0|0:0,0:0:0:0:
308,388,129086,2,0,B|272:364|252:316,1,80,0|4,0:0|0:0,0:0:0:0:
192,260,129686,6,0,B|156:284|136:332,1,80,0|4,0:0|0:0,0:0:0:0:
208,388,130286,2,0,B|244:364|264:316,1,80,0|4,0:0|0:0,0:0:0:0:
304,244,130886,6,0,B|328:192|328:192|304:156|304:156|240:156,3,160,4|0|0|0,0:0|0:0|0:0|0:0,0:0:0:0:
188,80,132986,1,8,0:0:0:0:
128,156,133286,6,0,B|72:232,1,80,2|0,0:0|0:0,0:0:0:0:
112,312,133886,2,0,B|159:247,1,80,2|0,0:0|0:0,0:0:0:0:
220,172,134486,2,0,B|256:142|291:172,2,80,2|2|2,0:0|0:0|0:0,0:0:0:0:
160,248,135386,1,0,0:0:0:0:
220,316,135675,6,0,B|256:346|291:316,1,80,2|2,0:0|0:0,0:0:0:0:
364,252,136275,1,2,0:0:0:0:
292,188,136575,2,0,B|272:140|316:96|288:20,2,160,2|2|6,0:0|0:0|0:0,0:0:0:0:
292,284,138075,5,2,0:0:0:0:
196,284,138375,2,0,B|196:180,1,80,2|2,0:0|0:0,0:0:0:0:
196,108,138975,2,0,B|124:108|124:196|48:196,2,160,2|2|2,0:0|0:0|0:0,0:0:0:0:
292,112,140475,6,0,B|328:82|363:112,2,80,0|4|4,0:0|0:0|0:0,0:0:0:0:
256,200,141375,1,2,0:0:0:0:
220,112,141675,6,0,B|184:82|149:112,2,80,0|4|4,0:0|0:0|0:0,0:0:0:0:
256,200,142575,1,2,0:0:0:0:
256,296,142875,6,0,B|256:376,1,80,2|2,0:0|0:0,0:0:0:0:
352,376,143475,1,2,0:0:0:0:
352,280,143775,2,0,B|424:280|424:368|500:368,2,160,2|2|2,0:0|0:0|0:0,0:0:0:0:
256,280,145275,5,2,0:0:0:0:
256,184,145575,1,2,0:0:0:0:
160,184,145875,1,2,0:0:0:0:
160,88,146175,2,0,B|77:87|77:87|76:176,2,160,2|2|2,0:0|0:0|0:0,0:0:0:0:
256,88,147675,5,2,0:0:0:0:
256,184,147975,1,2,0:0:0:0:
352,184,148275,1,2,0:0:0:0:
352,280,148575,2,0,B|436:281|436:281|436:192,2,160,2|2|2,0:0|0:0|0:0,0:0:0:0:
256,280,150075,5,0,0:0:0:0:
188,212,150375,1,4,0:0:0:0:
120,280,150675,1,4,0:0:0:0:
52,212,150975,6,0,B|52:116,1,80
120,64,151575,1,4,0:0:0:0:
188,132,151875,2,0,B|188:228,1,80,4|0,0:0|0:0,0:0:0:0:
256,280,152475,5,2,0:0:0:0:
324,212,152775,2,0,B|324:120,1,80,2|2,0:0|0:0,0:0:0:0:
256,64,153375,2,0,B|324:-12|392:64,2,160,2|2|2,0:0|0:0|0:0,0:0:0:0:
256,160,154875,1,2,0:0:0:0:
