osu file format v14

[General]
AudioFilename: High risk lol.mp3
AudioLeadIn: 0
PreviewTime: 70961
Countdown: 0
SampleSet: None
StackLeniency: 0.7
Mode: 0
LetterboxInBreaks: 1
WidescreenStoryboard: 0

[Editor]
DistanceSpacing: 1
BeatDivisor: 4
GridSize: 4
TimelineZoom: 1

[Metadata]
Title:High risk Lolita(short Ver.)
TitleUnicode:High risk Lolita(short Ver.)
Artist:Hatsune Miku
ArtistUnicode:Hatsune Miku
Creator:osuyo
Version:Insane
Source:vocaloid
Tags:Tom
BeatmapID:2140916
BeatmapSetID:1023419

[Difficulty]
HPDrainRate:3
CircleSize:4
OverallDifficulty:8
ApproachRate:9
SliderMultiplier:2.2
SliderTickRate:1

[Events]
//Background and Video events
0,0,"bg.jpg",0,0
//Break Periods
2,92686,96986
//Storyboard Layer 0 (Background)
//Storyboard Layer 1 (Fail)
//Storyboard Layer 2 (Pass)
//Storyboard Layer 3 (Foreground)
//Storyboard Layer 4 (Overlay)
//Storyboard Sound Samples

[TimingPoints]
1286,300,4,1,0,50,1,0
73289,-100,4,1,0,50,0,1
92491,-100,4,1,0,50,0,0
135675,300,4,1,0,50,1,1
154877,-100,4,1,0,50,0,0

[Colours]
Combo1 : 255,163,23
Combo2 : 7,250,7
Combo3 : 0,128,255
Combo4 : 255,36,36

[HitObjects]
44,208,35186,5,8,0:0:0:0:
224,80,35486,2,0,B|264:140|344:184,1,110
408,128,35786,1,8,0:0:0:0:
424,236,35936,2,0,B|296:320|188:324,1,220
63,278,36386,2,0,B|108:226|196:192,1,110,8|0,0:0|0:0,0:0:0:0:
303,150,36686,6,0,B|258:98|170:64,1,110,0|0,0:0|0:0,0:0:0:0:
108,58,36986,1,8,0:0:0:0:
57,155,37136,2,0,B|141:237|285:272,1,220
404,309,37586,2,0,B|360:356|272:365,1,110,8|0,0:0|0:0,0:0:0:0:
197,365,37886,5,0,0:0:0:0:
103,307,38036,1,0,0:0:0:0:
45,213,38186,1,8,0:0:0:0:
21,105,38336,2,0,B|80:23|146:20,1,110
219,146,38636,2,0,B|264:94|352:60,1,110,0|8,0:0|0:0,0:0:0:0:
433,185,38936,6,0,B|382:298|245:304,1,220,0|0,0:0|0:0,0:0:0:0:
149,302,39386,1,8,0:0:0:0:
152,192,39536,2,0,B|203:79|336:51,1,220,0|0,0:0|0:0,0:0:0:0:
424,40,39986,5,8,0:0:0:0:
256,324,40286,1,0,0:0:0:0:
220,220,40436,1,0,0:0:0:0:
320,172,40586,1,8,0:0:0:0:
256,84,40736,2,0,B|148:116|92:224,1,220
0,164,41186,2,0,B|52:172|92:220,1,110,8|0,0:0|0:0,0:0:0:0:
164,304,41486,5,0,0:0:0:0:
256,248,41636,1,0,0:0:0:0:
182,166,41786,1,8,0:0:0:0:
256,84,41936,2,0,B|364:116|420:224,1,220
512,164,42386,2,0,B|460:172|420:220,1,110,8|0,0:0|0:0,0:0:0:0:
344,300,42686,5,0,0:0:0:0:
240,260,42836,1,0,0:0:0:0:
276,156,42986,1,8,0:0:0:0:
180,100,43136,2,0,B|108:124|108:232,1,110,0|0,0:0|0:0,0:0:0:0:
112,344,43436,2,0,B|184:320|184:212,1,110,0|8,0:0|0:0,0:0:0:0:
332,100,43736,6,0,B|404:124|404:232,1,110,0|0,0:0|0:0,0:0:0:0:
400,344,44036,2,0,B|328:320|328:212,1,110,0|8,0:0|0:0,0:0:0:0:
256,344,44336,1,4,0:0:0:0:
92,56,44786,5,8,0:0:0:0:
420,56,45086,1,0,0:0:0:0:
332,196,45236,1,0,0:0:0:0:
184,124,45386,1,8,0:0:0:0:
256,272,45536,1,0,0:0:0:0:
332,124,45686,1,0,0:0:0:0:
184,196,45836,1,0,0:0:0:0:
332,272,45986,5,8,0:0:0:0:
256,124,46136,1,0,0:0:0:0:
184,272,46286,1,0,0:0:0:0:
332,200,46436,1,0,0:0:0:0:
184,124,46586,1,8,0:0:0:0:
256,272,46736,1,0,0:0:0:0:
332,124,46886,6,0,B|422:129|454:201,1,110
180,260,47186,2,0,B|90:255|58:183,1,110,8|0,0:0|0:0,0:0:0:0:
36,120,47486,1,0,0:0:0:0:
123,53,47636,1,0,0:0:0:0:
229,25,47786,1,8,0:0:0:0:
333,59,47936,6,0,B|317:211|169:243,1,220
136,152,48386,1,8,0:0:0:0:
216,76,48536,2,0,B|316:87|346:238,1,220
292,332,48986,1,8,0:0:0:0:
208,260,49136,2,0,B|282:125|426:148,1,220,4|0,0:0|0:0,0:0:0:0:
462,220,49586,5,8,0:0:0:0:
396,308,49736,2,0,B|339:369|268:380,1,110
236,284,50036,1,0,0:0:0:0:
176,376,50186,1,8,0:0:0:0:
116,284,50336,2,0,B|76:232|24:228,1,110,0|0,0:0|0:0,0:0:0:0:
180,168,50636,2,0,B|171:102|128:73,1,110,0|8,0:0|0:0,0:0:0:0:
396,284,50936,6,0,B|436:232|488:228,1,110,0|0,0:0|0:0,0:0:0:0:
332,168,51236,2,0,B|340:102|383:73,1,110,0|8,0:0|0:0,0:0:0:0:
256,36,51536,2,0,B|256:256,1,220,0|0,0:0|0:0,0:0:0:0:
184,340,51986,5,8,0:0:0:0:
332,264,52136,1,0,0:0:0:0:
184,192,52286,1,0,0:0:0:0:
256,340,52436,1,0,0:0:0:0:
332,192,52586,1,8,0:0:0:0:
180,264,52736,6,0,B|128:264|80:200|136:132|136:132|180:108,1,220
256,184,53186,1,8,0:0:0:0:
337,110,53336,2,0,B|376:132|376:132|432:200|384:264|332:264,1,220
256,184,53786,1,8,0:0:0:0:
76,312,54086,5,4,0:0:0:0:
384,192,54386,1,8,0:0:0:0:
76,72,54686,5,0,0:0:0:0:
168,208,54836,1,0,0:0:0:0:
256,68,54986,1,8,0:0:0:0:
112,148,55136,2,0,B|192:120|264:140,1,110,0|0,0:0|0:0,0:0:0:0:
372,64,55436,2,0,B|304:112|272:180,1,110,0|8,0:0|0:0,0:0:0:0:
384,280,55736,2,0,B|308:244|260:188,1,110,0|0,0:0|0:0,0:0:0:0:
168,112,56036,1,0,0:0:0:0:
144,276,56186,2,0,B|196:208|272:180,1,110,8|0,0:0|0:0,0:0:0:0:
324,148,56486,5,0,0:0:0:0:
324,148,56561,1,0,0:0:0:0:
324,148,56636,1,0,0:0:0:0:
324,148,56711,1,0,0:0:0:0:
324,148,56786,2,0,B|296:96|256:64,1,110,4|0,0:0|0:0,0:0:0:0:
188,148,57086,5,0,0:0:0:0:
188,148,57161,1,0,0:0:0:0:
188,148,57236,1,0,0:0:0:0:
188,148,57311,1,0,0:0:0:0:
188,148,57386,2,0,B|208:88|256:64,1,110,4|0,0:0|0:0,0:0:0:0:
364,188,57686,6,0,B|344:248|296:272,1,110,0|0,0:0|0:0,0:0:0:0:
256,232,57911,1,0,0:0:0:0:
216,272,57986,2,0,B|168:248|148:188,1,110,4|0,0:0|0:0,0:0:0:0:
120,84,58286,5,0,0:0:0:0:
156,44,58361,1,0,0:0:0:0:
208,24,58436,1,0,0:0:0:0:
256,52,58511,1,0,0:0:0:0:
304,24,58586,1,4,0:0:0:0:
356,44,58661,1,0,0:0:0:0:
392,84,58736,1,0,0:0:0:0:
448,180,58886,6,0,B|380:224|308:232,1,110
440,364,59186,2,0,B|382:306|355:239,1,110,8|0,0:0|0:0,0:0:0:0:
138,276,59486,2,0,B|129:306|72:364,1,110,0|0,0:0|0:0,0:0:0:0:
163,224,59786,2,0,B|132:224|64:180,1,110,8|0,0:0|0:0,0:0:0:0:
256,72,60236,5,0,0:0:0:0:
256,182,60386,1,8,0:0:0:0:
256,292,60536,1,0,0:0:0:0:
420,292,60686,1,0,0:0:0:0:
337,149,60836,1,0,0:0:0:0:
256,292,60986,1,8,0:0:0:0:
175,149,61136,1,0,0:0:0:0:
92,292,61286,5,0,0:0:0:0:
92,292,61361,1,0,0:0:0:0:
92,292,61436,1,0,0:0:0:0:
92,292,61511,1,0,0:0:0:0:
92,292,61586,2,0,B|152:276|184:224,1,110,4|0,0:0|0:0,0:0:0:0:
136,128,61886,5,0,0:0:0:0:
136,128,61961,1,0,0:0:0:0:
136,128,62036,1,0,0:0:0:0:
136,128,62111,1,0,0:0:0:0:
136,128,62186,2,0,B|196:112|228:60,1,110,4|0,0:0|0:0,0:0:0:0:
376,128,62486,6,0,B|316:112|284:60,1,110,0|0,0:0|0:0,0:0:0:0:
256,20,62711,1,0,0:0:0:0:
224,66,62786,2,0,B|196:112|136:128,1,110,4|0,0:0|0:0,0:0:0:0:
112,180,63011,1,0,0:0:0:0:
136,229,63086,6,0,B|196:245|224:290,1,110,0|0,0:0|0:0,0:0:0:0:
256,336,63311,1,0,0:0:0:0:
288,292,63386,1,4,0:0:0:0:
332,256,63461,1,0,0:0:0:0:
380,232,63536,1,0,0:0:0:0:
486,206,63686,6,0,B|450:134|398:86,1,110
382,274,63986,2,0,B|314:229|246:214,1,110,8|0,0:0|0:0,0:0:0:0:
30,206,64286,6,0,B|66:134|118:86,1,110
134,274,64586,2,0,B|202:229|270:214,1,110,8|0,0:0|0:0,0:0:0:0:
344,36,65036,5,0,0:0:0:0:
296,136,65186,1,8,0:0:0:0:
136,96,65336,5,0,0:0:0:0:
184,196,65486,1,0,0:0:0:0:
344,152,65636,5,0,0:0:0:0:
296,252,65786,1,8,0:0:0:0:
144,188,65936,5,0,0:0:0:0:
192,288,66086,5,0,0:0:0:0:
232,324,66161,1,0,0:0:0:0:
280,352,66236,1,0,0:0:0:0:
336,360,66311,1,0,0:0:0:0:
392,356,66386,1,4,0:0:0:0:
440,332,66461,1,0,0:0:0:0:
484,296,66536,1,0,0:0:0:0:
380,256,66686,5,0,0:0:0:0:
328,240,66761,1,0,0:0:0:0:
276,220,66836,1,0,0:0:0:0:
236,180,66911,1,0,0:0:0:0:
212,132,66986,1,4,0:0:0:0:
200,76,67061,1,0,0:0:0:0:
200,20,67136,1,0,0:0:0:0:
312,20,67286,5,0,0:0:0:0:
312,76,67361,1,0,0:0:0:0:
300,132,67436,1,0,0:0:0:0:
276,180,67511,1,0,0:0:0:0:
236,220,67586,1,4,0:0:0:0:
184,240,67661,1,0,0:0:0:0:
132,256,67736,1,0,0:0:0:0:
28,296,67886,5,0,0:0:0:0:
72,332,67961,1,0,0:0:0:0:
120,356,68036,1,0,0:0:0:0:
176,360,68111,1,0,0:0:0:0:
232,352,68186,1,4,0:0:0:0:
280,324,68261,1,0,0:0:0:0:
320,288,68336,1,0,0:0:0:0:
368,188,68486,6,0,B|300:140|300:140|276:76,1,110
144,188,68786,2,0,B|212:140|212:140|236:76,1,110,8|0,0:0|0:0,0:0:0:0:
256,220,69086,5,0,0:0:0:0:
256,112,69236,1,0,0:0:0:0:
312,208,69386,1,8,0:0:0:0:
220,144,69536,1,0,0:0:0:0:
32,260,69836,5,0,0:0:0:0:
76,160,69986,1,8,0:0:0:0:
156,88,70136,1,0,0:0:0:0:
256,44,70286,1,0,0:0:0:0:
356,88,70436,1,0,0:0:0:0:
436,160,70586,1,8,0:0:0:0:
480,260,70736,1,0,0:0:0:0:
492,368,70886,6,0,B|420:332|372:272,1,110
316,164,71186,1,8,0:0:0:0:
304,272,71336,2,0,B|368:220|444:196,1,110
292,84,71636,2,0,B|248:48|156:36,1,110,0|8,0:0|0:0,0:0:0:0:
76,160,71936,2,0,B|32:248|60:312|132:328|192:252,1,220,8|8,0:0|0:0,0:0:0:0:
256,232,72386,1,8,0:0:0:0:
256,232,72536,1,8,0:0:0:0:
352,284,72686,5,8,0:0:0:0:
404,304,72761,1,0,0:0:0:0:
460,300,72836,1,0,0:0:0:0:
500,260,72911,1,0,0:0:0:0:
508,204,72986,1,2,0:0:0:0:
496,152,73061,1,0,0:0:0:0:
464,108,73136,1,0,0:0:0:0:
424,72,73211,1,0,0:0:0:0:
372,56,73286,6,0,B|316:84|296:132,1,110,2|0,0:0|0:0,0:0:0:0:
255,170,73511,1,0,0:0:0:0:
216,132,73586,2,0,B|196:84|140:56,1,110,2|0,0:0|0:0,0:0:0:0:
88,40,73811,1,0,0:0:0:0:
52,80,73886,2,0,B|12:128|0:216,1,110,2|0,0:0|0:0,0:0:0:0:
8,236,74111,1,0,0:0:0:0:
20,288,74186,1,2,0:0:0:0:
92,372,74336,6,0,B|208:344|240:224,1,220,2|2,0:0|0:0,0:0:0:0:
256,116,74786,1,2,0:0:0:0:
272,224,74936,2,0,B|304:344|420:372,1,220,2|2,0:0|0:0,0:0:0:0:
396,208,75386,1,2,0:0:0:0:
444,308,75536,1,2,0:0:0:0:
496,212,75686,1,2,0:0:0:0:
352,296,75836,5,0,0:0:0:0:
260,236,75986,1,2,0:0:0:0:
348,168,76136,1,0,0:0:0:0:
272,316,76286,5,2,0:0:0:0:
180,256,76436,1,2,0:0:0:0:
224,156,76586,1,2,0:0:0:0:
196,48,76736,6,0,B|140:36|68:64,1,110,2|0,0:0|0:0,0:0:0:0:
4,132,77036,1,2,0:0:0:0:
56,288,77186,2,0,B|60:212|84:148,1,110,2|2,0:0|0:0,0:0:0:0:
120,80,77486,1,0,0:0:0:0:
200,156,77636,1,2,0:0:0:0:
296,100,77786,1,2,0:0:0:0:
408,288,78086,5,4,0:0:0:0:
460,180,78236,2,0,B|364:184|304:208,1,110,4|0,0:0|0:0,0:0:0:0:
204,116,78536,1,0,0:0:0:0:
260,212,78686,1,0,0:0:0:0:
72,96,78986,5,0,0:0:0:0:
188,216,79136,1,0,0:0:0:0:
308,100,79286,2,0,B|228:124|172:164,1,110,4|4,0:0|0:0,0:0:0:0:
84,252,79586,2,0,B|140:204|148:116,1,110
164,52,79886,1,0,0:0:0:0:
256,252,80186,5,2,0:0:0:0:
304,152,80336,1,2,0:0:0:0:
384,228,80486,2,0,B|456:248|500:292,1,110,2|0,0:0|0:0,0:0:0:0:
500,328,80711,1,0,0:0:0:0:
452,356,80786,6,0,B|380:336|328:288,1,110,2|2,0:0|0:0,0:0:0:0:
304,288,81011,1,0,0:0:0:0:
252,272,81086,1,2,0:0:0:0:
196,272,81161,1,0,0:0:0:0:
140,280,81236,1,0,0:0:0:0:
88,264,81311,1,0,0:0:0:0:
52,224,81386,1,2,0:0:0:0:
36,172,81461,1,0,0:0:0:0:
36,116,81536,1,2,0:0:0:0:
348,228,81836,5,2,0:0:0:0:
84,32,82136,1,2,0:0:0:0:
408,96,82436,1,2,0:0:0:0:
356,192,82586,1,2,0:0:0:0:
328,144,82661,1,0,0:0:0:0:
280,116,82736,1,0,0:0:0:0:
224,108,82811,1,0,0:0:0:0:
172,120,82886,6,0,B|120:148|88:240,1,110,2|0,0:0|0:0,0:0:0:0:
92,256,83111,1,0,0:0:0:0:
132,296,83186,2,0,B|184:248|276:300,1,110,2|0,0:0|0:0,0:0:0:0:
284,304,83411,1,0,0:0:0:0:
300,252,83486,2,0,B|304:188|360:132,1,110,2|0,0:0|0:0,0:0:0:0:
388,120,83711,1,0,0:0:0:0:
440,104,83786,1,2,0:0:0:0:
476,208,83936,6,0,B|308:176|228:100,1,220,2|2,0:0|0:0,0:0:0:0:
252,24,84386,1,0,0:0:0:0:
400,96,84536,2,0,B|324:272|260:308,1,220,2|2,0:0|0:0,0:0:0:0:
196,344,84986,1,2,0:0:0:0:
196,344,85136,1,0,0:0:0:0:
120,264,85286,6,0,B|60:212|-4:196,1,110,2|0,0:0|0:0,0:0:0:0:
96,120,85586,2,0,B|172:120|228:144,1,110,2|0,0:0|0:0,0:0:0:0:
308,172,85886,1,2,0:0:0:0:
196,296,86036,2,0,B|244:222|288:196,1,110,2|0,0:0|0:0,0:0:0:0:
396,108,86336,6,0,B|236:44|136:60,1,220,2|2,0:0|0:0,0:0:0:0:
72,64,86786,1,0,0:0:0:0:
148,144,86936,1,2,0:0:0:0:
68,288,87086,1,0,0:0:0:0:
124,192,87236,1,2,0:0:0:0:
176,288,87386,1,2,0:0:0:0:
356,164,87686,5,4,0:0:0:0:
356,164,87836,1,4,0:0:0:0:
272,236,87986,2,0,B|300:304|384:332,1,110,0|0,0:0|0:0,0:0:0:0:
424,236,88286,1,0,0:0:0:0:
256,92,88586,5,0,0:0:0:0:
256,92,88736,1,0,0:0:0:0:
164,148,88886,2,0,B|244:160|300:196,1,110,4|4,0:0|0:0,0:0:0:0:
304,340,89186,2,0,B|328:273|336:204,1,110,0|0,0:0|0:0,0:0:0:0:
348,124,89486,1,0,0:0:0:0:
136,64,89786,5,6,0:0:0:0:
56,140,89936,1,2,0:0:0:0:
128,224,90086,2,0,B|208:228|256:140,1,110,2|0,0:0|0:0,0:0:0:0:
270,149,90311,1,0,0:0:0:0:
292,200,90386,2,0,B|308:260|360:320,1,110,2|0,0:0|0:0,0:0:0:0:
392,320,90611,1,0,0:0:0:0:
440,292,90686,2,0,B|476:204|476:136,1,110,2|2,0:0|0:0,0:0:0:0:
488,80,90986,1,2,0:0:0:0:
340,128,91136,6,0,B|256:128|256:256|156:256,1,220,2|2,0:0|0:0,0:0:0:0:
80,192,91586,1,2,0:0:0:0:
172,128,91736,2,0,B|256:128|256:256|356:256,1,220,2|2,0:0|0:0,0:0:0:0:
358,255,92111,5,0,0:0:0:0:
374,255,92186,1,2,0:0:0:0:
390,255,92261,1,0,0:0:0:0:
406,255,92336,1,0,0:0:0:0:
422,255,92411,1,0,0:0:0:0:
438,255,92486,1,2,0:0:0:0:
96,200,97586,5,8,0:0:0:0:
268,336,97886,1,0,0:0:0:0:
276,228,98036,1,0,0:0:0:0:
364,292,98186,1,8,0:0:0:0:
428,204,98336,2,0,B|364:92|224:64,1,220
168,212,98786,2,0,B|212:172|228:76,1,110,8|0,0:0|0:0,0:0:0:0:
252,12,99086,5,0,0:0:0:0:
148,48,99236,1,0,0:0:0:0:
68,124,99386,1,8,0:0:0:0:
24,224,99536,2,0,B|80:352|240:352,1,220
356,360,99986,2,0,B|352:288|284:248,1,110,8|0,0:0|0:0,0:0:0:0:
220,200,100286,5,0,0:0:0:0:
136,272,100436,1,0,0:0:0:0:
27,251,100586,1,8,0:0:0:0:
45,142,100736,2,0,B|53:70|89:18,1,110,0|0,0:0|0:0,0:0:0:0:
193,158,101036,2,0,B|185:230|149:282,1,110,0|8,0:0|0:0,0:0:0:0:
77,38,101336,6,0,B|149:46|201:82,2,110
46,143,101786,1,8,0:0:0:0:
148,184,101936,2,0,B|220:104|352:64,1,220,4|0,0:0|0:0,0:0:0:0:
444,52,102386,1,8,0:0:0:0:
364,372,102686,5,0,0:0:0:0:
316,272,102836,2,0,B|368:240|436:232,1,110,0|8,0:0|0:0,0:0:0:0:
492,88,103136,2,0,B|400:132|280:144,1,220
220,52,103586,1,8,0:0:0:0:
104,236,103886,5,0,0:0:0:0:
32,320,104036,1,0,0:0:0:0:
136,352,104186,1,8,0:0:0:0:
24,232,104336,2,0,B|56:112|188:52,1,220
216,160,104786,1,8,0:0:0:0:
380,12,105086,5,0,0:0:0:0:
440,104,105236,1,0,0:0:0:0:
460,212,105386,1,8,0:0:0:0:
464,320,105536,2,0,B|416:336|328:336,1,110,0|0,0:0|0:0,0:0:0:0:
236,220,105836,2,0,B|284:204|372:204,1,110,0|8,0:0|0:0,0:0:0:0:
252,340,106136,2,0,B|204:356|116:356,1,110,0|0,0:0|0:0,0:0:0:0:
32,232,106436,2,0,B|80:216|168:216,1,110,0|8,0:0|0:0,0:0:0:0:
256,96,106736,1,4,0:0:0:0:
420,384,107186,5,8,0:0:0:0:
108,276,107486,2,0,B|156:228|212:200,1,110
288,344,107786,2,0,B|256:300|256:236,1,110,8|0,0:0|0:0,0:0:0:0:
252,76,108086,1,0,0:0:0:0:
356,204,108236,1,0,0:0:0:0:
200,260,108386,2,0,B|148:280|84:344,1,110,8|0,0:0|0:0,0:0:0:0:
120,156,108686,2,0,B|172:136|236:72,1,110,0|0,0:0|0:0,0:0:0:0:
280,248,108986,5,8,0:0:0:0:
372,112,109136,2,0,B|400:160|412:240,1,110
432,380,109436,1,0,0:0:0:0:
316,260,109586,2,0,B|252:280|188:336,1,110,8|0,0:0|0:0,0:0:0:0:
64,368,109886,1,0,0:0:0:0:
64,368,110036,1,0,0:0:0:0:
64,368,110186,1,8,0:0:0:0:
64,368,110336,6,0,B|68:240|128:112,1,220
164,252,110786,1,8,0:0:0:0:
236,336,110936,2,0,B|283:217|383:117,1,220
369,261,111386,1,8,0:0:0:0:
456,192,111536,2,0,B|416:56|284:24,1,220,4|0,0:0|0:0,0:0:0:0:
204,44,111986,5,8,0:0:0:0:
124,120,112136,1,0,0:0:0:0:
232,104,112286,1,0,0:0:0:0:
180,200,112436,1,0,0:0:0:0:
280,152,112586,1,8,0:0:0:0:
252,260,112736,6,0,B|224:320|220:376,1,110,0|0,0:0|0:0,0:0:0:0:
280,212,113036,2,0,B|340:184|396:180,1,110,0|8,0:0|0:0,0:0:0:0:
220,200,113336,2,0,B|159:227|120:268,1,110,0|0,0:0|0:0,0:0:0:0:
108,96,113636,1,0,0:0:0:0:
264,160,113786,2,0,B|314:117|360:104,1,110,8|0,0:0|0:0,0:0:0:0:
360,268,114086,5,0,0:0:0:0:
360,104,114236,2,0,B|403:116|454:159,1,110,0|8,0:0|0:0,0:0:0:0:
496,264,114536,1,0,0:0:0:0:
416,340,114686,1,0,0:0:0:0:
308,356,114836,1,0,0:0:0:0:
208,312,114986,1,8,0:0:0:0:
124,244,115136,6,0,B|184:112,1,110
216,44,115436,1,0,0:0:0:0:
112,76,115586,1,8,0:0:0:0:
260,152,115736,2,0,B|376:172|424:28,1,220
444,144,116186,5,8,0:0:0:0:
412,188,116261,1,0,0:0:0:0:
368,220,116336,1,0,0:0:0:0:
316,232,116411,1,0,0:0:0:0:
260,232,116486,2,0,B|188:124,1,110,4|0,0:0|0:0,0:0:0:0:
40,96,116786,2,0,B|120:216,1,110,8|0,0:0|0:0,0:0:0:0:
164,280,117086,1,0,0:0:0:0:
264,152,117236,2,0,B|300:112|368:96,1,110,0|8,0:0|0:0,0:0:0:0:
468,88,117536,1,0,0:0:0:0:
382,288,117836,6,0,B|338:328|266:348,1,110,0|8,0:0|0:0,0:0:0:0:
130,288,118136,2,0,B|174:328|246:348,1,110,0|0,0:0|0:0,0:0:0:0:
256,236,118436,1,0,0:0:0:0:
256,128,118586,2,0,B|256:-4,1,110,8|0,0:0|0:0,0:0:0:0:
360,56,118886,5,0,0:0:0:0:
404,88,118961,1,0,0:0:0:0:
424,140,119036,1,0,0:0:0:0:
432,196,119111,1,0,0:0:0:0:
412,247,119186,2,0,B|368:291|337:283|316:239,1,110,4|0,0:0|0:0,0:0:0:0:
292,144,119486,5,0,0:0:0:0:
336,176,119561,1,0,0:0:0:0:
356,228,119636,1,0,0:0:0:0:
364,284,119711,1,0,0:0:0:0:
341,334,119786,2,0,B|297:378|266:370|245:326,1,110,4|0,0:0|0:0,0:0:0:0:
168,264,120086,5,0,0:0:0:0:
142,215,120161,1,0,0:0:0:0:
147,160,120236,1,0,0:0:0:0:
164,106,120311,1,0,0:0:0:0:
206,70,120386,2,0,B|264:49|288:70|288:105,1,110,4|0,0:0|0:0,0:0:0:0:
267,214,120686,5,0,0:0:0:0:
242,166,120761,1,0,0:0:0:0:
246,111,120836,1,0,0:0:0:0:
264,57,120911,1,0,0:0:0:0:
306,21,120986,2,0,B|364:0|388:21|388:56,1,110,4|0,0:0|0:0,0:0:0:0:
396,168,121286,6,0,B|380:224|324:308,1,110
183,260,121586,2,0,B|144:303|56:354,1,110,8|0,0:0|0:0,0:0:0:0:
40,176,121886,2,0,B|86:201|125:245,1,110
292,237,122186,2,0,B|322:280|338:336,1,110,8|0,0:0|0:0,0:0:0:0:
500,188,122636,5,0,0:0:0:0:
404,136,122786,1,8,0:0:0:0:
404,246,122936,1,0,0:0:0:0:
316,108,123086,1,0,0:0:0:0:
316,273,123236,1,0,0:0:0:0:
240,192,123386,1,8,0:0:0:0:
240,192,123536,1,0,0:0:0:0:
152,128,123686,5,0,0:0:0:0:
104,100,123761,1,0,0:0:0:0:
52,112,123836,1,0,0:0:0:0:
20,156,123911,1,0,0:0:0:0:
16,212,123986,2,0,B|40:280|92:312,1,110,4|0,0:0|0:0,0:0:0:0:
124,332,124211,1,0,0:0:0:0:
156,288,124286,2,0,B|188:240|256:212,1,110
348,200,124586,5,4,0:0:0:0:
396,228,124661,1,0,0:0:0:0:
448,216,124736,1,0,0:0:0:0:
480,171,124811,1,0,0:0:0:0:
492,116,124886,2,0,B|456:64|404:44,1,110
356,36,125111,1,0,0:0:0:0:
300,40,125186,2,0,B|272:180,1,110,4|0,0:0|0:0,0:0:0:0:
224,136,125411,1,0,0:0:0:0:
172,124,125486,2,0,B|144:264,1,110
140,288,125711,1,0,0:0:0:0:
128,340,125786,1,4,0:0:0:0:
84,372,125861,1,0,0:0:0:0:
36,344,125936,1,0,0:0:0:0:
8,236,126086,6,0,B|16:168|36:128,1,110
168,32,126386,2,0,B|204:80|212:156,1,110,8|0,0:0|0:0,0:0:0:0:
272,288,126686,2,0,B|320:236|336:144,1,110
380,36,126986,2,0,B|416:68|436:156,1,110,8|0,0:0|0:0,0:0:0:0:
468,352,127436,5,0,0:0:0:0:
396,204,127586,1,8,0:0:0:0:
348,304,127736,1,0,0:0:0:0:
268,160,127886,2,0,B|244:100|172:32,1,110
44,52,128186,2,0,B|68:112|140:180,1,110,8|0,0:0|0:0,0:0:0:0:
36,292,128486,6,0,B|72:240|115:215,1,110
216,176,128786,1,4,0:0:0:0:
236,228,128861,1,0,0:0:0:0:
264,276,128936,1,0,0:0:0:0:
304,316,129011,1,0,0:0:0:0:
356,336,129086,6,0,B|420:304|476:248,1,110
496,176,129386,1,4,0:0:0:0:
480,124,129461,1,0,0:0:0:0:
448,80,129536,1,0,0:0:0:0:
400,56,129611,1,0,0:0:0:0:
348,72,129686,6,0,B|296:176,1,110
272,220,129911,1,0,0:0:0:0:
245,170,129986,2,0,B|195:71,1,110,4|0,0:0|0:0,0:0:0:0:
170,22,130211,1,0,0:0:0:0:
148,72,130286,2,0,B|98:170,1,110
76,220,130511,1,0,0:0:0:0:
52,268,130586,1,4,0:0:0:0:
28,316,130661,1,0,0:0:0:0:
6,366,130736,1,0,0:0:0:0:
112,336,130886,6,0,B|216:288,1,110
180,128,131186,2,0,B|284:84,1,110,8|0,0:0|0:0,0:0:0:0:
384,40,131486,1,0,0:0:0:0:
420,144,131636,1,0,0:0:0:0:
452,40,131786,1,8,0:0:0:0:
488,144,131936,1,0,0:0:0:0:
472,364,132236,5,0,0:0:0:0:
412,272,132386,1,8,0:0:0:0:
334,194,132536,1,0,0:0:0:0:
256,272,132686,1,0,0:0:0:0:
196,364,132836,1,0,0:0:0:0:
118,286,132986,1,8,0:0:0:0:
58,194,133136,1,0,0:0:0:0:
28,88,133286,6,0,B|80:60|148:44,1,110
296,36,133586,1,8,0:0:0:0:
332,140,133736,2,0,B|276:132|208:84,1,110
88,184,134036,2,0,B|144:192|212:240,1,110,0|8,0:0|0:0,0:0:0:0:
340,296,134336,6,0,B|460:236|488:104,1,220,8|8,0:0|0:0,0:0:0:0:
480,24,134786,1,8,0:0:0:0:
480,24,134936,1,8,0:0:0:0:
398,94,135086,5,8,0:0:0:0:
356,128,135161,1,0,0:0:0:0:
313,161,135236,1,0,0:0:0:0:
270,195,135311,1,0,0:0:0:0:
227,229,135386,1,2,0:0:0:0:
185,262,135461,1,0,0:0:0:0:
142,296,135536,1,0,0:0:0:0:
99,330,135611,1,0,0:0:0:0:
60,356,135675,6,0,B|8:322|8:264,1,110,2|0,0:0|0:0,0:0:0:0:
4,209,135900,1,0,0:0:0:0:
4,154,135975,2,0,B|4:95|56:61,1,110,2|0,0:0|0:0,0:0:0:0:
112,62,136200,1,0,0:0:0:0:
168,62,136275,2,0,B|220:95|220:154,1,110,2|0,0:0|0:0,0:0:0:0:
228,207,136500,1,0,0:0:0:0:
233,261,136575,1,2,0:0:0:0:
282,359,136725,6,0,B|398:331|430:211,1,220,2|2,0:0|0:0,0:0:0:0:
444,102,137175,1,2,0:0:0:0:
336,128,137325,2,0,B|216:160|180:276,1,220,2|2,0:0|0:0,0:0:0:0:
156,376,137775,5,2,0:0:0:0:
116,272,137925,1,2,0:0:0:0:
40,352,138075,1,2,0:0:0:0:
196,300,138225,5,0,0:0:0:0:
160,196,138375,1,2,0:0:0:0:
264,228,138525,1,0,0:0:0:0:
336,376,138675,5,2,0:0:0:0:
254,301,138825,1,2,0:0:0:0:
364,292,138975,1,2,0:0:0:0:
276,152,139125,6,0,B|220:140|148:168,1,110,2|0,0:0|0:0,0:0:0:0:
60,188,139425,1,2,0:0:0:0:
80,352,139575,2,0,B|84:276|108:212,1,110,2|2,0:0|0:0,0:0:0:0:
124,136,139875,1,0,0:0:0:0:
220,188,140025,1,2,0:0:0:0:
280,96,140175,1,2,0:0:0:0:
404,280,140475,5,4,0:0:0:0:
460,184,140625,2,0,B|364:188|304:212,1,110,4|0,0:0|0:0,0:0:0:0:
204,124,140925,1,0,0:0:0:0:
260,220,141075,1,0,0:0:0:0:
80,92,141375,5,0,0:0:0:0:
196,212,141525,1,0,0:0:0:0:
304,88,141675,2,0,B|224:112|168:152,1,110,4|4,0:0|0:0,0:0:0:0:
80,240,141975,2,0,B|136:192|144:104,1,110
160,40,142275,1,0,0:0:0:0:
256,236,142575,5,2,0:0:0:0:
308,140,142725,1,2,0:0:0:0:
380,56,142875,6,0,B|440:88|464:160,1,110,2|2,0:0|0:0,0:0:0:0:
464,188,143100,1,0,0:0:0:0:
468,244,143175,1,2,0:0:0:0:
452,296,143250,1,0,0:0:0:0:
410,331,143325,1,2,0:0:0:0:
356,344,143400,1,0,0:0:0:0:
300,340,143475,1,2,0:0:0:0:
252,312,143550,1,0,0:0:0:0:
216,272,143625,1,2,0:0:0:0:
184,228,143700,1,0,0:0:0:0:
160,180,143775,1,2,0:0:0:0:
140,128,143850,1,0,0:0:0:0:
120,76,143925,1,2,0:0:0:0:
28,276,144225,5,2,0:0:0:0:
244,28,144525,1,2,0:0:0:0:
432,300,144825,1,2,0:0:0:0:
392,196,144975,1,2,0:0:0:0:
364,148,145050,1,0,0:0:0:0:
316,120,145125,1,0,0:0:0:0:
260,112,145200,1,0,0:0:0:0:
208,124,145275,6,0,B|156:152|124:244,1,110,2|0,0:0|0:0,0:0:0:0:
128,260,145500,1,0,0:0:0:0:
168,300,145575,2,0,B|220:252|312:304,1,110,2|0,0:0|0:0,0:0:0:0:
320,308,145800,1,0,0:0:0:0:
336,256,145875,2,0,B|340:192|396:136,1,110,2|0,0:0|0:0,0:0:0:0:
424,124,146100,1,0,0:0:0:0:
476,108,146175,1,2,0:0:0:0:
444,268,146325,6,0,B|352:272|304:228,1,110,2|0,0:0|0:0,0:0:0:0:
68,116,146625,2,0,B|160:112|208:156,1,110,2|0,0:0|0:0,0:0:0:0:
256,280,146925,2,0,B|252:356|204:408,1,110,2|0,0:0|0:0,0:0:0:0:
120,340,147225,1,2,0:0:0:0:
68,244,147375,1,2,0:0:0:0:
80,136,147525,1,2,0:0:0:0:
132,40,147675,6,0,B|164:45|224:97,1,110,2|0,0:0|0:0,0:0:0:0:
356,200,147975,2,0,B|323:184|247:184,1,110,2|0,0:0|0:0,0:0:0:0:
140,204,148275,1,2,0:0:0:0:
228,344,148425,2,0,B|276:270|320:244,1,110,2|0,0:0|0:0,0:0:0:0:
416,144,148725,6,0,B|256:80|156:96,1,220,2|2,0:0|0:0,0:0:0:0:
92,96,149175,1,0,0:0:0:0:
168,176,149325,1,2,0:0:0:0:
88,320,149475,1,0,0:0:0:0:
144,224,149625,1,2,0:0:0:0:
196,320,149775,1,2,0:0:0:0:
352,164,150075,5,4,0:0:0:0:
352,164,150225,1,4,0:0:0:0:
268,236,150375,2,0,B|296:304|380:332,1,110,0|0,0:0|0:0,0:0:0:0:
420,236,150675,1,0,0:0:0:0:
256,92,150975,5,0,0:0:0:0:
256,92,151125,1,0,0:0:0:0:
164,148,151275,2,0,B|244:160|300:196,1,110,4|4,0:0|0:0,0:0:0:0:
304,340,151575,2,0,B|328:273|336:204,1,110,0|0,0:0|0:0,0:0:0:0:
348,124,151875,1,0,0:0:0:0:
136,64,152175,5,2,0:0:0:0:
56,140,152325,1,2,0:0:0:0:
128,224,152475,2,0,B|208:228|256:140,1,110,2|0,0:0|0:0,0:0:0:0:
271,150,152700,1,0,0:0:0:0:
292,200,152775,2,0,B|308:260|360:320,1,110,2|0,0:0|0:0,0:0:0:0:
392,320,153000,1,0,0:0:0:0:
440,292,153075,2,0,B|480:226|488:144,1,110,2|2,0:0|0:0,0:0:0:0:
488,135,153300,1,0,0:0:0:0:
488,80,153375,1,2,0:0:0:0:
340,128,153525,6,0,B|256:128|256:256|156:256,1,220,2|2,0:0|0:0,0:0:0:0:
80,192,153975,1,2,0:0:0:0:
172,128,154125,2,0,B|256:128|256:256|356:256,1,220,2|2,0:0|0:0,0:0:0:0:
358,255,154500,5,0,0:0:0:0:
374,255,154575,1,2,0:0:0:0:
390,255,154650,1,0,0:0:0:0:
406,255,154725,1,0,0:0:0:0:
422,255,154800,1,0,0:0:0:0:
438,255,154875,1,2,0:0:0:0:
