osu file format v9

[General]
AudioFilename: High School Days (DIVA edit).mp3
AudioLeadIn: 1500
PreviewTime: 48681
Countdown: 0
SampleSet: Soft
StackLeniency: 0.7
Mode: 0
LetterboxInBreaks: 0

[Editor]
Bookmarks: 71266
DistanceSpacing: 1
BeatDivisor: 4
GridSize: 8

[Metadata]
Title:High School Days (DIVA edit)
Artist:Hatsune Miku
Creator:banvi
Version:Normal
Source:U-ji
Tags:Vocaloid Vocaloid2 U-SUKE Project DIVA Arcade phonic

[Difficulty]
HPDrainRate:4
CircleSize:3
OverallDifficulty:4
ApproachRate:5
SliderMultiplier:1.2
SliderTickRate:2

[Events]
//Background and Video events
0,0,"bg.jpg"
//Break Periods
2,12975,17950
2,74475,80575
//Storyboard Layer 0 (Background)
//Storyboard Layer 1 (Fail)
//Storyboard Layer 2 (Pass)
//Storyboard Layer 3 (Foreground)
//Storyboard Sound Samples
//Background Colour Transformations
3,100,163,162,255

[TimingPoints]
775,375,4,2,0,30,1,0
868,-100,4,2,1,45,0,0
1056,-100,4,2,2,45,0,0
1243,-100,4,2,1,45,0,0
1806,-100,4,2,2,45,0,0
1993,-100,4,2,1,45,0,0
2181,-100,4,2,2,30,0,0
2368,-100,4,2,1,45,0,0
3306,-100,4,2,2,45,0,0
3681,-100,4,2,2,30,0,0
3868,-100,4,2,1,45,0,0
4056,-100,4,2,2,45,0,0
4243,-100,4,2,1,45,0,0
4431,-100,4,2,2,30,0,0
4618,-100,4,2,2,45,0,0
5181,-100,4,2,2,30,0,0
5368,-100,4,2,1,45,0,0
6681,-100,4,2,1,35,0,0
6868,-100,4,2,1,45,0,0
7431,-100,4,2,1,35,0,0
7618,-100,4,2,1,45,0,0
8181,-100,4,2,1,35,0,0
8368,-100,4,2,2,45,0,0
8743,-100,4,2,1,45,0,0
9681,-100,4,2,1,35,0,0
9868,-100,4,2,1,45,0,0
10056,-100,4,2,2,45,0,0
10243,-100,4,2,1,45,0,0
10431,-100,4,2,1,35,0,0
10618,-100,4,2,1,45,0,0
10806,-100,4,2,2,45,0,0
10993,-100,4,2,1,45,0,0
11181,-100,4,2,1,35,0,0
11368,-100,4,2,1,45,0,0
18775,-100,4,2,1,55,0,0
24728,-100,4,2,1,40,0,0
24821,-100,4,2,1,50,0,0
35181,-100,4,1,0,45,0,0
35368,-100,4,2,1,50,0,0
35743,-100,4,1,0,45,0,0
35931,-100,4,2,1,40,0,0
36306,-100,4,1,0,45,0,0
36681,-100,4,2,1,40,0,0
36962,-100,4,2,1,55,0,0
43056,-100,4,2,2,55,0,0
43243,-100,4,2,1,55,0,0
47556,-100,4,2,2,55,0,0
47743,-100,4,2,1,55,0,0
48775,-100,4,2,1,65,0,1
50556,-100,4,2,2,65,0,1
50743,-100,4,2,1,65,0,1
56556,-100,4,2,2,65,0,1
56743,-100,4,2,1,65,0,1
59087,-100,4,1,0,50,0,1
59368,-100,4,2,1,65,0,1
59556,-100,4,1,0,50,0,1
59931,-100,4,2,1,65,0,1
60118,-100,4,1,0,50,0,1
60306,-100,4,2,1,65,0,1
68556,-100,4,2,2,65,0,1
68743,-100,4,2,1,65,0,1
71087,-100,4,1,0,50,0,1
71368,-100,4,2,1,65,0,1
71743,-100,4,1,0,50,0,1
71931,-100,4,2,1,65,0,1
72306,-100,4,1,0,50,0,1
72775,-100,4,2,0,60,0,0
74275,-100,4,2,0,10,0,0
81400,-100,4,2,0,30,0,0
82150,-100,4,2,0,45,0,0
83275,-100,4,2,0,60,0,0
84025,-100,4,2,0,75,0,0
84775,-100,4,2,2,45,0,0
85243,-100,4,2,1,45,0,0
85806,-100,4,2,2,45,0,0
86368,-100,4,2,1,45,0,0
87306,-100,4,2,2,45,0,0
88243,-100,4,2,1,45,0,0
88806,-100,4,2,2,45,0,0
90868,-100,4,2,1,45,0,0
91806,-100,4,2,2,45,0,0
92368,-100,4,2,1,45,0,0
92556,-100,4,2,2,45,0,0
92743,-100,4,2,1,45,0,0
92931,-100,4,2,2,45,0,0
94618,-100,4,2,1,45,0,0
94806,-100,4,2,2,45,0,0
94993,-100,4,2,1,45,0,0
96728,-100,4,2,1,35,0,0
96868,-100,4,2,1,45,0,0
97056,-100,4,2,2,45,0,0
97243,-100,4,2,1,45,0,0
97806,-100,4,2,2,45,0,0
97993,-100,4,2,1,45,0,0
99212,-100,4,2,2,45,0,0
99868,-100,4,2,1,45,0,0
100056,-100,4,2,2,45,0,0
100243,-100,4,2,1,45,0,0
100431,-100,4,2,2,45,0,0
101087,-100,4,2,1,45,0,0
102118,-100,4,2,2,45,0,0
102587,-100,4,2,2,55,0,0
103243,-100,4,2,1,55,0,0
103806,-100,4,2,2,55,0,0
104368,-100,4,2,1,55,0,0
105306,-100,4,2,2,55,0,0
106243,-100,4,2,1,55,0,0
106806,-100,4,2,2,55,0,0
107087,-100,4,1,0,45,0,0
107368,-100,4,2,1,55,0,0
107743,-100,4,1,0,45,0,0
107931,-100,4,2,1,55,0,0
108775,-100,4,2,1,65,0,1
116556,-100,4,2,2,65,0,1
116743,-100,4,2,1,65,0,1
119087,-100,4,1,0,50,0,1
119368,-100,4,2,1,65,0,1
119743,-100,4,1,0,50,0,1
119931,-100,4,2,1,65,0,1
120306,-100,4,1,0,50,0,1
120728,-100,4,2,1,65,0,0
120775,-100,4,2,1,70,0,1
122556,-100,4,2,2,70,0,1
122743,-100,4,2,1,70,0,1
128556,-100,4,2,2,70,0,1
128743,-100,4,2,1,70,0,1
131087,-100,4,1,0,55,0,1
131368,-100,4,2,1,70,0,1
131556,-100,4,1,0,55,0,1
131931,-100,4,2,1,70,0,1
132118,-100,4,1,0,55,0,1
132728,-100,4,2,1,70,0,1
140556,-100,4,2,2,70,0,1
140743,-100,4,2,1,70,0,1
144775,-100,4,2,1,60,0,0
146275,-100,4,2,0,10,0,0
146462,-100,4,2,1,60,0,0
147681,-100,4,2,0,40,0,0
149275,-100,4,2,0,10,0,0
149462,-100,4,2,1,60,0,0
150681,-100,4,2,0,45,0,0
152275,-100,4,2,0,10,0,0
152650,-100,4,2,1,40,0,0
153681,-100,4,2,0,45,0,0
155275,-100,4,2,0,10,0,0
155462,-100,4,2,1,60,0,0
158275,-100,4,2,0,45,0,0
159775,-100,4,2,0,30,0,0
161275,-100,4,2,0,15,0,0
162775,-100,4,2,0,10,0,0

[Colours]
Combo1 : 255,106,181
Combo2 : 129,255,2
Combo3 : 0,240,240

[HitObjects]
48,296,775,2,0,B|73:315|147:284|147:253,1,120,4|8
192,144,1525,2,0,B|221:134|273:195|262:225,1,120,0|8
256,344,2275,2,0,B|287:352|358:326|387:261|380:230,1,180,4|0
304,76,3400,1,8
256,184,3775,6,0,B|226:193|174:132|185:102,2,120,4|8|4
376,184,4900,1,8
396,64,5275,2,0,B|428:61|492:102|507:172|493:200,2,180,12|0|8
276,64,6775,6,0,B|144:64,1,120,4|8
40,92,7525,2,0,B|29:122|81:182|110:173,1,120,4|8
230,174,8275,2,0,B|239:194|219:263|152:299|120:294,2,180,4|0|8
256,56,9775,6,0,B|216:36|176:32|144:61|95:87|43:76|18:51,2,240,4|4|4
372,88,11650,2,0,B|383:118|331:178|302:169,2,120,8|0|8
256,56,12775,1,4
448,116,19150,5,8
344,60,19525,1,0
240,116,19900,2,0,B|220:88|224:52,1,60,8|0
128,212,20650,5,8
232,268,21025,1,0
336,212,21400,2,0,B|356:240|352:276,1,60,8|0
448,116,22150,5,8
344,60,22525,1,0
240,116,22900,1,8
136,60,23275,2,0,B|107:74|106:154|133:167,1,120,0|8
24,216,24025,2,0,B|18:247|80:297|107:283,1,120,0|8
212,344,24775,6,0,B|206:312|268:262|295:276,1,120,4|8
380,192,25525,2,0,B|407:206|469:156|463:124,1,120,0|8
463,64,26087,1,0
344,64,26462,2,0,B|292:36,2,60,2|8|2
256,220,27400,1,8
304,332,27775,6,0,B|332:341|386:282|375:251,2,120,0|8|0
184,332,28900,1,8
184,332,29087,1,0
104,244,29462,2,0,B|44:244,2,60,2|8|2
160,140,30212,2,0,B|224:140,2,60,2|8|2
100,140,30775,6,0,B|67:145|18:82|33:55,2,120,0|8|0
196,212,31900,1,8
196,212,32087,1,0
316,212,32462,2,0,B|360:256,2,60,2|8|2
256,44,33400,1,8
136,44,33775,6,0,B|117:71|155:141|185:139,1,120,0|8
304,140,34525,2,0,B|322:167|284:237|254:235,1,120,0|8
196,236,35087,1,0
136,236,35275,2,0,B|104:231|37:267|17:336|26:356,2,180
156,356,36775,1,4
256,292,37150,6,0,B|388:292,2,120,8|0|8
156,356,38275,2,0,B|129:370|64:324|69:291,1,120,0|8
84,236,38837,2,0,B|117:233|148:160|128:137,1,120
88,96,39400,1,8
202,47,39775,5,2
202,47,40150,2,0,B|216:19|294:19|310:50,2,120,8|0|8
256,152,41275,1,2
316,252,41650,1,10
256,356,42025,1,2
196,252,42400,1,10
256,152,42775,6,0,B|226:137|196:134|172:155|135:175|96:167|80:148,2,180,2|0|8
308,44,44275,2,0,B|340:38|386:103|371:129,1,120,2|8
484,164,45025,2,0,B|494:194|437:250|409:239,1,120,0|8
356,348,45775,5,2
256,280,46150,1,8
156,348,46525,2,0,B|126:340|113:261|139:243,1,120,2|8
172,192,47087,2,0,B|36:192,2,120,2|8|10
300,68,48400,1,8
420,68,48775,6,0,B|450:63|493:131|476:158,1,120,4|8
356,172,49525,2,0,B|339:198|381:266|412:262,1,120,0|8
324,344,50275,1,0
264,344,50462,2,0,B|172:344|172:344|148:320,1,120,0|0
204,216,51212,2,0,B|228:160,2,60,0|8|0
144,216,51775,6,0,B|116:199|49:243|54:273,2,120,0|8|0
256,264,52900,1,8
348,344,53275,2,0,B|375:360|442:316|437:286,1,120,2|8
448,228,53837,2,0,B|464:201|420:134|390:139,1,120,2|0
328,140,54400,1,10
208,140,54775,5,2
136,42,55150,1,8
19,79,55525,1,0
19,202,55900,1,8
136,239,56275,1,0
195,239,56462,2,0,B|287:239|287:239|311:215,1,120
256,108,57212,2,0,B|224:52,2,60,0|8|0
308,84,57775,6,0,B|310:53|386:27|409:50,1,120,0|8
448,164,58525,2,0,B|445:194|369:220|346:197,1,120,0|8
348,316,59275,2,0,B|324:335|252:299|252:267,1,120
232,212,59837,2,0,B|212:188|248:116|280:116,1,120
340,116,60400,1,2
456,138,60775,6,0,B|480:119|459:42|428:36,2,120,4|8|0
376,228,61900,1,8
460,316,62275,2,0,B|453:347|376:368|357:344,1,120,0|8
308,312,62837,2,0,B|301:280|224:259|205:283,1,120
152,312,63400,1,8
72,224,63775,6,0,B|24:264,2,60,0|0|8
72,104,64525,2,0,B|24:64,2,60,0|0|8
176,44,65275,2,0,B|207:51|228:128|204:147,1,120,2|8
172,196,65837,2,0,B|140:203|119:280|143:299,1,120,2|0
184,340,66400,1,10
304,340,66775,5,2
396,264,67150,1,8
396,144,67525,2,0,B|390:111|313:88|294:111,1,120,0|8
256,224,68275,2,0,B|234:226|174:186|161:111|175:82,2,180,0|0|8
376,224,69775,5,0
493,205,70150,2,0,B|517:224|496:301|464:308,2,120,8|0|8
416,112,71275,2,0,B|386:97|356:94|332:115|295:135|256:127|240:108,2,180
256,192,72775,12,0,74275
256,192,81775,12,4,84775
288,288,85150,6,0,B|319:293|370:232|356:205,2,120,8|0|8
172,252,86275,2,0,B|143:238|68:251|28:311|30:333,2,180,0|0|8
256,336,87775,1,0
372,336,88150,2,0,B|500:336,2,120,8|0|8
256,336,89275,5,0
152,276,89650,1,8
152,156,90025,1,0
256,96,90400,1,8
320,196,90775,6,0,B|350:181|380:178|404:199|441:219|480:211|496:192,2,180,0|0|8
204,224,92275,2,0,B|190:251|241:312|272:307,2,120,0|8|0
256,116,93400,1,8
368,76,93775,5,0
480,116,94150,1,8
392,196,94525,2,0,B|362:204|349:283|375:301,1,120,0|8
412,348,95087,2,0,B|284:348,1,120,2|2
220,252,95837,2,0,B|92:252,1,120,2|2
36,84,96775,6,0,B|41:53|116:25|137:47,1,120,4|8
236,116,97525,2,0,B|241:146|316:174|337:152,1,120,2|8
392,48,98275,2,0,B|414:49|468:96|465:175|447:201,1,180,2|0
304,308,99400,1,8
256,200,99775,6,0,B|225:195|174:256|188:283,2,120,2|8|2
376,200,100900,1,8
436,304,101275,2,0,B|458:303|512:256|509:177|488:152,1,180,2|0
352,36,102400,1,8
256,104,102775,5,0
140,104,103150,2,0,B|110:115|46:68|53:38,2,120,8|0|8
216,196,104275,2,0,B|214:228|172:280|92:288|75:274,2,180,0|0|8
140,104,105775,5,0
24,136,106150,2,0,B|-1:119|13:41|43:30,2,120,8|0|8
140,104,107275,2,0,B|152:119|191:127|228:107|252:86|282:89|312:104,2,180,0|0|2
24,136,108775,6,0,B|14:166|67:225|95:216,1,120,4|8
180,300,109525,2,0,B|186:269|261:244|281:266,1,120,0|8
364,356,110275,2,0,B|394:349|419:274|397:254,1,120,0|8
364,204,110837,2,0,B|333:197|308:122|330:102,1,120
356,48,111400,1,8
452,120,111775,6,0,B|496:68,2,60,0|0|8
452,240,112525,2,0,B|496:292,2,60,0|0|8
356,312,113275,2,0,B|349:281|274:256|254:278,1,120,2|8
204,312,113837,2,0,B|197:342|122:367|102:345,1,120,2|0
52,312,114400,1,10
108,208,114775,5,2
52,104,115150,1,8
108,208,115525,2,0,B|138:213|181:147|168:119,1,120,0|8
256,40,116275,2,0,B|286:25|316:22|340:43|377:63|416:55|432:36,2,180,0|0|8
296,152,117775,5,0
256,264,118150,2,0,B|249:294|174:319|154:297,2,120,8|0|8
296,152,119275,2,0,B|328:154|380:196|388:276|374:293,2,180
184,192,120775,5,4
70,152,121150,1,8
109,38,121525,1,0
221,78,121900,1,8
184,192,122275,1,0
228,232,122462,2,0,B|248:248|248:248|352:248,1,120
420,156,123212,2,0,B|452:100,2,60,0|8|0
456,204,123775,6,0,B|480:222|472:301|443:310,2,120,0|8|0
342,248,124900,1,8
228,288,125275,2,0,B|203:269|211:190|240:181,1,120,2|8
272,132,125837,2,0,B|280:104|220:48|192:60,1,120,2|0
132,60,126400,1,10
56,152,126775,5,2
140,236,127150,1,8
256,264,127525,1,0
372,236,127900,1,8
456,152,128275,1,0
436,96,128462,2,0,B|429:66|354:41|328:64,1,120
224,116,129212,2,0,B|188:64,2,60,0|8|0
256,168,129775,5,0
140,192,130150,2,0,B|124:218|173:282|204:276,2,120,8|0|8
48,112,131275,2,0,B|49:79|124:48|144:70,1,120
196,100,131837,2,0,B|202:132|280:152|297:127,1,120
352,100,132400,1,0
452,164,132775,6,0,B|483:154|493:74|465:59,2,120,4|8|0
344,220,133900,1,8
384,332,134275,2,0,B|369:360|289:350|279:319,1,120,0|8
236,276,134837,2,0,B|206:265|204:184|234:170,1,120
268,124,135400,1,8
388,124,135775,6,0,B|468:124,2,60,0|0|8
332,232,136525,2,0,B|252:232,2,60,0|0|8
452,232,137275,2,0,B|471:255|435:326|404:328,1,120,2|8
344,328,137837,2,0,B|216:328,1,120,2|0
164,328,138400,1,10
60,267,138775,5,2
60,148,139150,1,8
164,88,139525,1,0
267,148,139900,1,8
267,267,140275,2,0,B|287:275|356:256|392:188|387:156,2,180,0|0|8
267,148,141775,5,0
156,192,142150,2,0,B|28:192,2,120,8|0|8
256,260,143275,2,0,B|235:285|269:358|299:357,1,120,0|8
408,307,144025,2,0,B|428:281|394:208|363:210,1,120,0|8
256,192,144775,12,0,146275
208,66,147212,6,0,B|220:36|256:27|292:36|304:66,1,120
256,192,147775,12,0,149275
304,302,150212,6,0,B|292:332|256:341|220:332|208:302,1,120
256,192,150775,12,0,152275
208,98,153212,6,0,B|220:68|256:59|292:68|304:98,1,120
256,192,153775,12,0,155275
304,270,155650,6,0,B|292:300|256:309|220:300|208:270,2,120,8|0|8
256,192,156775,12,0,162775
