osu file format v14

[General]
AudioFilename: High Pitch Addicts Vocal Range Test.mp3
AudioLeadIn: 0
PreviewTime: 13387
Countdown: 0
SampleSet: Soft
StackLeniency: 0.7
Mode: 3
LetterboxInBreaks: 0
SpecialStyle: 0
WidescreenStoryboard: 0

[Editor]
DistanceSpacing: 1.6
BeatDivisor: 4
GridSize: 32
TimelineZoom: 2.6

[Metadata]
Title:High Pitch Addicts Vocal Range Test
TitleUnicode:高音厨音域テスト
Artist:Hatsune Miku
ArtistUnicode:初音ミク
Creator:Shirou
Version:High Pitch
Source:
Tags:Hatsune Miku
BeatmapID:596321
BeatmapSetID:261137

[Difficulty]
HPDrainRate:8
CircleSize:4
OverallDifficulty:8
ApproachRate:5
SliderMultiplier:1.6
SliderTickRate:1

[Events]
//Background and Video events
Video,0,"High Pitch Addicts Vocal Range Test.avi"
0,0,"e0081165_477e7a917b937.jpg",0,0
//Break Periods
//Storyboard Layer 0 (Background)
//Storyboard Layer 1 (Fail)
//Storyboard Layer 2 (Pass)
//Storyboard Layer 3 (Foreground)
//Storyboard Sound Samples

[TimingPoints]
388,333.333333333333,4,2,0,20,1,0
1637,-50,4,2,0,20,0,0
1679,-400,4,2,0,20,0,0
1721,-100,4,2,0,20,0,0
1804,-50,4,2,0,20,0,0
1887,-400,4,2,0,20,0,0
1971,-100,4,2,0,20,0,0
2137,-50,4,2,0,20,0,0
2221,-400,4,2,0,20,0,0
2304,-100,4,2,0,20,0,0
20304,-50,4,2,0,20,0,0
20346,-400,4,2,0,20,0,0
20387,-100,4,2,0,20,0,0
20471,-50,4,2,0,20,0,0
20512,-400,4,2,0,20,0,0
20554,-100,4,2,0,20,0,0
20637,-50,4,2,0,20,0,0
20679,-400,4,2,0,20,0,0
20721,-100,4,2,0,20,0,0
20804,-50,4,2,0,20,0,0
20846,-400,4,2,0,20,0,0
20887,-100,4,2,0,20,0,0
38971,-50,4,2,0,20,0,0
39013,-400,4,2,0,20,0,0
39054,-100,4,2,0,20,0,0
39138,-50,4,2,0,20,0,0
39179,-400,4,2,0,20,0,0
39221,-100,4,2,0,20,0,0
39304,-50,4,2,0,20,0,0
39346,-400,4,2,0,20,0,0
39388,-100,4,2,0,20,0,0
39471,-50,4,2,0,20,0,0
39513,-400,4,2,0,20,0,0
39554,-100,4,2,0,20,0,0
57637,-50,4,2,0,20,0,0
57679,-400,4,2,0,20,0,0
57720,-100,4,2,0,20,0,0
57804,-50,4,2,0,20,0,0
57846,-400,4,2,0,20,0,0
57887,-100,4,2,0,20,0,0
57971,-50,4,2,0,20,0,0
58012,-400,4,2,0,20,0,0
58054,-100,4,2,0,20,0,0
58137,-50,4,2,0,20,0,0
58179,-400,4,2,0,20,0,0
58220,-100,4,2,0,20,0,0
76262,-50,4,2,0,20,0,0
76304,-400,4,2,0,20,0,0
76346,-100,4,2,0,20,0,0
76429,-50,4,2,0,20,0,0
76471,-400,4,2,0,20,0,0
76512,-100,4,2,0,20,0,0
76596,-50,4,2,0,20,0,0
76637,-400,4,2,0,20,0,0
76679,-100,4,2,0,20,0,0
76762,-50,4,2,0,20,0,0
76804,-400,4,2,0,20,0,0
76846,-100,4,2,0,20,0,0

[HitObjects]
64,192,346,5,0,0:0:0:0:
192,192,388,1,0,0:0:0:0:
448,192,554,1,0,0:0:0:0:
320,192,721,1,0,0:0:0:0:
192,192,887,1,0,0:0:0:0:
448,192,1054,1,0,0:0:0:0:
320,192,1054,1,0,0:0:0:0:
64,192,1054,1,0,0:0:0:0:
192,192,1221,1,0,0:0:0:0:
320,192,1387,1,0,0:0:0:0:
192,192,1554,1,0,0:0:0:0:
64,192,1721,1,0,0:0:0:0:
320,192,1721,1,0,0:0:0:0:
448,192,1721,1,0,0:0:0:0:
64,192,2054,1,0,0:0:0:0:
192,192,2054,1,0,0:0:0:0:
448,192,2054,1,0,0:0:0:0:
64,192,2387,1,0,0:0:0:0:
192,192,2387,1,0,0:0:0:0:
320,192,2387,1,0,0:0:0:0:
448,192,2387,1,0,0:0:0:0:
320,192,2721,1,0,0:0:0:0:
192,192,2721,1,0,0:0:0:0:
448,192,2721,1,0,0:0:0:0:
64,192,3054,1,0,0:0:0:0:
320,192,3054,1,0,0:0:0:0:
320,192,3221,1,0,0:0:0:0:
448,192,3221,1,0,0:0:0:0:
64,192,3387,1,0,0:0:0:0:
192,192,3387,1,0,0:0:0:0:
448,192,3554,1,0,0:0:0:0:
192,192,3554,1,0,0:0:0:0:
192,192,3721,1,0,0:0:0:0:
320,192,3721,1,0,0:0:0:0:
448,192,3887,1,0,0:0:0:0:
64,192,3887,1,0,0:0:0:0:
64,192,4054,1,0,0:0:0:0:
320,192,4054,1,0,0:0:0:0:
320,192,4221,1,0,0:0:0:0:
192,192,4221,1,0,0:0:0:0:
64,192,4387,1,0,0:0:0:0:
448,192,4387,1,0,0:0:0:0:
320,192,4554,1,0,0:0:0:0:
192,192,4554,1,0,0:0:0:0:
64,192,4721,1,0,0:0:0:0:
192,192,4721,1,0,0:0:0:0:
320,192,4887,1,0,0:0:0:0:
448,192,4887,1,0,0:0:0:0:
64,192,5054,1,0,0:0:0:0:
320,192,5054,1,0,0:0:0:0:
320,192,5221,1,0,0:0:0:0:
192,192,5221,1,0,0:0:0:0:
192,192,5387,1,0,0:0:0:0:
448,192,5387,1,0,0:0:0:0:
320,192,5554,1,0,0:0:0:0:
192,192,5554,1,0,0:0:0:0:
64,192,5721,1,0,0:0:0:0:
448,192,5721,1,0,0:0:0:0:
320,192,5887,1,0,0:0:0:0:
192,192,5887,1,0,0:0:0:0:
64,192,6054,1,0,0:0:0:0:
192,192,6054,1,0,0:0:0:0:
320,192,6221,1,0,0:0:0:0:
448,192,6221,1,0,0:0:0:0:
64,192,6387,1,0,0:0:0:0:
320,192,6387,1,0,0:0:0:0:
320,192,6554,1,0,0:0:0:0:
192,192,6554,1,0,0:0:0:0:
192,192,6721,1,0,0:0:0:0:
448,192,6721,1,0,0:0:0:0:
320,192,6887,1,0,0:0:0:0:
448,192,6887,1,0,0:0:0:0:
192,192,7054,1,0,0:0:0:0:
320,192,7054,1,0,0:0:0:0:
64,192,7221,1,0,0:0:0:0:
192,192,7221,1,0,0:0:0:0:
192,192,7387,1,0,0:0:0:0:
320,192,7387,1,0,0:0:0:0:
320,192,7554,1,0,0:0:0:0:
448,192,7554,1,0,0:0:0:0:
64,192,7721,1,0,0:0:0:0:
320,192,7721,1,0,0:0:0:0:
448,192,7887,1,0,0:0:0:0:
64,192,7887,1,0,0:0:0:0:
192,192,8054,1,0,0:0:0:0:
320,192,8054,1,0,0:0:0:0:
320,192,8221,1,0,0:0:0:0:
64,192,8221,1,0,0:0:0:0:
320,192,8387,1,0,0:0:0:0:
448,192,8387,1,0,0:0:0:0:
192,192,8554,1,0,0:0:0:0:
448,192,8554,1,0,0:0:0:0:
320,192,8721,1,0,0:0:0:0:
64,192,8721,1,0,0:0:0:0:
192,192,8887,1,0,0:0:0:0:
64,192,8887,1,0,0:0:0:0:
320,192,9054,1,0,0:0:0:0:
448,192,9054,1,0,0:0:0:0:
192,192,9221,1,0,0:0:0:0:
320,192,9221,1,0,0:0:0:0:
320,192,9387,1,0,0:0:0:0:
448,192,9387,1,0,0:0:0:0:
192,192,9554,1,0,0:0:0:0:
64,192,9554,1,0,0:0:0:0:
320,192,9721,1,0,0:0:0:0:
192,192,9721,1,0,0:0:0:0:
192,192,9887,1,0,0:0:0:0:
448,192,9887,1,0,0:0:0:0:
64,192,10054,1,0,0:0:0:0:
320,192,10054,1,0,0:0:0:0:
192,192,10221,1,0,0:0:0:0:
64,192,10221,1,0,0:0:0:0:
320,192,10387,1,0,0:0:0:0:
192,192,10387,1,0,0:0:0:0:
448,192,10554,1,0,0:0:0:0:
64,192,10554,1,0,0:0:0:0:
320,192,10721,1,0,0:0:0:0:
448,192,10721,1,0,0:0:0:0:
192,192,10887,1,0,0:0:0:0:
64,192,10887,1,0,0:0:0:0:
320,192,11054,1,0,0:0:0:0:
192,192,11054,1,0,0:0:0:0:
192,192,11221,1,0,0:0:0:0:
64,192,11221,1,0,0:0:0:0:
64,192,11387,1,0,0:0:0:0:
320,192,11387,1,0,0:0:0:0:
192,192,11554,1,0,0:0:0:0:
448,192,11554,1,0,0:0:0:0:
320,192,11721,1,0,0:0:0:0:
448,192,11721,1,0,0:0:0:0:
192,192,11887,1,0,0:0:0:0:
320,192,11887,1,0,0:0:0:0:
64,192,12054,1,0,0:0:0:0:
320,192,12054,1,0,0:0:0:0:
192,192,12221,1,0,0:0:0:0:
448,192,12221,1,0,0:0:0:0:
64,192,12387,1,0,0:0:0:0:
192,192,12387,1,0,0:0:0:0:
192,192,12554,1,0,0:0:0:0:
320,192,12554,1,0,0:0:0:0:
320,192,12721,1,0,0:0:0:0:
448,192,12721,1,0,0:0:0:0:
192,192,12887,1,0,0:0:0:0:
320,192,12887,1,0,0:0:0:0:
64,192,13054,1,0,0:0:0:0:
192,192,13054,1,0,0:0:0:0:
448,192,13054,1,0,0:0:0:0:
64,192,13387,1,0,0:0:0:0:
192,192,13408,1,0,0:0:0:0:
320,192,13429,1,0,0:0:0:0:
448,192,13450,1,0,0:0:0:0:
64,192,13471,1,0,0:0:0:0:
192,192,13492,1,0,0:0:0:0:
320,192,13512,1,0,0:0:0:0:
448,192,13533,1,0,0:0:0:0:
64,192,13554,1,0,0:0:0:0:
192,192,13575,1,0,0:0:0:0:
320,192,13596,1,0,0:0:0:0:
448,192,13617,1,0,0:0:0:0:
64,192,13637,1,0,0:0:0:0:
192,192,13658,1,0,0:0:0:0:
320,192,13679,1,0,0:0:0:0:
448,192,13721,128,0,14554:0:0:0:0:
64,192,13721,1,0,0:0:0:0:
320,192,13887,1,0,0:0:0:0:
192,192,14054,1,0,0:0:0:0:
64,192,14221,1,0,0:0:0:0:
192,192,14387,1,0,0:0:0:0:
320,192,14554,1,0,0:0:0:0:
64,192,14721,128,0,15887:0:0:0:0:
448,192,14721,1,0,0:0:0:0:
192,192,14721,1,0,0:0:0:0:
192,192,15054,1,0,0:0:0:0:
448,192,15221,1,0,0:0:0:0:
320,192,15387,1,0,0:0:0:0:
448,192,15554,1,0,0:0:0:0:
320,192,15721,1,0,0:0:0:0:
192,192,15887,1,0,0:0:0:0:
448,192,16054,128,0,17054:0:0:0:0:
64,192,16054,1,0,0:0:0:0:
320,192,16054,1,0,0:0:0:0:
64,192,16387,1,0,0:0:0:0:
192,192,16554,1,0,0:0:0:0:
320,192,16721,1,0,0:0:0:0:
192,192,16887,1,0,0:0:0:0:
64,192,17054,1,0,0:0:0:0:
320,192,17054,128,0,17721:0:0:0:0:
192,192,17221,1,0,0:0:0:0:
448,192,17387,1,0,0:0:0:0:
64,192,17554,1,0,0:0:0:0:
192,192,17721,128,0,18721:0:0:0:0:
448,192,17721,1,0,0:0:0:0:
320,192,17887,1,0,0:0:0:0:
64,192,18054,1,0,0:0:0:0:
448,192,18221,1,0,0:0:0:0:
64,192,18387,1,0,0:0:0:0:
320,192,18554,1,0,0:0:0:0:
64,192,18721,1,0,0:0:0:0:
448,192,18721,1,0,0:0:0:0:
192,192,18887,1,0,0:0:0:0:
64,192,19054,1,0,0:0:0:0:
448,192,19054,1,0,0:0:0:0:
320,192,19221,1,0,0:0:0:0:
192,192,19221,1,0,0:0:0:0:
64,192,19387,1,0,0:0:0:0:
192,192,19387,1,0,0:0:0:0:
320,192,19554,1,0,0:0:0:0:
448,192,19554,1,0,0:0:0:0:
64,192,19721,1,0,0:0:0:0:
320,192,19721,1,0,0:0:0:0:
448,192,19887,1,0,0:0:0:0:
192,192,19887,1,0,0:0:0:0:
192,192,20054,1,0,0:0:0:0:
320,192,20054,1,0,0:0:0:0:
64,192,20387,1,0,0:0:0:0:
192,192,20387,1,0,0:0:0:0:
192,192,20554,1,0,0:0:0:0:
320,192,20554,1,0,0:0:0:0:
320,192,20721,1,0,0:0:0:0:
448,192,20721,1,0,0:0:0:0:
320,192,20887,1,0,0:0:0:0:
192,192,20887,1,0,0:0:0:0:
64,192,20887,1,0,0:0:0:0:
64,192,21221,1,0,0:0:0:0:
64,192,21387,1,0,0:0:0:0:
192,192,21387,1,0,0:0:0:0:
64,192,21554,1,0,0:0:0:0:
192,192,21554,1,0,0:0:0:0:
320,192,21554,1,0,0:0:0:0:
192,192,21721,1,0,0:0:0:0:
320,192,21721,1,0,0:0:0:0:
448,192,21721,1,0,0:0:0:0:
64,192,21887,1,0,0:0:0:0:
192,192,21887,1,0,0:0:0:0:
320,192,22054,1,0,0:0:0:0:
448,192,22054,1,0,0:0:0:0:
192,192,22054,1,0,0:0:0:0:
64,192,22221,1,0,0:0:0:0:
192,192,22221,1,0,0:0:0:0:
320,192,22387,1,0,0:0:0:0:
448,192,22387,1,0,0:0:0:0:
64,192,22387,1,0,0:0:0:0:
192,192,22554,1,0,0:0:0:0:
320,192,22554,1,0,0:0:0:0:
320,192,22721,1,0,0:0:0:0:
448,192,22721,1,0,0:0:0:0:
64,192,22721,1,0,0:0:0:0:
192,192,22887,1,0,0:0:0:0:
448,192,22887,1,0,0:0:0:0:
320,192,23054,1,0,0:0:0:0:
448,192,23054,1,0,0:0:0:0:
64,192,23054,1,0,0:0:0:0:
320,192,23221,1,0,0:0:0:0:
192,192,23221,1,0,0:0:0:0:
448,192,23387,1,0,0:0:0:0:
64,192,23387,1,0,0:0:0:0:
192,192,23387,1,0,0:0:0:0:
192,192,23554,1,0,0:0:0:0:
320,192,23554,1,0,0:0:0:0:
320,192,23721,1,0,0:0:0:0:
448,192,23721,1,0,0:0:0:0:
64,192,23721,1,0,0:0:0:0:
448,192,23887,1,0,0:0:0:0:
192,192,23887,1,0,0:0:0:0:
320,192,24054,1,0,0:0:0:0:
192,192,24054,1,0,0:0:0:0:
64,192,24054,1,0,0:0:0:0:
192,192,24221,1,0,0:0:0:0:
448,192,24221,1,0,0:0:0:0:
320,192,24387,1,0,0:0:0:0:
448,192,24387,1,0,0:0:0:0:
64,192,24387,1,0,0:0:0:0:
64,192,24554,1,0,0:0:0:0:
192,192,24554,1,0,0:0:0:0:
320,192,24721,1,0,0:0:0:0:
448,192,24721,1,0,0:0:0:0:
192,192,24721,1,0,0:0:0:0:
192,192,24887,1,0,0:0:0:0:
320,192,24887,1,0,0:0:0:0:
320,192,25054,1,0,0:0:0:0:
448,192,25054,1,0,0:0:0:0:
64,192,25054,1,0,0:0:0:0:
64,192,25221,1,0,0:0:0:0:
192,192,25221,1,0,0:0:0:0:
320,192,25387,1,0,0:0:0:0:
448,192,25387,1,0,0:0:0:0:
192,192,25387,1,0,0:0:0:0:
192,192,25554,1,0,0:0:0:0:
448,192,25554,1,0,0:0:0:0:
320,192,25721,1,0,0:0:0:0:
448,192,25721,1,0,0:0:0:0:
64,192,25721,1,0,0:0:0:0:
64,192,25887,1,0,0:0:0:0:
192,192,25887,1,0,0:0:0:0:
320,192,26054,1,0,0:0:0:0:
192,192,26054,1,0,0:0:0:0:
448,192,26054,1,0,0:0:0:0:
192,192,26221,1,0,0:0:0:0:
320,192,26221,1,0,0:0:0:0:
320,192,26387,1,0,0:0:0:0:
448,192,26387,1,0,0:0:0:0:
64,192,26387,1,0,0:0:0:0:
448,192,26554,1,0,0:0:0:0:
192,192,26554,1,0,0:0:0:0:
320,192,26721,1,0,0:0:0:0:
448,192,26721,1,0,0:0:0:0:
192,192,26721,1,0,0:0:0:0:
64,192,26887,1,0,0:0:0:0:
320,192,26887,1,0,0:0:0:0:
64,192,27054,1,0,0:0:0:0:
320,192,27054,1,0,0:0:0:0:
192,192,27054,1,0,0:0:0:0:
192,192,27221,1,0,0:0:0:0:
320,192,27221,1,0,0:0:0:0:
64,192,27387,1,0,0:0:0:0:
320,192,27387,1,0,0:0:0:0:
448,192,27387,1,0,0:0:0:0:
192,192,27554,1,0,0:0:0:0:
320,192,27554,1,0,0:0:0:0:
64,192,27721,1,0,0:0:0:0:
448,192,27721,1,0,0:0:0:0:
192,192,27721,1,0,0:0:0:0:
192,192,27887,1,0,0:0:0:0:
320,192,27887,1,0,0:0:0:0:
64,192,28054,1,0,0:0:0:0:
320,192,28054,1,0,0:0:0:0:
448,192,28054,1,0,0:0:0:0:
192,192,28221,1,0,0:0:0:0:
448,192,28221,1,0,0:0:0:0:
320,192,28387,1,0,0:0:0:0:
192,192,28387,1,0,0:0:0:0:
64,192,28387,1,0,0:0:0:0:
192,192,28554,1,0,0:0:0:0:
448,192,28554,1,0,0:0:0:0:
64,192,28721,1,0,0:0:0:0:
192,192,28721,1,0,0:0:0:0:
320,192,28721,1,0,0:0:0:0:
192,192,28887,1,0,0:0:0:0:
448,192,28887,1,0,0:0:0:0:
64,192,29054,1,0,0:0:0:0:
320,192,29054,1,0,0:0:0:0:
448,192,29054,1,0,0:0:0:0:
192,192,29221,1,0,0:0:0:0:
448,192,29221,1,0,0:0:0:0:
64,192,29387,1,0,0:0:0:0:
320,192,29387,1,0,0:0:0:0:
448,192,29387,1,0,0:0:0:0:
192,192,29554,1,0,0:0:0:0:
320,192,29554,1,0,0:0:0:0:
64,192,29721,1,0,0:0:0:0:
192,192,29721,1,0,0:0:0:0:
448,192,29721,1,0,0:0:0:0:
64,192,29887,1,0,0:0:0:0:
320,192,29887,1,0,0:0:0:0:
320,192,30054,1,0,0:0:0:0:
448,192,30054,1,0,0:0:0:0:
192,192,30054,1,0,0:0:0:0:
320,192,30221,1,0,0:0:0:0:
64,192,30221,1,0,0:0:0:0:
64,192,30387,1,0,0:0:0:0:
448,192,30387,1,0,0:0:0:0:
192,192,30387,1,0,0:0:0:0:
192,192,30554,1,0,0:0:0:0:
320,192,30554,1,0,0:0:0:0:
64,192,30721,1,0,0:0:0:0:
192,192,30721,1,0,0:0:0:0:
448,192,30721,1,0,0:0:0:0:
192,192,30887,1,0,0:0:0:0:
448,192,30887,1,0,0:0:0:0:
64,192,31054,128,0,31721:0:0:0:0:
320,192,31054,128,0,31721:0:0:0:0:
448,192,31221,1,0,0:0:0:0:
192,192,31387,1,0,0:0:0:0:
448,192,31554,1,0,0:0:0:0:
192,192,31721,1,0,0:0:0:0:
448,192,31721,1,0,0:0:0:0:
448,192,32054,1,0,0:0:0:0:
320,192,32075,1,0,0:0:0:0:
192,192,32096,1,0,0:0:0:0:
64,192,32117,1,0,0:0:0:0:
448,192,32137,1,0,0:0:0:0:
320,192,32158,1,0,0:0:0:0:
192,192,32179,1,0,0:0:0:0:
64,192,32200,1,0,0:0:0:0:
448,192,32221,1,0,0:0:0:0:
320,192,32242,1,0,0:0:0:0:
192,192,32262,1,0,0:0:0:0:
64,192,32283,1,0,0:0:0:0:
448,192,32304,1,0,0:0:0:0:
320,192,32325,1,0,0:0:0:0:
192,192,32346,1,0,0:0:0:0:
448,192,32387,1,0,0:0:0:0:
64,192,32387,128,0,33221:0:0:0:0:
448,192,32554,1,0,0:0:0:0:
192,192,32721,1,0,0:0:0:0:
448,192,32721,1,0,0:0:0:0:
320,192,32887,1,0,0:0:0:0:
320,192,33054,1,0,0:0:0:0:
448,192,33054,1,0,0:0:0:0:
192,192,33221,1,0,0:0:0:0:
192,192,33387,128,0,34554:0:0:0:0:
64,192,33387,1,0,0:0:0:0:
448,192,33387,1,0,0:0:0:0:
320,192,33721,1,0,0:0:0:0:
64,192,33721,1,0,0:0:0:0:
448,192,33887,1,0,0:0:0:0:
320,192,34054,1,0,0:0:0:0:
448,192,34054,1,0,0:0:0:0:
64,192,34221,1,0,0:0:0:0:
320,192,34387,1,0,0:0:0:0:
64,192,34387,1,0,0:0:0:0:
448,192,34554,1,0,0:0:0:0:
448,192,34721,128,0,35721:0:0:0:0:
64,192,34721,1,0,0:0:0:0:
320,192,34721,1,0,0:0:0:0:
320,192,35054,1,0,0:0:0:0:
64,192,35054,1,0,0:0:0:0:
192,192,35221,1,0,0:0:0:0:
64,192,35387,1,0,0:0:0:0:
320,192,35387,1,0,0:0:0:0:
192,192,35554,1,0,0:0:0:0:
320,192,35721,128,0,36387:0:0:0:0:
64,192,35721,1,0,0:0:0:0:
192,192,35887,1,0,0:0:0:0:
192,192,36054,1,0,0:0:0:0:
448,192,36054,1,0,0:0:0:0:
64,192,36221,1,0,0:0:0:0:
448,192,36387,128,0,37221:0:0:0:0:
192,192,36387,1,0,0:0:0:0:
64,192,36554,1,0,0:0:0:0:
192,192,36721,1,0,0:0:0:0:
320,192,36721,1,0,0:0:0:0:
192,192,36887,1,0,0:0:0:0:
64,192,37054,1,0,0:0:0:0:
320,192,37054,1,0,0:0:0:0:
64,192,37221,1,0,0:0:0:0:
192,192,37387,1,0,0:0:0:0:
448,192,37387,1,0,0:0:0:0:
320,192,37554,1,0,0:0:0:0:
64,192,37721,1,0,0:0:0:0:
192,192,37721,1,0,0:0:0:0:
320,192,37721,1,0,0:0:0:0:
448,192,37887,1,0,0:0:0:0:
192,192,37887,1,0,0:0:0:0:
64,192,38054,1,0,0:0:0:0:
320,192,38054,1,0,0:0:0:0:
448,192,38054,1,0,0:0:0:0:
320,192,38221,1,0,0:0:0:0:
192,192,38221,1,0,0:0:0:0:
192,192,38387,1,0,0:0:0:0:
64,192,38387,1,0,0:0:0:0:
448,192,38387,1,0,0:0:0:0:
192,192,38554,1,0,0:0:0:0:
320,192,38554,1,0,0:0:0:0:
192,192,38721,1,0,0:0:0:0:
64,192,38721,1,0,0:0:0:0:
448,192,38721,1,0,0:0:0:0:
320,192,38887,1,0,0:0:0:0:
192,192,38887,1,0,0:0:0:0:
192,192,39054,1,0,0:0:0:0:
64,192,39054,1,0,0:0:0:0:
320,192,39054,1,0,0:0:0:0:
448,192,39221,1,0,0:0:0:0:
192,192,39221,1,0,0:0:0:0:
64,192,39387,1,0,0:0:0:0:
192,192,39387,1,0,0:0:0:0:
320,192,39387,1,0,0:0:0:0:
448,192,39554,1,0,0:0:0:0:
192,192,39554,1,0,0:0:0:0:
320,192,39887,1,0,0:0:0:0:
192,192,39887,1,0,0:0:0:0:
448,192,39887,1,0,0:0:0:0:
192,192,40054,1,0,0:0:0:0:
64,192,40054,1,0,0:0:0:0:
320,192,40054,1,0,0:0:0:0:
64,192,40221,1,0,0:0:0:0:
192,192,40221,1,0,0:0:0:0:
448,192,40221,1,0,0:0:0:0:
64,192,40387,1,0,0:0:0:0:
192,192,40387,1,0,0:0:0:0:
320,192,40387,1,0,0:0:0:0:
320,192,40554,1,0,0:0:0:0:
448,192,40554,1,0,0:0:0:0:
192,192,40554,1,0,0:0:0:0:
64,192,40721,1,0,0:0:0:0:
192,192,40721,1,0,0:0:0:0:
448,192,40721,1,0,0:0:0:0:
320,192,40887,1,0,0:0:0:0:
448,192,40887,1,0,0:0:0:0:
64,192,40887,1,0,0:0:0:0:
64,192,41054,1,0,0:0:0:0:
320,192,41054,1,0,0:0:0:0:
192,192,41054,1,0,0:0:0:0:
64,192,41221,1,0,0:0:0:0:
192,192,41221,1,0,0:0:0:0:
448,192,41221,1,0,0:0:0:0:
64,192,41387,1,0,0:0:0:0:
192,192,41387,1,0,0:0:0:0:
320,192,41387,1,0,0:0:0:0:
320,192,41554,1,0,0:0:0:0:
448,192,41554,1,0,0:0:0:0:
64,192,41554,1,0,0:0:0:0:
64,192,41721,1,0,0:0:0:0:
192,192,41721,1,0,0:0:0:0:
320,192,41721,1,0,0:0:0:0:
320,192,41887,1,0,0:0:0:0:
448,192,41887,1,0,0:0:0:0:
192,192,41887,1,0,0:0:0:0:
64,192,42054,1,0,0:0:0:0:
192,192,42054,1,0,0:0:0:0:
448,192,42054,1,0,0:0:0:0:
320,192,42221,1,0,0:0:0:0:
448,192,42221,1,0,0:0:0:0:
64,192,42221,1,0,0:0:0:0:
192,192,42387,1,0,0:0:0:0:
320,192,42387,1,0,0:0:0:0:
448,192,42387,1,0,0:0:0:0:
320,192,42554,1,0,0:0:0:0:
448,192,42554,1,0,0:0:0:0:
64,192,42554,1,0,0:0:0:0:
64,192,42721,1,0,0:0:0:0:
192,192,42721,1,0,0:0:0:0:
320,192,42721,1,0,0:0:0:0:
320,192,42887,1,0,0:0:0:0:
448,192,42887,1,0,0:0:0:0:
64,192,42887,1,0,0:0:0:0:
64,192,43054,1,0,0:0:0:0:
192,192,43054,1,0,0:0:0:0:
320,192,43054,1,0,0:0:0:0:
64,192,43221,1,0,0:0:0:0:
192,192,43221,1,0,0:0:0:0:
448,192,43221,1,0,0:0:0:0:
192,192,43387,1,0,0:0:0:0:
448,192,43387,1,0,0:0:0:0:
320,192,43387,1,0,0:0:0:0:
448,192,43554,1,0,0:0:0:0:
64,192,43554,1,0,0:0:0:0:
320,192,43554,1,0,0:0:0:0:
64,192,43721,1,0,0:0:0:0:
192,192,43721,1,0,0:0:0:0:
320,192,43721,1,0,0:0:0:0:
320,192,43887,1,0,0:0:0:0:
448,192,43887,1,0,0:0:0:0:
192,192,43887,1,0,0:0:0:0:
192,192,44054,1,0,0:0:0:0:
448,192,44054,1,0,0:0:0:0:
64,192,44054,1,0,0:0:0:0:
192,192,44221,1,0,0:0:0:0:
320,192,44221,1,0,0:0:0:0:
64,192,44221,1,0,0:0:0:0:
64,192,44387,1,0,0:0:0:0:
192,192,44387,1,0,0:0:0:0:
448,192,44387,1,0,0:0:0:0:
320,192,44554,1,0,0:0:0:0:
448,192,44554,1,0,0:0:0:0:
64,192,44554,1,0,0:0:0:0:
64,192,44721,1,0,0:0:0:0:
192,192,44721,1,0,0:0:0:0:
448,192,44721,1,0,0:0:0:0:
320,192,44887,1,0,0:0:0:0:
64,192,44887,1,0,0:0:0:0:
192,192,44887,1,0,0:0:0:0:
64,192,45054,1,0,0:0:0:0:
192,192,45054,1,0,0:0:0:0:
448,192,45054,1,0,0:0:0:0:
320,192,45221,1,0,0:0:0:0:
448,192,45221,1,0,0:0:0:0:
192,192,45221,1,0,0:0:0:0:
64,192,45387,1,0,0:0:0:0:
192,192,45387,1,0,0:0:0:0:
448,192,45387,1,0,0:0:0:0:
320,192,45554,1,0,0:0:0:0:
448,192,45554,1,0,0:0:0:0:
192,192,45554,1,0,0:0:0:0:
64,192,45721,1,0,0:0:0:0:
320,192,45721,1,0,0:0:0:0:
192,192,45721,1,0,0:0:0:0:
192,192,45887,1,0,0:0:0:0:
448,192,45887,1,0,0:0:0:0:
64,192,45887,1,0,0:0:0:0:
64,192,46054,1,0,0:0:0:0:
320,192,46054,1,0,0:0:0:0:
448,192,46054,1,0,0:0:0:0:
192,192,46221,1,0,0:0:0:0:
448,192,46221,1,0,0:0:0:0:
320,192,46221,1,0,0:0:0:0:
64,192,46387,1,0,0:0:0:0:
320,192,46387,1,0,0:0:0:0:
192,192,46387,1,0,0:0:0:0:
192,192,46554,1,0,0:0:0:0:
448,192,46554,1,0,0:0:0:0:
64,192,46554,1,0,0:0:0:0:
320,192,46721,1,0,0:0:0:0:
64,192,46721,1,0,0:0:0:0:
192,192,46721,1,0,0:0:0:0:
192,192,46887,1,0,0:0:0:0:
448,192,46887,1,0,0:0:0:0:
320,192,46887,1,0,0:0:0:0:
64,192,47054,1,0,0:0:0:0:
320,192,47054,1,0,0:0:0:0:
448,192,47054,1,0,0:0:0:0:
192,192,47221,1,0,0:0:0:0:
448,192,47221,1,0,0:0:0:0:
320,192,47221,1,0,0:0:0:0:
64,192,47387,1,0,0:0:0:0:
320,192,47387,1,0,0:0:0:0:
192,192,47387,1,0,0:0:0:0:
192,192,47554,1,0,0:0:0:0:
448,192,47554,1,0,0:0:0:0:
64,192,47554,1,0,0:0:0:0:
64,192,47721,1,0,0:0:0:0:
320,192,47721,1,0,0:0:0:0:
192,192,47721,1,0,0:0:0:0:
192,192,47887,1,0,0:0:0:0:
448,192,47887,1,0,0:0:0:0:
320,192,47887,1,0,0:0:0:0:
64,192,48054,1,0,0:0:0:0:
320,192,48054,1,0,0:0:0:0:
448,192,48054,1,0,0:0:0:0:
192,192,48221,1,0,0:0:0:0:
448,192,48221,1,0,0:0:0:0:
320,192,48221,1,0,0:0:0:0:
64,192,48387,1,0,0:0:0:0:
320,192,48387,1,0,0:0:0:0:
192,192,48387,1,0,0:0:0:0:
192,192,48554,1,0,0:0:0:0:
448,192,48554,1,0,0:0:0:0:
64,192,48554,1,0,0:0:0:0:
64,192,48721,1,0,0:0:0:0:
320,192,48721,1,0,0:0:0:0:
192,192,48721,1,0,0:0:0:0:
192,192,48887,1,0,0:0:0:0:
448,192,48887,1,0,0:0:0:0:
320,192,48887,1,0,0:0:0:0:
64,192,49054,1,0,0:0:0:0:
320,192,49054,1,0,0:0:0:0:
192,192,49054,1,0,0:0:0:0:
192,192,49221,1,0,0:0:0:0:
448,192,49221,1,0,0:0:0:0:
64,192,49221,1,0,0:0:0:0:
64,192,49387,1,0,0:0:0:0:
320,192,49387,1,0,0:0:0:0:
448,192,49387,1,0,0:0:0:0:
192,192,49554,1,0,0:0:0:0:
320,192,49554,1,0,0:0:0:0:
64,192,49554,1,0,0:0:0:0:
320,192,49721,128,0,50387:0:0:0:0:
64,192,49721,128,0,50387:0:0:0:0:
192,192,49721,1,0,0:0:0:0:
448,192,49887,1,0,0:0:0:0:
192,192,50054,1,0,0:0:0:0:
448,192,50221,1,0,0:0:0:0:
192,192,50387,1,0,0:0:0:0:
448,192,50387,1,0,0:0:0:0:
64,192,50721,1,0,0:0:0:0:
192,192,50742,1,0,0:0:0:0:
320,192,50762,1,0,0:0:0:0:
448,192,50783,1,0,0:0:0:0:
64,192,50804,1,0,0:0:0:0:
192,192,50825,1,0,0:0:0:0:
320,192,50846,1,0,0:0:0:0:
448,192,50867,1,0,0:0:0:0:
64,192,50887,1,0,0:0:0:0:
192,192,50908,1,0,0:0:0:0:
320,192,50929,1,0,0:0:0:0:
448,192,50950,1,0,0:0:0:0:
64,192,50971,1,0,0:0:0:0:
192,192,50992,1,0,0:0:0:0:
320,192,51012,1,0,0:0:0:0:
448,192,51054,128,0,51887:0:0:0:0:
64,192,51054,1,0,0:0:0:0:
192,192,51221,1,0,0:0:0:0:
320,192,51221,1,0,0:0:0:0:
64,192,51387,1,0,0:0:0:0:
192,192,51387,1,0,0:0:0:0:
320,192,51554,1,0,0:0:0:0:
64,192,51554,1,0,0:0:0:0:
320,192,51721,1,0,0:0:0:0:
192,192,51721,1,0,0:0:0:0:
64,192,51887,1,0,0:0:0:0:
320,192,51887,1,0,0:0:0:0:
64,192,52054,128,0,52137:0:0:0:0:
192,192,52054,1,0,0:0:0:0:
448,192,52054,1,0,0:0:0:0:
64,192,52221,128,0,52304:0:0:0:0:
448,192,52387,1,0,0:0:0:0:
64,192,52387,128,0,53387:0:0:0:0:
192,192,52387,1,0,0:0:0:0:
448,192,52554,1,0,0:0:0:0:
320,192,52554,1,0,0:0:0:0:
192,192,52721,1,0,0:0:0:0:
320,192,52721,1,0,0:0:0:0:
448,192,52887,1,0,0:0:0:0:
192,192,52887,1,0,0:0:0:0:
448,192,53054,1,0,0:0:0:0:
320,192,53054,1,0,0:0:0:0:
448,192,53221,1,0,0:0:0:0:
192,192,53221,1,0,0:0:0:0:
448,192,53387,128,0,53471:0:0:0:0:
192,192,53387,1,0,0:0:0:0:
448,192,53554,128,0,53637:0:0:0:0:
64,192,53554,1,0,0:0:0:0:
64,192,53721,1,0,0:0:0:0:
448,192,53721,128,0,54054:0:0:0:0:
192,192,53721,1,0,0:0:0:0:
192,192,53887,1,0,0:0:0:0:
320,192,53887,1,0,0:0:0:0:
320,192,54054,128,0,54387:0:0:0:0:
64,192,54054,1,0,0:0:0:0:
448,192,54221,1,0,0:0:0:0:
64,192,54221,1,0,0:0:0:0:
192,192,54387,128,0,55054:0:0:0:0:
448,192,54387,1,0,0:0:0:0:
320,192,54554,1,0,0:0:0:0:
64,192,54554,1,0,0:0:0:0:
448,192,54721,1,0,0:0:0:0:
320,192,54721,1,0,0:0:0:0:
64,192,54887,1,0,0:0:0:0:
448,192,54887,1,0,0:0:0:0:
64,192,55054,128,0,55887:0:0:0:0:
320,192,55054,1,0,0:0:0:0:
448,192,55221,1,0,0:0:0:0:
192,192,55221,1,0,0:0:0:0:
448,192,55387,1,0,0:0:0:0:
320,192,55387,1,0,0:0:0:0:
448,192,55554,1,0,0:0:0:0:
192,192,55554,1,0,0:0:0:0:
192,192,55721,1,0,0:0:0:0:
320,192,55721,1,0,0:0:0:0:
192,192,55887,1,0,0:0:0:0:
448,192,55887,1,0,0:0:0:0:
320,192,56054,1,0,0:0:0:0:
192,192,56221,1,0,0:0:0:0:
192,192,56387,1,0,0:0:0:0:
64,192,56387,1,0,0:0:0:0:
320,192,56387,1,0,0:0:0:0:
64,192,56554,1,0,0:0:0:0:
192,192,56554,1,0,0:0:0:0:
448,192,56554,1,0,0:0:0:0:
64,192,56721,1,0,0:0:0:0:
320,192,56721,1,0,0:0:0:0:
448,192,56721,1,0,0:0:0:0:
192,192,56887,1,0,0:0:0:0:
320,192,56887,1,0,0:0:0:0:
448,192,56887,1,0,0:0:0:0:
192,192,57054,1,0,0:0:0:0:
320,192,57054,1,0,0:0:0:0:
448,192,57054,1,0,0:0:0:0:
64,192,57221,1,0,0:0:0:0:
320,192,57221,1,0,0:0:0:0:
448,192,57221,1,0,0:0:0:0:
64,192,57387,1,0,0:0:0:0:
192,192,57387,1,0,0:0:0:0:
448,192,57387,1,0,0:0:0:0:
64,192,57554,1,0,0:0:0:0:
192,192,57554,1,0,0:0:0:0:
320,192,57554,1,0,0:0:0:0:
64,192,57721,1,0,0:0:0:0:
192,192,57721,1,0,0:0:0:0:
320,192,57721,1,0,0:0:0:0:
448,192,57721,1,0,0:0:0:0:
64,192,57887,1,0,0:0:0:0:
192,192,57887,1,0,0:0:0:0:
320,192,57887,1,0,0:0:0:0:
448,192,57887,1,0,0:0:0:0:
64,192,58054,1,0,0:0:0:0:
192,192,58054,1,0,0:0:0:0:
320,192,58054,1,0,0:0:0:0:
448,192,58054,1,0,0:0:0:0:
64,192,58221,1,0,0:0:0:0:
192,192,58221,1,0,0:0:0:0:
320,192,58221,1,0,0:0:0:0:
448,192,58221,1,0,0:0:0:0:
64,192,58554,1,0,0:0:0:0:
192,192,58554,1,0,0:0:0:0:
448,192,58554,1,0,0:0:0:0:
64,192,58721,1,0,0:0:0:0:
448,192,58721,1,0,0:0:0:0:
320,192,58721,1,0,0:0:0:0:
192,192,58887,1,0,0:0:0:0:
320,192,58887,1,0,0:0:0:0:
448,192,58887,1,0,0:0:0:0:
64,192,59054,1,0,0:0:0:0:
192,192,59054,1,0,0:0:0:0:
320,192,59054,1,0,0:0:0:0:
448,192,59054,1,0,0:0:0:0:
64,192,59221,1,0,0:0:0:0:
192,192,59221,1,0,0:0:0:0:
320,192,59221,1,0,0:0:0:0:
64,192,59387,1,0,0:0:0:0:
192,192,59387,1,0,0:0:0:0:
320,192,59387,1,0,0:0:0:0:
448,192,59387,1,0,0:0:0:0:
64,192,59554,1,0,0:0:0:0:
192,192,59554,1,0,0:0:0:0:
448,192,59554,1,0,0:0:0:0:
192,192,59721,1,0,0:0:0:0:
320,192,59721,1,0,0:0:0:0:
448,192,59721,1,0,0:0:0:0:
64,192,59721,1,0,0:0:0:0:
192,192,59887,1,0,0:0:0:0:
320,192,59887,1,0,0:0:0:0:
448,192,59887,1,0,0:0:0:0:
64,192,60054,1,0,0:0:0:0:
192,192,60054,1,0,0:0:0:0:
320,192,60054,1,0,0:0:0:0:
448,192,60054,1,0,0:0:0:0:
64,192,60221,1,0,0:0:0:0:
192,192,60221,1,0,0:0:0:0:
320,192,60221,1,0,0:0:0:0:
64,192,60387,1,0,0:0:0:0:
192,192,60387,1,0,0:0:0:0:
320,192,60387,1,0,0:0:0:0:
448,192,60387,1,0,0:0:0:0:
64,192,60554,1,0,0:0:0:0:
192,192,60554,1,0,0:0:0:0:
448,192,60554,1,0,0:0:0:0:
64,192,60721,1,0,0:0:0:0:
192,192,60721,1,0,0:0:0:0:
320,192,60721,1,0,0:0:0:0:
448,192,60721,1,0,0:0:0:0:
64,192,60887,1,0,0:0:0:0:
320,192,60887,1,0,0:0:0:0:
448,192,60887,1,0,0:0:0:0:
64,192,61054,1,0,0:0:0:0:
192,192,61054,1,0,0:0:0:0:
320,192,61054,1,0,0:0:0:0:
448,192,61054,1,0,0:0:0:0:
64,192,61221,1,0,0:0:0:0:
192,192,61221,1,0,0:0:0:0:
320,192,61221,1,0,0:0:0:0:
64,192,61387,1,0,0:0:0:0:
192,192,61387,1,0,0:0:0:0:
320,192,61387,1,0,0:0:0:0:
448,192,61387,1,0,0:0:0:0:
64,192,61554,1,0,0:0:0:0:
448,192,61554,1,0,0:0:0:0:
320,192,61554,1,0,0:0:0:0:
64,192,61721,1,0,0:0:0:0:
192,192,61721,1,0,0:0:0:0:
320,192,61721,1,0,0:0:0:0:
448,192,61721,1,0,0:0:0:0:
448,192,61887,1,0,0:0:0:0:
320,192,61887,1,0,0:0:0:0:
192,192,61887,1,0,0:0:0:0:
64,192,62054,1,0,0:0:0:0:
192,192,62054,1,0,0:0:0:0:
320,192,62054,1,0,0:0:0:0:
448,192,62054,1,0,0:0:0:0:
64,192,62221,1,0,0:0:0:0:
320,192,62221,1,0,0:0:0:0:
448,192,62221,1,0,0:0:0:0:
64,192,62387,1,0,0:0:0:0:
192,192,62387,1,0,0:0:0:0:
320,192,62387,1,0,0:0:0:0:
448,192,62387,1,0,0:0:0:0:
192,192,62554,1,0,0:0:0:0:
64,192,62554,1,0,0:0:0:0:
448,192,62554,1,0,0:0:0:0:
192,192,62721,1,0,0:0:0:0:
64,192,62721,1,0,0:0:0:0:
320,192,62721,1,0,0:0:0:0:
448,192,62721,1,0,0:0:0:0:
192,192,62887,1,0,0:0:0:0:
320,192,62887,1,0,0:0:0:0:
448,192,62887,1,0,0:0:0:0:
64,192,63054,1,0,0:0:0:0:
192,192,63054,1,0,0:0:0:0:
320,192,63054,1,0,0:0:0:0:
448,192,63054,1,0,0:0:0:0:
192,192,63221,1,0,0:0:0:0:
64,192,63221,1,0,0:0:0:0:
320,192,63221,1,0,0:0:0:0:
64,192,63387,1,0,0:0:0:0:
192,192,63387,1,0,0:0:0:0:
320,192,63387,1,0,0:0:0:0:
448,192,63387,1,0,0:0:0:0:
64,192,63554,1,0,0:0:0:0:
192,192,63554,1,0,0:0:0:0:
448,192,63554,1,0,0:0:0:0:
64,192,63721,1,0,0:0:0:0:
192,192,63721,1,0,0:0:0:0:
320,192,63721,1,0,0:0:0:0:
448,192,63721,1,0,0:0:0:0:
64,192,63887,1,0,0:0:0:0:
320,192,63887,1,0,0:0:0:0:
448,192,63887,1,0,0:0:0:0:
64,192,64054,1,0,0:0:0:0:
192,192,64054,1,0,0:0:0:0:
320,192,64054,1,0,0:0:0:0:
448,192,64054,1,0,0:0:0:0:
64,192,64221,1,0,0:0:0:0:
192,192,64221,1,0,0:0:0:0:
320,192,64221,1,0,0:0:0:0:
64,192,64387,1,0,0:0:0:0:
320,192,64387,1,0,0:0:0:0:
448,192,64387,1,0,0:0:0:0:
192,192,64387,1,0,0:0:0:0:
64,192,64554,1,0,0:0:0:0:
192,192,64554,1,0,0:0:0:0:
448,192,64554,1,0,0:0:0:0:
64,192,64721,1,0,0:0:0:0:
192,192,64721,1,0,0:0:0:0:
320,192,64721,1,0,0:0:0:0:
448,192,64721,1,0,0:0:0:0:
448,192,64887,1,0,0:0:0:0:
320,192,64887,1,0,0:0:0:0:
192,192,64887,1,0,0:0:0:0:
64,192,65054,1,0,0:0:0:0:
192,192,65054,1,0,0:0:0:0:
320,192,65054,1,0,0:0:0:0:
448,192,65054,1,0,0:0:0:0:
64,192,65221,1,0,0:0:0:0:
320,192,65221,1,0,0:0:0:0:
192,192,65221,1,0,0:0:0:0:
320,192,65387,1,0,0:0:0:0:
64,192,65387,1,0,0:0:0:0:
192,192,65387,1,0,0:0:0:0:
448,192,65387,1,0,0:0:0:0:
64,192,65554,1,0,0:0:0:0:
320,192,65554,1,0,0:0:0:0:
448,192,65554,1,0,0:0:0:0:
320,192,65721,1,0,0:0:0:0:
64,192,65721,1,0,0:0:0:0:
192,192,65721,1,0,0:0:0:0:
448,192,65721,1,0,0:0:0:0:
320,192,65887,1,0,0:0:0:0:
64,192,65887,1,0,0:0:0:0:
192,192,65887,1,0,0:0:0:0:
320,192,66054,1,0,0:0:0:0:
64,192,66054,1,0,0:0:0:0:
192,192,66054,1,0,0:0:0:0:
448,192,66054,1,0,0:0:0:0:
64,192,66221,1,0,0:0:0:0:
320,192,66221,1,0,0:0:0:0:
448,192,66221,1,0,0:0:0:0:
320,192,66387,1,0,0:0:0:0:
64,192,66387,1,0,0:0:0:0:
192,192,66387,1,0,0:0:0:0:
448,192,66387,1,0,0:0:0:0:
64,192,66554,1,0,0:0:0:0:
320,192,66554,1,0,0:0:0:0:
192,192,66554,1,0,0:0:0:0:
320,192,66721,1,0,0:0:0:0:
64,192,66721,1,0,0:0:0:0:
192,192,66721,1,0,0:0:0:0:
448,192,66721,1,0,0:0:0:0:
320,192,66887,1,0,0:0:0:0:
64,192,66887,1,0,0:0:0:0:
448,192,66887,1,0,0:0:0:0:
320,192,67054,1,0,0:0:0:0:
64,192,67054,1,0,0:0:0:0:
192,192,67054,1,0,0:0:0:0:
448,192,67054,1,0,0:0:0:0:
320,192,67221,1,0,0:0:0:0:
192,192,67221,1,0,0:0:0:0:
448,192,67221,1,0,0:0:0:0:
64,192,67387,1,0,0:0:0:0:
320,192,67387,1,0,0:0:0:0:
192,192,67387,1,0,0:0:0:0:
448,192,67387,1,0,0:0:0:0:
64,192,67554,1,0,0:0:0:0:
320,192,67554,1,0,0:0:0:0:
448,192,67554,1,0,0:0:0:0:
64,192,67721,1,0,0:0:0:0:
320,192,67721,1,0,0:0:0:0:
192,192,67721,1,0,0:0:0:0:
448,192,67721,1,0,0:0:0:0:
320,192,67887,1,0,0:0:0:0:
64,192,67887,1,0,0:0:0:0:
192,192,67887,1,0,0:0:0:0:
320,192,68054,1,0,0:0:0:0:
64,192,68054,1,0,0:0:0:0:
192,192,68054,1,0,0:0:0:0:
448,192,68054,1,0,0:0:0:0:
320,192,68221,1,0,0:0:0:0:
64,192,68221,1,0,0:0:0:0:
448,192,68221,1,0,0:0:0:0:
64,192,68387,128,0,69054:0:0:0:0:
320,192,68387,128,0,69054:0:0:0:0:
192,192,68387,1,0,0:0:0:0:
448,192,68554,1,0,0:0:0:0:
192,192,68721,1,0,0:0:0:0:
448,192,68887,1,0,0:0:0:0:
192,192,69054,1,0,0:0:0:0:
448,192,69054,1,0,0:0:0:0:
64,192,69387,128,0,69471:0:0:0:0:
448,192,69387,1,0,0:0:0:0:
320,192,69408,1,0,0:0:0:0:
192,192,69429,1,0,0:0:0:0:
448,192,69450,1,0,0:0:0:0:
320,192,69471,1,0,0:0:0:0:
192,192,69492,1,0,0:0:0:0:
448,192,69512,1,0,0:0:0:0:
320,192,69533,1,0,0:0:0:0:
64,192,69554,128,0,69637:0:0:0:0:
192,192,69554,1,0,0:0:0:0:
448,192,69575,1,0,0:0:0:0:
320,192,69596,1,0,0:0:0:0:
192,192,69617,1,0,0:0:0:0:
448,192,69637,1,0,0:0:0:0:
320,192,69658,1,0,0:0:0:0:
192,192,69679,1,0,0:0:0:0:
448,192,69700,1,0,0:0:0:0:
64,192,69721,128,0,70721:0:0:0:0:
320,192,69721,1,0,0:0:0:0:
192,192,69887,1,0,0:0:0:0:
448,192,69887,1,0,0:0:0:0:
192,192,70054,1,0,0:0:0:0:
320,192,70054,1,0,0:0:0:0:
448,192,70054,1,0,0:0:0:0:
320,192,70221,1,0,0:0:0:0:
448,192,70221,1,0,0:0:0:0:
192,192,70387,1,0,0:0:0:0:
320,192,70387,1,0,0:0:0:0:
448,192,70387,1,0,0:0:0:0:
192,192,70554,1,0,0:0:0:0:
320,192,70554,1,0,0:0:0:0:
448,192,70721,128,0,70804:0:0:0:0:
192,192,70721,1,0,0:0:0:0:
320,192,70721,1,0,0:0:0:0:
448,192,70887,128,0,70971:0:0:0:0:
64,192,70887,1,0,0:0:0:0:
192,192,70887,1,0,0:0:0:0:
448,192,71054,128,0,72054:0:0:0:0:
64,192,71054,1,0,0:0:0:0:
192,192,71054,1,0,0:0:0:0:
320,192,71054,1,0,0:0:0:0:
192,192,71221,1,0,0:0:0:0:
320,192,71221,1,0,0:0:0:0:
64,192,71387,1,0,0:0:0:0:
192,192,71387,1,0,0:0:0:0:
320,192,71387,1,0,0:0:0:0:
64,192,71554,1,0,0:0:0:0:
320,192,71554,1,0,0:0:0:0:
64,192,71721,1,0,0:0:0:0:
192,192,71721,1,0,0:0:0:0:
320,192,71721,1,0,0:0:0:0:
64,192,71887,1,0,0:0:0:0:
192,192,71887,1,0,0:0:0:0:
64,192,72054,128,0,72137:0:0:0:0:
192,192,72054,1,0,0:0:0:0:
320,192,72054,1,0,0:0:0:0:
64,192,72221,128,0,72304:0:0:0:0:
192,192,72221,1,0,0:0:0:0:
448,192,72221,1,0,0:0:0:0:
64,192,72387,128,0,72721:0:0:0:0:
192,192,72387,1,0,0:0:0:0:
320,192,72387,1,0,0:0:0:0:
448,192,72387,1,0,0:0:0:0:
320,192,72554,1,0,0:0:0:0:
448,192,72554,1,0,0:0:0:0:
192,192,72721,128,0,73054:0:0:0:0:
320,192,72721,1,0,0:0:0:0:
448,192,72721,1,0,0:0:0:0:
64,192,72887,1,0,0:0:0:0:
448,192,72887,1,0,0:0:0:0:
320,192,73054,128,0,73721:0:0:0:0:
64,192,73054,1,0,0:0:0:0:
448,192,73054,1,0,0:0:0:0:
192,192,73221,1,0,0:0:0:0:
64,192,73221,1,0,0:0:0:0:
64,192,73387,1,0,0:0:0:0:
192,192,73387,1,0,0:0:0:0:
448,192,73387,1,0,0:0:0:0:
192,192,73554,1,0,0:0:0:0:
448,192,73554,1,0,0:0:0:0:
448,192,73721,128,0,74721:0:0:0:0:
64,192,73721,1,0,0:0:0:0:
192,192,73721,1,0,0:0:0:0:
192,192,73887,1,0,0:0:0:0:
320,192,73887,1,0,0:0:0:0:
64,192,74054,1,0,0:0:0:0:
192,192,74054,1,0,0:0:0:0:
320,192,74054,1,0,0:0:0:0:
64,192,74221,1,0,0:0:0:0:
320,192,74221,1,0,0:0:0:0:
64,192,74387,1,0,0:0:0:0:
192,192,74387,1,0,0:0:0:0:
320,192,74387,1,0,0:0:0:0:
192,192,74554,1,0,0:0:0:0:
64,192,74554,1,0,0:0:0:0:
64,192,74721,1,0,0:0:0:0:
320,192,74721,1,0,0:0:0:0:
192,192,74721,1,0,0:0:0:0:
448,192,74887,1,0,0:0:0:0:
320,192,74887,1,0,0:0:0:0:
64,192,74887,1,0,0:0:0:0:
64,192,75054,1,0,0:0:0:0:
192,192,75054,1,0,0:0:0:0:
448,192,75054,1,0,0:0:0:0:
320,192,75054,1,0,0:0:0:0:
64,192,75221,1,0,0:0:0:0:
320,192,75221,1,0,0:0:0:0:
192,192,75221,1,0,0:0:0:0:
320,192,75387,1,0,0:0:0:0:
64,192,75387,1,0,0:0:0:0:
192,192,75387,1,0,0:0:0:0:
448,192,75387,1,0,0:0:0:0:
448,192,75554,1,0,0:0:0:0:
320,192,75554,1,0,0:0:0:0:
192,192,75554,1,0,0:0:0:0:
320,192,75721,1,0,0:0:0:0:
192,192,75721,1,0,0:0:0:0:
64,192,75721,1,0,0:0:0:0:
448,192,75721,1,0,0:0:0:0:
64,192,76054,1,0,0:0:0:0:
192,192,76054,1,0,0:0:0:0:
448,192,76054,1,0,0:0:0:0:
320,192,76054,1,0,0:0:0:0:
64,192,76221,1,0,0:0:0:0:
448,192,76221,1,0,0:0:0:0:
320,192,76221,1,0,0:0:0:0:
64,192,76387,1,0,0:0:0:0:
192,192,76387,1,0,0:0:0:0:
320,192,76387,1,0,0:0:0:0:
448,192,76387,1,0,0:0:0:0:
320,192,76554,1,0,0:0:0:0:
448,192,76554,1,0,0:0:0:0:
64,192,76554,1,0,0:0:0:0:
192,192,76554,1,0,0:0:0:0:
64,192,76721,1,0,0:0:0:0:
192,192,76721,1,0,0:0:0:0:
320,192,76721,1,0,0:0:0:0:
448,192,76721,1,0,0:0:0:0:
64,192,76887,1,0,0:0:0:0:
192,192,76887,1,0,0:0:0:0:
448,192,76887,1,0,0:0:0:0:
320,192,76887,1,0,0:0:0:0:
192,192,77221,128,0,77304:0:0:0:0:
64,192,77221,128,0,77304:0:0:0:0:
320,192,77221,1,0,0:0:0:0:
448,192,77221,1,0,0:0:0:0:
64,192,77387,128,0,77471:0:0:0:0:
192,192,77387,128,0,77471:0:0:0:0:
320,192,77387,1,0,0:0:0:0:
448,192,77387,1,0,0:0:0:0:
64,192,77554,128,0,77637:0:0:0:0:
192,192,77554,128,0,77637:0:0:0:0:
320,192,77554,1,0,0:0:0:0:
448,192,77554,1,0,0:0:0:0:
320,192,77721,1,0,0:0:0:0:
448,192,77721,1,0,0:0:0:0:
64,192,77804,1,0,0:0:0:0:
192,192,77804,1,0,0:0:0:0:
320,192,77887,1,0,0:0:0:0:
448,192,77887,1,0,0:0:0:0:
64,192,77971,1,0,0:0:0:0:
192,192,77971,1,0,0:0:0:0:
320,192,78054,1,0,0:0:0:0:
448,192,78054,1,0,0:0:0:0:
64,192,78137,1,0,0:0:0:0:
192,192,78137,1,0,0:0:0:0:
320,192,78221,1,0,0:0:0:0:
448,192,78221,1,0,0:0:0:0:
64,192,78304,1,0,0:0:0:0:
192,192,78304,1,0,0:0:0:0:
320,192,78387,1,0,0:0:0:0:
448,192,78387,1,0,0:0:0:0:
192,192,78471,1,0,0:0:0:0:
64,192,78471,1,0,0:0:0:0:
320,192,78554,128,0,78637:0:0:0:0:
448,192,78554,128,0,78637:0:0:0:0:
64,192,78554,1,0,0:0:0:0:
192,192,78554,1,0,0:0:0:0:
448,192,78721,128,0,78804:0:0:0:0:
320,192,78721,128,0,78804:0:0:0:0:
64,192,78721,1,0,0:0:0:0:
192,192,78721,1,0,0:0:0:0:
320,192,78887,128,0,78971:0:0:0:0:
448,192,78887,128,0,78971:0:0:0:0:
64,192,78887,1,0,0:0:0:0:
192,192,78887,1,0,0:0:0:0:
64,192,79054,1,0,0:0:0:0:
192,192,79054,1,0,0:0:0:0:
320,192,79137,1,0,0:0:0:0:
448,192,79137,1,0,0:0:0:0:
64,192,79221,1,0,0:0:0:0:
192,192,79221,1,0,0:0:0:0:
320,192,79304,1,0,0:0:0:0:
448,192,79304,1,0,0:0:0:0:
192,192,79387,1,0,0:0:0:0:
64,192,79387,1,0,0:0:0:0:
320,192,79471,1,0,0:0:0:0:
448,192,79471,1,0,0:0:0:0:
64,192,79554,1,0,0:0:0:0:
192,192,79554,1,0,0:0:0:0:
320,192,79637,1,0,0:0:0:0:
448,192,79637,1,0,0:0:0:0:
64,192,79721,1,0,0:0:0:0:
192,192,79721,1,0,0:0:0:0:
320,192,79804,1,0,0:0:0:0:
448,192,79804,1,0,0:0:0:0:
192,192,79887,128,0,79971:0:0:0:0:
64,192,79887,128,0,79971:0:0:0:0:
320,192,79887,1,0,0:0:0:0:
448,192,79887,1,0,0:0:0:0:
64,192,80054,128,0,80137:0:0:0:0:
192,192,80054,128,0,80137:0:0:0:0:
320,192,80054,1,0,0:0:0:0:
448,192,80054,1,0,0:0:0:0:
64,192,80221,128,0,80304:0:0:0:0:
192,192,80221,128,0,80304:0:0:0:0:
320,192,80221,1,0,0:0:0:0:
448,192,80221,1,0,0:0:0:0:
320,192,80387,1,0,0:0:0:0:
448,192,80387,1,0,0:0:0:0:
64,192,80443,1,0,0:0:0:0:
192,192,80443,1,0,0:0:0:0:
320,192,80499,1,0,0:0:0:0:
448,192,80499,1,0,0:0:0:0:
64,192,80554,1,0,0:0:0:0:
192,192,80554,1,0,0:0:0:0:
320,192,80610,1,0,0:0:0:0:
448,192,80610,1,0,0:0:0:0:
64,192,80665,1,0,0:0:0:0:
192,192,80665,1,0,0:0:0:0:
320,192,80721,1,0,0:0:0:0:
448,192,80721,1,0,0:0:0:0:
64,192,80776,1,0,0:0:0:0:
192,192,80776,1,0,0:0:0:0:
320,192,80832,1,0,0:0:0:0:
448,192,80832,1,0,0:0:0:0:
64,192,80887,1,0,0:0:0:0:
192,192,80887,1,0,0:0:0:0:
320,192,80943,1,0,0:0:0:0:
448,192,80943,1,0,0:0:0:0:
64,192,80999,1,0,0:0:0:0:
192,192,80999,1,0,0:0:0:0:
320,192,81054,1,0,0:0:0:0:
448,192,81054,1,0,0:0:0:0:
192,192,81096,1,0,0:0:0:0:
64,192,81096,1,0,0:0:0:0:
448,192,81137,1,0,0:0:0:0:
320,192,81137,1,0,0:0:0:0:
64,192,81179,1,0,0:0:0:0:
192,192,81179,1,0,0:0:0:0:
448,192,81221,1,0,0:0:0:0:
320,192,81221,1,0,0:0:0:0:
64,192,81262,1,0,0:0:0:0:
192,192,81262,1,0,0:0:0:0:
448,192,81304,1,0,0:0:0:0:
320,192,81304,1,0,0:0:0:0:
192,192,81346,1,0,0:0:0:0:
64,192,81346,1,0,0:0:0:0:
320,192,81387,1,0,0:0:0:0:
448,192,81387,1,0,0:0:0:0:
64,192,81429,1,0,0:0:0:0:
192,192,81429,1,0,0:0:0:0:
320,192,81471,1,0,0:0:0:0:
448,192,81471,1,0,0:0:0:0:
64,192,81512,1,0,0:0:0:0:
192,192,81512,1,0,0:0:0:0:
320,192,81554,1,0,0:0:0:0:
448,192,81554,1,0,0:0:0:0:
64,192,81596,1,0,0:0:0:0:
192,192,81596,1,0,0:0:0:0:
320,192,81637,1,0,0:0:0:0:
448,192,81637,1,0,0:0:0:0:
64,192,81679,1,0,0:0:0:0:
192,192,81679,1,0,0:0:0:0:
320,192,81721,1,0,0:0:0:0:
448,192,81721,1,0,0:0:0:0:
192,192,81749,1,0,0:0:0:0:
64,192,81749,1,0,0:0:0:0:
448,192,81776,1,0,0:0:0:0:
320,192,81776,1,0,0:0:0:0:
64,192,81804,1,0,0:0:0:0:
192,192,81804,1,0,0:0:0:0:
320,192,81832,1,0,0:0:0:0:
448,192,81832,1,0,0:0:0:0:
64,192,81860,1,0,0:0:0:0:
192,192,81860,1,0,0:0:0:0:
448,192,81887,1,0,0:0:0:0:
320,192,81887,1,0,0:0:0:0:
192,192,81915,1,0,0:0:0:0:
64,192,81915,1,0,0:0:0:0:
448,192,81943,1,0,0:0:0:0:
320,192,81943,1,0,0:0:0:0:
64,192,81971,1,0,0:0:0:0:
192,192,81971,1,0,0:0:0:0:
320,192,81999,1,0,0:0:0:0:
448,192,81999,1,0,0:0:0:0:
64,192,82026,1,0,0:0:0:0:
192,192,82026,1,0,0:0:0:0:
448,192,82054,1,0,0:0:0:0:
320,192,82054,1,0,0:0:0:0:
192,192,82082,1,0,0:0:0:0:
64,192,82082,1,0,0:0:0:0:
448,192,82110,1,0,0:0:0:0:
320,192,82110,1,0,0:0:0:0:
192,192,82137,1,0,0:0:0:0:
64,192,82137,1,0,0:0:0:0:
320,192,82165,1,0,0:0:0:0:
448,192,82165,1,0,0:0:0:0:
64,192,82193,1,0,0:0:0:0:
192,192,82193,1,0,0:0:0:0:
320,192,82221,1,0,0:0:0:0:
448,192,82221,1,0,0:0:0:0:
64,192,82249,1,0,0:0:0:0:
192,192,82249,1,0,0:0:0:0:
448,192,82276,1,0,0:0:0:0:
320,192,82276,1,0,0:0:0:0:
64,192,82304,1,0,0:0:0:0:
192,192,82304,1,0,0:0:0:0:
320,192,82332,1,0,0:0:0:0:
448,192,82332,1,0,0:0:0:0:
64,192,82360,1,0,0:0:0:0:
192,192,82360,1,0,0:0:0:0:
320,192,82387,1,0,0:0:0:0:
448,192,82387,1,0,0:0:0:0:
64,192,82415,1,0,0:0:0:0:
192,192,82415,1,0,0:0:0:0:
320,192,82443,1,0,0:0:0:0:
448,192,82443,1,0,0:0:0:0:
64,192,82471,1,0,0:0:0:0:
192,192,82471,1,0,0:0:0:0:
448,192,82499,1,0,0:0:0:0:
320,192,82499,1,0,0:0:0:0:
192,192,82526,1,0,0:0:0:0:
64,192,82526,1,0,0:0:0:0:
448,192,82554,1,0,0:0:0:0:
320,192,82554,1,0,0:0:0:0:
192,192,82582,1,0,0:0:0:0:
64,192,82582,1,0,0:0:0:0:
320,192,82610,1,0,0:0:0:0:
448,192,82610,1,0,0:0:0:0:
64,192,82637,1,0,0:0:0:0:
192,192,82637,1,0,0:0:0:0:
64,192,83054,1,0,0:0:0:0:
192,192,83221,1,0,0:0:0:0:
320,192,83387,1,0,0:0:0:0:
448,192,83554,1,0,0:0:0:0:
448,192,83721,1,0,0:0:0:0:
320,192,83887,1,0,0:0:0:0:
192,192,84054,1,0,0:0:0:0:
64,192,84221,1,0,0:0:0:0:
64,192,84387,1,0,0:0:0:0:
64,192,84554,1,0,0:0:0:0:
192,192,84554,1,0,0:0:0:0:
64,192,84721,1,0,0:0:0:0:
192,192,84721,1,0,0:0:0:0:
320,192,84721,1,0,0:0:0:0:
64,192,84887,1,0,0:0:0:0:
192,192,84887,1,0,0:0:0:0:
320,192,84887,1,0,0:0:0:0:
448,192,84887,1,0,0:0:0:0:
64,192,85221,1,0,0:0:0:0:
192,192,85387,1,0,0:0:0:0:
320,192,85554,1,0,0:0:0:0:
448,192,85721,1,0,0:0:0:0:
320,192,85887,1,0,0:0:0:0:
192,192,86054,1,0,0:0:0:0:
192,192,86221,1,0,0:0:0:0:
320,192,86262,1,0,0:0:0:0:
192,192,86554,1,0,0:0:0:0:
320,192,86554,1,0,0:0:0:0:
64,192,86721,128,0,89054:0:0:0:0:
192,192,86762,128,0,89054:0:0:0:0:
320,192,86804,128,0,89054:0:0:0:0:
448,192,86846,128,0,89054:0:0:0:0:
