osu file format v9

[General]
AudioFilename: MigiHidari.mp3
AudioLeadIn: 3000
PreviewTime: 121184
Countdown: 0
SampleSet: Soft
StackLeniency: 0.3
Mode: 0
LetterboxInBreaks: 1

[Editor]
DistanceSpacing: 1
BeatDivisor: 4
GridSize: 8

[Metadata]
Title:Hidari Migi -migihidari-
Artist:Hatsune Miku
Creator:NatsumeRin
Version:Hard
Source:koushirou
Tags:vocaloid vocaloid2 Left and Right

[Difficulty]
HPDrainRate:5
CircleSize:4
OverallDifficulty:7
ApproachRate:7
SliderMultiplier:1.6
SliderTickRate:0.5

[Events]
//Background and Video events
0,0,"BG.jpg"
Video,0,"HidariMigi.flv"
//Break Periods
2,46988,50715
2,78712,85543
2,135264,142439
//Storyboard Layer 0 (Background)
//Storyboard Layer 1 (Fail)
//Storyboard Layer 2 (Pass)
//Storyboard Layer 3 (Foreground)
//Storyboard Sound Samples
//Background Colour Transformations
3,100,163,162,255

[TimingPoints]
1271,344.827586206897,4,2,1,70,1,0
11615,-100,4,2,1,80,0,0
12305,-100,4,2,1,75,0,0
20753,-100,4,2,1,60,0,0
21960,-100,4,2,1,75,0,0
22133,-100,4,2,1,60,0,0
23253,-100,4,2,1,50,0,0
24029,-100,4,2,1,75,0,0
35408,-100,4,2,1,60,0,0
35753,-100,4,2,1,25,0,0
35926,-100,4,2,1,75,0,0
51615,-200,4,2,1,75,0,0
55064,-100,4,2,1,75,0,0
56443,-200,4,2,1,75,0,0
60581,-100,4,2,1,75,0,0
63339,-133.333333333333,4,2,1,75,0,0
64029,-100,4,2,1,15,0,0
64719,-100,4,2,1,80,0,1
75926,-100,4,2,1,40,0,1
78512,-100,4,2,1,50,0,0
86443,-100,4,1,1,35,0,0
86788,-100,4,2,1,75,0,0
91615,-100,4,2,1,60,0,0
92305,-100,4,2,1,75,0,0
111615,-200,4,2,1,75,0,0
114029,-100,4,2,1,75,0,0
119891,-133.333333333333,4,2,1,75,0,0
120581,-133.333333333333,4,2,1,15,0,0
121271,-100,4,2,1,80,0,1
132477,-100,4,2,1,40,0,1
135064,-100,4,2,1,50,0,0
143339,-133.333333333333,4,2,1,60,0,0
144374,-133.333333333333,4,2,1,0,0,0
144719,-133.333333333333,4,2,1,60,0,0
147995,-133.333333333333,4,2,1,40,0,0
148857,-133.333333333333,4,2,1,60,0,0
149891,-100,4,2,1,63,0,0
150581,-100,4,2,1,65,0,0
151271,-100,4,2,1,69,0,0
151960,-100,4,2,1,73,0,0
152650,-100,4,2,1,75,0,0
152995,-133.333333333333,4,2,1,90,0,0
154029,-133.333333333333,4,2,1,40,0,0
154374,-100,4,2,1,75,0,0
159891,-133.333333333333,4,2,1,40,0,0
161960,-133.333333333333,4,2,1,60,0,0
162650,-133.333333333333,4,2,1,65,0,0
163339,-133.333333333333,4,2,1,70,0,0
164029,-133.333333333333,4,2,1,75,0,0
164115,-133.333333333333,4,2,0,100,0,0
164719,-133.333333333333,4,2,0,15,0,0
165064,-133.333333333333,4,1,1,50,0,0
165408,-100,4,2,1,30,0,0
165452,-100,4,1,1,100,0,0
165753,-100,4,2,1,10,0,0
166098,-100,4,2,1,80,0,1
177046,-100,4,2,1,80,0,0
177133,-100,4,2,1,80,0,1
188339,-100,4,2,1,40,0,1
190926,-100,4,2,1,50,0,0

[Colours]
Combo1 : 0,213,106
Combo2 : 192,192,192
Combo3 : 96,96,96
Combo4 : 83,169,255
Combo5 : 251,4,79

[HitObjects]
96,240,1271,53,0
96,240,1443,1,2
176,216,1615,22,0,B|264:184,1,80
240,272,1960,2,0,B|336:240,1,80,2|0
312,328,2305,2,0,B|400:296,1,80,0|2
448,176,2650,21,0
448,176,2822,1,2
368,152,2995,54,0,B|264:152,1,80
304,232,3339,2,0,B|192:232,1,80,2|0
248,312,3684,2,0,B|144:312,1,80,0|2
176,176,4029,37,0
200,104,4202,1,2
256,160,4374,6,0,B|291:51,1,80,0|0
256,160,4719,2,0,B|332:244,1,80,2|0
256,160,5064,2,0,B|144:184,1,80,0|2
152,256,5408,6,0,B|264:232,1,80,0|2
256,160,5753,1,0
216,88,5926,1,0
328,160,6098,6,0,B|424:160,1,80,2|0
184,160,6443,6,0,B|184:256,1,80,2|0
184,320,6788,2,0,B|144:344|144:344|104:320|104:320|104:240,1,160,2|0
136,176,7305,37,0
184,240,7477,1,2
256,280,7650,1,0
336,288,7822,1,0
408,256,7995,1,2
456,192,8167,6,0,B|432:152|432:152|456:112|456:112|376:112,1,160,2|0
344,176,8684,37,0
272,200,8857,1,2
216,144,9029,1,0
264,80,9202,1,0
344,104,9374,1,2
288,160,9546,54,0,B|288:208|288:208|224:248|224:248|224:304,1,160,2|0
304,296,10064,21,0
248,240,10236,1,2
224,168,10408,2,0,B|232:120|280:112,1,80,0|0
352,128,10753,1,2
296,184,10926,2,0,B|336:216|312:280,1,80,0|2
248,240,11271,2,0,B|200:256|152:200,1,80
224,168,11615,5,2
256,40,11788,1,0
352,128,11960,1,2
320,256,12133,1,0
296,328,12305,38,0,B|208:328,1,80
136,328,12650,1,2
56,192,12995,1,0
136,56,13339,2,0,B|248:56,1,80,2|0
296,56,13684,1,2
448,112,14029,1,0
400,264,14374,6,0,B|360:376,1,80
320,280,14719,2,0,B|360:168,1,80,2|0
424,192,15064,1,2
264,216,15408,1,0
240,296,15581,1,0
216,368,15753,2,0,B|136:368|136:368|56:328,1,160,2|0
64,120,16443,54,0,B|152:120,1,80,2|0
256,48,16788,2,0,B|144:48,1,80,2|0
288,120,17133,2,0,B|400:120,1,80,2|0
480,192,17477,2,0,B|368:192,1,80,2|0
344,248,17822,5,0
272,280,17995,1,0
200,248,18167,1,2
272,104,18512,2,0,B|200:72|200:72|112:112,1,160,0|2
56,152,19029,1,0
128,192,19202,1,2
56,336,19546,1,0
216,336,19891,54,0,B|320:336,1,80
352,280,20236,2,0,B|440:280,1,80,2|0
488,224,20581,1,2
456,64,20926,2,0,B|376:64|376:64|344:32,2,120,0|2|0
496,136,21615,1,2
336,136,21960,5,2
176,136,22305,2,0,B|56:136,2,120,2|2|2
256,112,22995,1,2
256,112,23167,38,0,B|256:272,1,160
256,272,24202,1,0
296,344,24374,37,0
216,344,24546,5,0
136,208,24891,22,0,B|248:160,2,120,2|2|2
296,224,25753,1,0
368,192,25926,1,2
352,112,26098,2,0,B|240:96,1,80,2|0
232,168,26443,2,0,B|120:152,1,80,2|0
72,144,26788,1,2
176,264,27133,5,2
256,280,27305,1,0
328,248,27477,2,0,B|432:200,1,80,0|2
360,30,27995,54,0,B|288:64,1,80,0|2
144,136,28512,1,0
224,136,28684,1,2
272,200,28857,5,0
432,200,29202,1,2
272,200,29546,54,0,B|96:200,1,160
40,16,30408,6,0,B|136:48,1,80
192,24,30753,1,0
240,88,30926,2,0,B|336:120,1,80,0|0
392,88,31271,1,2
488,232,31788,54,0,B|392:272,1,80
336,240,32133,1,0
288,304,32306,2,0,B|192:344,1,80,0|0
136,312,32651,1,2
192,160,32995,5,0
40,112,33339,1,2
272,160,33684,53,0
424,208,34029,1,2
176,240,34374,5,0
176,80,34719,21,2
336,80,35064,53,2
256,216,35408,22,0,B|240:256|256:296|256:296|272:256|256:200,1,160,2|0
296,144,35926,6,0,B|440:128,2,120,2|2|2
168,240,36788,5,0
248,232,36960,1,2
200,168,37133,1,0
280,160,37305,54,0,B|360:160,1,80,2|2
208,208,37822,2,0,B|112:208,1,80,2|0
48,208,38167,1,2
8,136,38339,1,0
88,136,38512,2,0,B|176:112,1,80,0|2
328,240,39029,6,0,B|240:240,1,80,0|2
408,240,39546,1,0
368,168,39719,1,2
328,240,39891,1,0
184,168,40236,1,2
328,240,40581,1,0
184,304,40926,1,0
352,128,41443,54,0,B|264:152,1,80
384,192,41788,37,0
352,256,41960,22,0,B|264:232,1,80
176,192,42305,53,2
192,168,42822,22,0,B|112:144,2,80
232,264,43339,22,0,B|328:264,1,80
400,208,43684,5,2
384,192,44029,37,0
128,192,44374,1,2
346,101,44719,1,0
165,282,45064,1,2
256,64,45408,1,0
256,320,45753,1,2
165,101,46098,1,0
346,282,46443,1,2
256,192,46788,21,4
8,72,51615,21,2
8,72,51960,1,0
8,72,52305,2,0,B|88:72,1,80,2|0
88,72,52995,2,0,B|88:16|88:16|112:16,1,80,2|0
88,72,53684,2,0,B|184:72,1,80,0|2
168,72,54374,2,0,B|168:112|168:112|224:112,1,80,2|0
368,112,55064,5,2
448,112,55236,2,0,B|440:152|440:152|408:184,2,80,0|0|2
408,40,55753,1,2
368,112,55926,1,0
288,112,56098,2,0,B|224:112,1,40,2|0
168,248,56443,6,0,B|48:248,1,120,2|2
144,112,57477,37,2
144,112,57649,1,0
144,112,57822,2,0,B|104:112|104:112|104:160,1,80,2|0
104,152,58512,2,0,B|168:152|168:152|168:184,1,80,2|0
168,240,59202,2,0,B|224:240|224:240|224:208,2,80,0|2|2
168,240,60236,1,0
304,344,60581,54,0,B|416:344,1,80,0|2
304,192,61098,2,0,B|416:192,1,80,0|2
304,48,61615,2,0,B|416:48,1,80,0|2
344,120,61960,2,0,B|208:120,4,120,0|2|0|2|0
304,192,63167,1,0
256,256,63339,6,0,B|216:304|136:312|64:256|80:192,1,239.999992847443,2|0
360,48,64719,54,0,B|280:72|280:72|224:152,1,160,2|2
192,200,65236,1,0
208,280,65408,38,0,B|160:360,1,80,0|2
112,208,65753,2,0,B|160:128,1,80,0|2
192,72,66098,38,0,B|312:72|312:72|352:112,1,160,2|2
392,160,66615,1,0
392,240,66788,6,0,B|456:304,1,80,0|2
480,144,67133,2,0,B|416:80,1,80,0|2
360,32,67477,37,2
288,64,67650,1,0
352,112,67822,2,0,B|296:144|296:144|264:136|264:136|208:168,1,160,2|0
176,240,68339,53,2
208,312,68512,1,2
280,344,68684,1,0
232,256,68857,54,0,B|152:296,1,80,2|2
280,192,69202,54,0,B|360:232,1,80,2|0
232,128,69546,6,0,B|152:88,1,80,2|0
280,72,69891,54,0,B|360:32,1,80,2|0
408,96,70236,53,2
368,168,70408,1,0
296,200,70581,1,2
216,176,70753,1,0
168,112,70926,22,0,B|72:112,1,80,0|2
192,248,71271,2,0,B|96:248,1,80,0|2
152,312,71615,21,2
224,344,71788,1,0
304,328,71960,1,2
360,272,72133,1,0
376,192,72305,22,0,B|472:160,1,80,0|2
360,272,72650,2,0,B|456:240,1,80,2|0
376,192,72995,53,2
392,112,73167,1,0
336,56,73339,2,0,B|248:56,1,80,2|0
216,128,73684,1,2
296,128,73857,1,0
256,56,74029,1,2
256,216,74374,38,0,B|256:360,1,120,2|0
352,184,74891,38,0,B|352:304,1,120,2|0
160,184,75408,6,0,B|160:272,2,80,2|0|2
256,192,75926,12,0,78512
256,168,86443,6,0,B|256:216,2,40
368,280,86960,22,0,B|400:312|400:312|480:312,2,120,2|2|2
432,136,87822,1,0
368,88,87995,1,2
296,56,88167,2,0,B|216:56,1,80,2|0
176,128,88512,2,0,B|80:128,1,80,2|0
56,200,88857,1,2
216,200,89202,1,2
256,128,89374,1,0
216,56,89546,54,0,B|128:56,1,80,0|2
296,200,90064,2,0,B|384:200,1,80,0|2
216,344,90581,2,0,B|128:344,1,80,0|2
64,304,90926,1,0
176,184,91271,1,2
280,304,91615,2,0,B|384:304,2,80,2|2|0
216,256,92133,1,0
144,112,92477,6,0,B|72:72,2,80
216,152,92995,1,0
252,172,93081,1,0
288,192,93167,1,0
360,232,93339,1,2
120,128,93857,54,0,B|184:168,1,40
224,192,94115,2,0,B|288:232,1,40,0|0
328,256,94374,1,0
328,256,94460,1,0
328,256,94546,2,0,B|400:296,1,80,0|2
397,294,95064,21,0
240,200,95408,21,2
80,104,95753,53,0
80,104,96443,22,0,B|152:64,2,53.3333333333333,0|2|0
128,136,96788,6,0,B|200:96,2,53.3333333333333,0|2|0
176,168,97133,54,0,B|248:128,2,53.3333333333333,0|2|0
224,200,97477,6,0,B|296:160,2,53.3333333333333,0|2|0
272,328,97995,54,0,B|208:360|208:360|160:360,2,120,2|2|2
344,288,98684,1,0
416,328,98857,1,2
456,88,99202,6,0,B|360:88,1,80,2|0
280,112,99547,2,0,B|176:112,1,80,2|0
104,88,99891,1,2
64,88,99977,2,0,B|24:88|24:88|24:176,1,120
120,328,100581,54,0,B|224:328,1,80,0|2
392,248,101098,2,0,B|288:248,1,80,0|2
120,168,101615,2,0,B|224:168,1,80,0|2
280,168,101960,1,0
392,56,102305,1,2
504,168,102650,1,0
392,280,102995,1,0
176,168,103512,6,0,B|80:168,1,80
32,216,103857,1,0
112,200,104029,54,0,B|224:200,1,80
256,152,104374,1,2
256,152,104891,5,0
328,184,105064,1,0
400,152,105236,1,0
400,144,105408,53,0
328,176,105581,1,0
256,144,105753,1,2
256,360,106098,5,0
137,310,106443,1,2
88,192,106788,1,0
137,73,107133,1,2
256,24,107477,1,0
374,73,107822,1,2
424,192,108167,1,0
374,310,108512,1,2
256,360,108857,54,0,B|256:184,1,160
256,200,109546,2,0,B|256:40,1,160,2|0
256,40,110236,1,0
136,80,110581,1,2
80,192,110926,1,0
136,304,111271,1,0
312,352,111615,6,0,B|281:377|217:377|193:344,1,120,2|0
312,32,112995,2,0,B|281:7|217:7|193:40,2,120,2|0|2
376,80,114202,1,0
408,152,114374,54,0,B|408:248|408:248|368:320,1,160
304,328,114891,1,0
240,280,115064,2,0,B|192:240|192:240|72:240,1,160,2|0
56,88,115753,2,0,B|144:88,1,80
208,56,116098,2,0,B|320:56,1,80,2|0
360,24,116443,1,2
392,96,116615,1,0
320,128,116788,1,0
392,272,117133,6,0,B|488:272,1,80,0|2
224,208,117650,2,0,B|328:208,1,80,0|2
64,120,118167,2,0,B|168:120,1,80,0|2
200,64,118512,2,0,B|256:48|256:48|336:72,4,120,0|2|0|2|0
256,128,119719,1,0
256,128,119891,54,0,B|256:368,1,239.999992847443,2|0
256,368,121271,6,0,B|176:368|176:368|144:296,1,160,2|2
176,232,121788,1,0
216,296,121960,21,0
104,232,122133,1,2
144,168,122305,1,0
216,168,122477,1,2
176,232,122650,22,0,B|336:232,1,160,2|2
416,232,123167,1,0
456,296,123339,21,0
456,168,123512,1,2
376,168,123684,1,0
336,104,123857,1,2
416,104,124029,53,2
376,168,124202,1,0
296,168,124374,2,0,B|216:168|216:168|152:112,1,160,2|0
256,48,124891,37,2
296,168,125064,1,2
256,288,125236,1,0
232,360,125408,54,0,B|136:360,1,80,2|2
280,240,125753,54,0,B|376:240,1,80,2|0
216,128,126098,6,0,B|120:128,1,80,2|0
296,16,126443,54,0,B|392:16,1,80,2|0
256,72,126788,37,2
232,152,126960,1,0
152,168,127133,2,0,B|104:160|96:104,1,80,2|0
176,96,127477,37,0
192,216,127650,1,2
88,168,127822,1,0
232,152,127995,1,2
280,216,128167,38,0,B|304:264|368:248,1,80,2|0
352,168,128512,2,0,B|384:136|432:144,1,80,2|0
416,224,128857,5,0
488,192,129029,1,2
480,272,129202,1,2
408,296,129374,1,0
336,320,129546,37,2
336,320,129633,1,0
336,320,129719,1,0
256,320,129891,2,0,B|256:224,1,80,2|0
256,160,130236,2,0,B|256:56,2,80,2|0|2
256,160,130926,53,2
256,288,131184,1,0
360,232,131443,37,2
360,104,131702,1,0
152,104,131960,5,2
152,168,132133,1,0
152,232,132305,1,2
256,192,132477,12,0,135064
80,192,143339,37,0
184,40,143857,2,0,B|240:0|336:8|408:64|432:136|416:216,1,359.999989271164,2|2
392,280,145064,1,0
328,320,145236,1,0
256,336,145408,2,0,B|216:344|160:320|144:280,1,119.999996423721,2|2
152,216,145926,1,0
224,184,146098,54,0,B|256:216|352:224|416:200,2,179.999994635582,0|2|2
472,160,147477,2,0,B|440:128|344:120|280:144,2,179.999994635582,0|0|0
472,320,148857,2,0,B|432:352|336:360|280:336,1,179.999994635582,0|2
298,342,149460,1,0
216,304,149891,5,2
298,342,150064,1,0
296,264,150581,53,2
216,304,150753,1,0
216,224,151271,5,2
296,264,151443,1,0
296,104,151960,53,2
216,144,152133,1,0
216,64,152650,5,2
296,104,152822,1,0
376,80,152995,54,2,B|440:128|440:232|392:312|312:352|240:336,1,359.999989271164,2|0
112,280,154374,5,2
56,128,154719,1,0
216,152,155064,1,2
112,280,155408,1,0
128,192,155581,53,2
224,64,155926,1,0
280,216,156271,1,2
128,192,156615,1,0
216,152,156788,2,0,B|272:128,1,40,2|0
368,88,157133,5,2
440,56,157305,1,0
368,88,157477,2,0,B|376:128|448:152|496:120,2,120,2|0|2
456,216,158339,1,0
488,288,158512,54,0,B|448:328|368:336|304:296,1,160,2|0
280,256,159029,2,0,B|249:232|169:240|129:280,1,160,2|0
72,336,159546,1,2
256,192,159891,12,0,161271
88,200,162133,38,0,B|128:272,1,59.9999982118607,2|0
144,304,162477,1,0
176,352,162650,6,0,B|216:280,1,59.9999982118607,0|2
232,248,162995,2,0,B|264:184,1,59.9999982118607,0|2
288,144,163339,38,0,B|320:208,1,59.9999982118607,2|0
344,144,163684,2,0,B|376:80,1,59.9999982118607,2|2
392,40,164029,22,0,B|232:32|232:88|296:88|296:32|144:40,1,239.999992847443,2|0
400,48,165064,1,0
400,48,165236,1,0
400,48,165408,6,0,B|440:48|456:72|456:72|424:96|360:96,1,160
360,336,166098,2,0,B|280:312|280:312|224:232,1,160,2|2
192,184,166615,1,0
208,104,166787,38,0,B|160:24,1,80,0|2
112,176,167132,2,0,B|160:256,1,80,0|2
192,312,167477,38,0,B|312:312|312:312|352:272,1,160,2|2
392,224,167994,1,0
392,144,168167,6,0,B|456:80,1,80,0|2
480,240,168512,2,0,B|416:304,1,80,0|2
360,352,168856,37,2
288,320,169029,1,0
352,272,169201,2,0,B|296:240|296:240|264:248|264:248|208:216,1,160,2|0
176,144,169718,53,2
208,72,169891,1,2
280,40,170063,1,0
232,128,170236,54,0,B|152:88,1,80,2|2
280,192,170581,54,0,B|360:152,1,80,2|0
232,256,170925,6,0,B|152:296,1,80,2|0
280,312,171270,54,0,B|360:352,1,80,2|0
408,288,171615,53,2
368,216,171787,1,0
296,184,171960,1,2
216,208,172132,1,0
168,272,172305,22,0,B|72:272,1,80,0|2
192,136,172650,2,0,B|96:136,1,80,0|2
152,72,172994,21,2
224,40,173167,1,0
304,56,173339,1,2
360,112,173512,1,0
376,192,173684,22,0,B|472:224,1,80,0|2
360,112,174029,2,0,B|456:144,1,80,2|0
376,192,174374,53,2
376,272,174546,1,0
336,344,174718,2,0,B|248:344,1,80,2|0
216,272,175063,1,2
296,272,175236,1,0
256,344,175408,1,2
256,344,175753,38,0,B|256:200,1,120,2|0
296,80,176270,38,0,B|296:168,1,80,2|0
216,80,176615,6,0,B|216:168,2,80,2|0|2
256,8,177133,38,0,B|176:8|176:8|144:80,1,160,2|2
176,144,177650,1,0
216,80,177822,21,0
104,144,177995,1,2
144,208,178167,1,0
216,208,178339,1,2
176,144,178512,22,0,B|336:144,1,160,2|2
416,144,179029,1,0
456,80,179201,21,0
456,208,179374,1,2
376,208,179546,1,0
336,272,179719,1,2
416,272,179891,53,2
376,208,180064,1,0
296,208,180236,2,0,B|216:208|216:208|152:264,1,160,2|0
256,328,180753,37,2
296,208,180926,1,2
256,88,181098,1,0
232,16,181270,54,0,B|136:16,1,80,2|2
280,136,181615,54,0,B|376:136,1,80,2|0
216,248,181960,6,0,B|120:248,1,80,2|0
296,360,182305,54,0,B|392:360,1,80,2|0
256,304,182650,37,2
232,224,182822,1,0
152,208,182995,2,0,B|104:216|96:272,1,80,2|0
176,280,183339,37,0
192,160,183512,1,2
88,208,183684,1,0
232,224,183857,1,2
280,160,184029,38,0,B|304:112|368:128,1,80,2|0
352,208,184374,2,0,B|384:240|432:232,1,80,2|0
416,152,184719,5,0
488,184,184891,1,2
480,104,185064,1,2
408,80,185236,1,0
336,56,185408,37,2
336,56,185495,1,0
336,56,185581,1,0
256,56,185753,2,0,B|256:152,1,80,2|0
256,216,186098,1,2
216,288,186271,1,0
296,288,186443,1,2
296,288,186788,53,2
216,144,187046,1,0
336,216,187305,37,2
256,72,187564,1,0
176,216,187822,5,2
216,288,187995,1,0
256,360,188167,1,2
256,192,188339,12,0,190926
