osu file format v9

[General]
AudioFilename: MigiHidari.mp3
AudioLeadIn: 3000
PreviewTime: 121184
Countdown: 0
SampleSet: Soft
StackLeniency: 0.4
Mode: 0
LetterboxInBreaks: 1

[Editor]
DistanceSpacing: 1
BeatDivisor: 2
GridSize: 8

[Metadata]
Title:Hidari Migi -migihidari-
Artist:Hatsune Miku
Creator:NatsumeRin
Version:Easy
Source:koushirou
Tags:vocaloid vocaloid2 Left and Right

[Difficulty]
HPDrainRate:2
CircleSize:3
OverallDifficulty:2
ApproachRate:3
SliderMultiplier:0.8
SliderTickRate:1

[Events]
//Background and Video events
0,0,"BG.jpg"
Video,0,"HidariMigi.flv"
//Break Periods
2,46988,50175
2,78712,85003
2,135264,141899
//Storyboard Layer 0 (Background)
//Storyboard Layer 1 (Fail)
//Storyboard Layer 2 (Pass)
//Storyboard Layer 3 (Foreground)
//Storyboard Sound Samples
//Background Colour Transformations
3,100,163,162,255

[TimingPoints]
1271,344.827586206897,4,2,1,70,1,0
11615,-100,4,2,1,80,0,0
12305,-100,4,2,1,75,0,0
23253,-100,4,2,1,65,0,0
23857,-100,4,2,1,0,0,0
24029,-100,4,2,1,75,0,0
30581,-100,4,2,1,0,0,0
31271,-100,4,2,1,75,0,0
31960,-100,4,2,1,0,0,0
32650,-100,4,2,1,75,0,0
36098,-100,4,2,1,0,0,0
36788,-100,4,2,1,75,0,0
41615,-100,4,2,1,0,0,0
42305,-100,4,2,1,75,0,0
42995,-100,4,2,1,0,0,0
43684,-100,4,2,1,75,0,0
60581,-100,4,2,1,75,0,0
63684,-100,4,2,1,15,0,0
64719,-100,4,2,1,80,0,1
75926,-100,4,2,1,40,0,1
78512,-100,4,2,1,50,0,0
86443,-100,4,1,1,35,0,0
86788,-100,4,2,1,75,0,0
87133,-100,4,2,1,0,0,0
87822,-100,4,2,1,75,0,0
92650,-100,4,2,1,0,0,0
93339,-100,4,2,1,75,0,0
94029,-100,4,2,1,0,0,0
94719,-100,4,2,1,75,0,0
103684,-100,4,2,1,0,0,0
104374,-100,4,2,1,75,0,0
105064,-100,4,2,1,0,0,0
105753,-100,4,2,1,75,0,0
120236,-100,4,2,1,15,0,0
121271,-100,4,2,1,80,0,1
132477,-100,4,2,1,40,0,1
135064,-100,4,2,1,50,0,0
143339,-100,4,2,1,60,0,0
144202,-100,4,2,1,0,0,0
145064,-100,4,2,1,60,0,0
147995,-100,4,2,1,40,0,0
148857,-100,4,2,1,60,0,0
149891,-100,4,2,1,63,0,0
150581,-100,4,2,1,65,0,0
151271,-100,4,2,1,69,0,0
151960,-100,4,2,1,73,0,0
152650,-100,4,2,1,75,0,0
152995,-100,4,2,1,90,0,0
154029,-100,4,2,1,40,0,0
154374,-100,4,2,1,75,0,0
159891,-100,4,2,1,40,0,0
161960,-100,4,2,1,60,0,0
162650,-100,4,2,1,65,0,0
163339,-100,4,2,1,70,0,0
164029,-100,4,2,1,75,0,0
164115,-100,4,2,0,100,0,0
164719,-100,4,2,1,10,0,0
165408,-100,4,2,1,30,0,0
165452,-100,4,1,1,100,0,0
165753,-100,4,2,1,10,0,0
166098,-100,4,2,1,80,0,1
177046,-100,4,2,1,80,0,0
177133,-100,4,2,1,80,0,1
188339,-100,4,2,1,40,0,1
190926,-100,4,2,1,50,0,0

[Colours]
Combo1 : 0,213,106
Combo2 : 192,192,192
Combo3 : 96,96,96
Combo4 : 83,169,255
Combo5 : 251,4,79

[HitObjects]
104,184,1271,53,0
256,240,1960,22,0,B|368:240,1,80,2|0
392,184,2650,21,0
296,56,3339,54,0,B|216:56,1,80,2|0
256,128,4029,37,0
256,288,4719,6,0,B|256:192,1,80,2|0
176,232,5408,37,0
336,232,6098,53,2
336,72,6788,38,0,B|160:72,1,160,0|2
128,136,7822,37,0
176,200,8167,38,0,B|360:200,1,160,0|2
384,264,9202,5,0
336,328,9546,38,0,B|152:328,1,160,0|2
256,192,10926,1,0
216,40,11615,2,0,B|312:40,1,80,2|2
376,40,12305,6,0,B|456:64|488:184|416:288|304:272,1,320,0|2
344,112,14374,2,0,B|312:80|232:72|184:96,1,160,0|2
48,160,15753,1,2
104,296,16443,2,0,B|136:328|216:336|264:312,1,160,0|0
128,216,17822,54,0,B|72:144|112:40|216:-8|288:40,1,320,0|2
352,184,19891,2,0,B|384:264|480:272,1,160,0|2
168,184,21960,1,2
176,56,23512,54,0,B|208:80|288:80|328:56|328:56|336:120|416:144,1,280,0|0
352,288,25408,5,2
200,328,26098,1,0
56,256,26788,1,2
88,96,27477,6,0,B|168:96|168:96|240:56|240:56|344:56,1,240
384,96,28857,1,2
384,256,29546,1,0
384,256,30408,54,0,B|152:256,1,200,0|2
88,184,31788,6,0,B|304:104,1,200,0|2
352,144,32995,1,0
320,304,33684,53,2
168,264,34374,5,0
216,200,34719,21,2
296,200,35064,53,0
456,112,35926,38,0,B|232:136,1,200,0|2
176,120,37133,1,0
288,232,37822,1,2
176,344,38512,6,0,B|112:344|112:344|48:312,2,120,0|0|2
256,344,39891,2,0,B|416:344|416:344|504:312,1,240
464,200,41443,54,0,B|392:224|392:224|264:224,1,200,0|2
160,168,42822,6,0,B|232:144|232:144|360:144,1,200,0|2
384,224,44029,5,0
240,304,44719,1,2
160,168,45408,1,0
304,88,46098,1,2
304,248,46788,21,4
8,72,51615,21,2
8,72,52305,2,0,B|200:72,1,160,0|2
168,72,53684,1,0
168,72,54374,2,0,B|168:120|168:120|224:120,1,80,2|0
280,120,55064,6,0,B|424:120,1,120,2|0
240,240,56443,6,0,B|96:240,1,120,2|2
88,120,57477,37,2
88,120,57822,2,0,B|168:120|168:120|168:224,1,160,0|2
168,200,59202,2,0,B|272:200,1,80,0|2
168,200,59891,2,0,B|168:288,1,80,0|2
240,320,60581,54,0,B|304:368|304:368|368:368,2,120,0|2|2
264,248,61960,2,0,B|328:296|328:296|392:296,2,120,0|2|2
288,176,63339,2,0,B|352:224|352:224|464:224,1,160
416,64,64719,6,0,B|256:64,1,160,2|0
192,120,65753,21,2
232,192,66098,22,0,B|424:192,1,160,2|0
432,264,67133,21,2
368,320,67477,54,0,B|184:320,1,160,2|2
264,264,68512,37,0
240,184,68857,1,2
272,24,69546,1,2
136,112,70236,6,0,B|112:184|112:184|144:280,1,160,2|0
208,304,71271,37,2
280,264,71615,38,0,B|253:184|253:184|277:112,1,160,2|2
344,64,72650,5,0
389,132,72995,38,0,B|338:192|338:192|234:192,1,160,2|2
256,192,74029,1,0
256,192,74374,53,2
316,296,74891,37,0
196,296,75408,6,0,B|116:296,1,80,0|2
256,192,75926,12,0,78512
256,192,86443,5,0
256,312,86960,22,0,B|176:312|176:312|104:272|104:272|64:272,1,200,0|0
32,344,88167,1,2
96,200,88857,1,0
160,56,89546,54,0,B|312:56,2,120,0|0|2
128,128,90926,2,0,B|208:128|208:128|304:176,1,160,0|0
88,104,92477,6,0,B|280:208,1,200,0|2
144,160,93857,2,0,B|336:264,1,200,0|2
264,200,95064,5,0
192,160,95408,21,2
120,120,95753,53,0
120,120,96443,21,0
192,80,96788,1,2
192,160,97133,1,0
264,120,97477,1,2
264,240,97995,6,0,B|264:320|264:320|312:368,1,120
368,368,98857,1,2
448,352,99202,1,0
472,192,99891,1,0
440,32,100581,54,0,B|376:32|376:32|336:80,2,120,0|0|2
424,112,101960,2,0,B|384:160|384:160|200:160,1,240
128,64,103512,6,0,B|360:64,1,200,0|2
256,160,104891,2,0,B|472:160,1,200,0|2
432,240,106098,53,0
296,328,106788,1,2
160,240,107477,1,0
216,88,108167,1,2
376,88,108857,6,0,B|376:264,1,160,0|2
264,360,110236,2,0,B|96:360,1,160,0|2
104,360,111271,1,0
104,360,111615,54,0,B|72:360|64:312|72:264|120:264,1,120,2|0
136,72,112995,2,0,B|168:72|176:120|168:168|120:168,2,120,2|2|2
72,120,114374,6,0,B|240:120,1,160,0|2
392,120,115753,1,0
464,160,116098,1,2
464,240,116443,1,0
392,280,116788,1,2
392,200,117133,54,0,B|344:232|344:232|264:232,2,120,0|2|2
320,160,118512,2,0,B|256:160|256:160|216:120,2,120,0|2|2
288,88,119891,2,0,B|320:152|264:216|184:200,1,160
96,304,121271,6,0,B|256:304,1,160,2|0
200,248,122305,21,2
144,192,122650,22,0,B|328:192,1,160,2|0
360,136,123684,21,2
416,80,124029,54,0,B|256:80,1,160,2|2
256,80,125064,37,0
256,160,125408,2,0,B|256:256,1,80,2|2
216,312,126098,53,2
296,312,126443,53,0
336,240,126788,38,0,B|152:240,1,160,2|0
104,200,127822,37,2
176,160,128167,38,0,B|368:160,1,160,2|2
408,120,129202,5,0
336,80,129546,38,0,B|176:80,1,160,2|2
256,216,130926,53,2
316,320,131443,37,0
196,320,131960,6,0,B|116:320,1,80,0|2
256,192,132477,12,0,135064
112,120,143339,37,0
208,48,143857,2,0,B|280:0|392:40|432:128|416:176,1,280,2|2
408,232,145408,1,0
360,296,145753,1,2
288,328,146098,54,0,B|232:352|144:328,2,120,2|0|2
240,264,147477,2,0,B|184:272|112:248|96:184,1,160,2|0
200,336,148857,6,0,B|344:336,1,120,0|2
408,256,149891,1,0
256,208,150581,1,2
104,160,151271,1,0
256,112,151960,1,2
408,64,152650,1,0
408,64,152995,54,2,B|464:120|464:256|392:312,1,240,2|0
352,336,154374,1,2
200,280,155064,1,0
312,232,155581,2,0,B|352:216|392:232,2,80,2|0|2
120,184,157133,5,0
256,96,157822,1,2
392,184,158512,2,0,B|424:216|424:280|392:320,2,120,0|2|0
256,192,159891,12,0,161271
104,312,161960,5,0
256,264,162650,21,0
408,216,163339,53,2
352,64,164029,6,0,B|240:56|240:96|280:96|280:56|168:64,1,160
352,64,165408,6,0,B|376:104|352:144,1,80
384,216,166098,6,0,B|224:216,1,160,2|0
152,184,167132,21,2
216,136,167477,22,0,B|408:136,1,160,2|0
440,88,168512,21,2
368,56,168856,54,0,B|184:56,1,160,2|2
264,120,169891,37,0
240,200,170236,1,2
272,360,170925,1,2
136,272,171615,6,0,B|112:200|112:200|144:104,1,160,2|0
208,80,172650,37,2
280,120,172994,38,0,B|253:200|253:200|277:272,1,160,2|2
344,320,174029,5,0
389,252,174374,38,0,B|338:192|338:192|234:192,1,160,2|2
256,192,175408,1,0
256,192,175753,53,2
296,80,176270,37,0
216,80,176615,6,0,B|136:80|136:80|96:112,1,120,2|2
48,160,177477,21,0
128,184,177822,1,2
64,240,178167,37,0
144,264,178512,38,0,B|216:288|216:288|320:288,1,160,2|0
376,264,179546,5,2
408,192,179891,37,2
256,144,180581,54,0,B|256:56,2,80,0|2|2
256,224,181615,1,0
216,296,181960,53,2
296,296,182305,53,0
336,224,182650,38,0,B|152:224,1,160,2|0
104,184,183684,37,2
176,144,184029,38,0,B|368:144,1,160,2|2
408,104,185064,5,0
336,64,185408,38,0,B|176:64,1,160,2|2
256,200,186788,53,2
316,304,187305,37,0
196,304,187822,6,0,B|116:304,1,80,0|2
256,192,188339,12,0,190926
