osu file format v9

[General]
AudioFilename: Hiatus.mp3
AudioLeadIn: 0
PreviewTime: 65190
Countdown: 0
SampleSet: Soft
StackLeniency: 0.7
Mode: 0
LetterboxInBreaks: 1

[Editor]
Bookmarks: 8555,37655,66005,102455,121205,160505,193205
DistanceSpacing: 0.3
BeatDivisor: 4
GridSize: 4

[Metadata]
Title:Hiatus
Artist:Hatsune Miku
Creator:wcx19911123
Version:Insane
Source:mstk
Tags:vocaloid vocaloid2

[Difficulty]
HPDrainRate:6
CircleSize:4
OverallDifficulty:6
ApproachRate:9
SliderMultiplier:2
SliderTickRate:1

[Events]
//Background and Video events
Video,-36,"Hiatus.avi"
0,0,"Hiatus.jpg"
//Break Periods
2,27810,37060
2,92609,101860
2,149865,159910
//Storyboard Layer 0 (Background)
//Storyboard Layer 1 (Fail)
//Storyboard Layer 2 (Pass)
//Storyboard Layer 3 (Foreground)
//Storyboard Sound Samples
//Background Colour Transformations
3,100,163,162,255

[TimingPoints]
160,300,4,2,1,70,1,0
16960,-100,4,2,1,45,0,0
17110,-100,4,2,2,45,0,0
17260,-100,4,2,1,45,0,0
17410,-100,4,2,2,45,0,0
17560,-100,4,2,1,45,0,0
17710,-100,4,2,2,45,0,0
17860,-100,4,2,1,45,0,0
18010,-100,4,2,2,45,0,0
18160,-100,4,2,1,70,0,0
26560,-100,4,2,1,45,0,0
26710,-100,4,2,2,45,0,0
26860,-100,4,2,1,45,0,0
27010,-100,4,2,2,45,0,0
27160,-100,4,2,1,45,0,0
27310,-100,4,2,1,70,0,0
41410,-100,4,2,1,55,0,0
42010,-100,4,2,1,70,0,0
60310,-100,4,2,2,70,0,0
60460,-100,4,2,1,70,0,0
60760,-100,4,2,1,60,0,0
61360,-100,4,2,1,70,0,0
66010,-100,4,2,1,70,0,1
85210,-100,4,2,1,70,0,0
120160,-100,4,2,1,45,0,0
120310,-100,4,2,2,45,0,0
120460,-100,4,2,1,45,0,0
120610,-100,4,2,2,45,0,0
120760,-100,4,2,1,45,0,0
120910,-100,4,2,2,45,0,0
121060,-100,4,2,1,70,0,0
121210,-100,4,2,1,70,0,1
140410,-100,4,2,1,70,0,0
160360,-133.333333333333,4,2,1,70,0,0
178360,-133.333333333333,4,2,1,45,0,0
178510,-133.333333333333,4,2,2,45,0,0
178660,-133.333333333333,4,2,1,45,0,0
178810,-133.333333333333,4,2,2,45,0,0
178960,-100,4,2,1,70,0,0
191260,-100,4,2,1,45,0,0
192460,-100,4,2,2,45,0,0
192760,-100,4,2,1,45,0,0
193060,-100,4,2,1,70,0,0
193210,-100,4,2,1,70,0,1
212410,-100,4,2,1,70,0,0
219310,-200,4,2,1,70,0,0

[Colours]
Combo1 : 243,255,26
Combo2 : 11,255,224
Combo3 : 255,32,155

[HitObjects]
256,192,4960,12,4,8260
332,140,8560,5,0
232,76,8710,1,0
412,236,9010,1,0
412,236,9085,1,0
412,236,9160,2,0,B|428:136,1,100,8|0
280,248,9460,2,0,B|192:296,1,100
168,280,9760,5,0
140,292,10060,1,0
112,284,10360,1,8
84,296,10660,1,0
336,116,10960,5,0
456,100,11110,1,0
220,52,11410,1,0
220,52,11485,1,0
220,52,11560,2,0,B|168:148,1,100,8|0
341,269,11860,2,0,B|284:188,1,100
256,176,12160,5,0
252,148,12460,1,0
276,128,12760,1,8
272,100,13060,1,0
472,336,13360,5,0
408,236,13510,1,0
176,300,13810,1,0
176,300,13885,1,0
176,300,13960,2,0,B|276:328,1,100,8|0
132,216,14260,2,0,B|32:188,1,100
136,52,14560,5,0
156,76,14860,1,0
184,80,15160,1,8
204,100,15460,1,0
432,168,15760,5,0
480,56,15910,1,0
316,232,16210,1,0
312,204,16285,1,0
308,176,16360,2,0,B|212:204,1,100,8|0
328,336,16660,2,0,B|424:308,1,100
208,284,16960,5,8
200,284,17035,1,8
192,284,17110,1,2
184,284,17185,1,2
160,304,17260,1,8
152,304,17335,1,8
144,304,17410,1,2
136,304,17485,1,2
116,280,17560,5,8
108,280,17635,1,8
100,280,17710,1,2
92,280,17785,1,2
68,300,17860,1,8
60,300,17935,1,8
52,300,18010,1,2
44,300,18085,1,2
36,300,18160,6,0,B|20:192,1,100,8|0
152,44,18610,1,0
136,68,18685,1,0
120,92,18760,2,0,B|164:180,1,100,8|0
363,87,19060,2,0,B|268:116,1,100
464,252,19510,6,0,B|404:336|284:320,1,200
284,292,19885,1,0
280,264,19960,2,0,B|268:156,1,100,8|0
176,32,20260,2,0,B|188:140,1,100
464,72,20560,5,0
388,168,20710,1,0
112,232,21010,1,0
92,208,21085,1,0
76,184,21160,2,0,B|52:84,1,100,8|0
132,256,21460,2,0,B|156:356,1,100
416,52,21910,6,0,B|308:32|224:92,1,200
200,108,22285,1,0
180,128,22360,2,0,B|68:108,1,100,8|0
268,216,22660,1,0
240,212,22735,1,0
212,208,22810,1,0
184,204,22885,1,0
156,200,22960,6,0,B|44:180,1,100
372,160,23410,1,0
400,172,23485,1,0
428,184,23560,1,8
364,288,23710,1,0
268,216,23860,1,0
372,160,24010,1,0
28,328,24310,6,0,B|68:236|40:132,1,200
52,104,24685,1,0
60,76,24760,2,0,B|112:104|160:60,1,100,8|0
272,44,25060,2,0,B|220:16|172:60,1,100
100,8,25360,5,0
232,112,25510,1,0
420,320,25810,1,0
392,308,25885,1,0
364,296,25960,2,0,B|316:268|252:296,1,100,8|0
136,220,26260,2,0,B|184:248|248:220,1,100
68,348,26560,5,8
56,320,26635,1,8
44,292,26710,1,2
32,264,26785,1,2
32,236,26860,1,8
32,208,26935,1,8
32,180,27010,1,2
32,152,27085,1,2
32,124,27160,2,0,B|32:72,2,50,8|8|8
444,36,27610,5,4
96,236,37660,6,0,B|120:296|184:284,1,100,8|0
56,316,37960,1,0
168,208,38110,2,0,B|140:152|84:160,2,100,0|8|0
400,144,38710,2,0,B|408:88|460:64,1,100,0|8
336,188,39010,2,0,B|372:236|436:216,1,100
332,112,39310,1,0
264,212,39460,1,8
264,212,39610,2,0,B|324:312|440:292,1,200
260,136,40060,5,8
144,104,40210,1,0
24,124,40360,2,0,B|72:124|72:124|80:160|116:172,1,100
84,48,40660,1,8
172,176,40810,1,4
436,340,41110,1,0
492,36,41410,2,0,B|492:140,1,100,8|8
408,224,41710,2,0,B|408:120,2,100,8|8|4
32,328,42460,5,8
128,260,42610,1,0
176,96,42760,2,0,B|132:128|144:188,1,100
220,164,43060,1,8
132,32,43210,2,0,B|44:104|72:216,1,200
252,92,43660,1,8
416,156,43810,2,0,B|328:120|328:120|344:56|292:20,1,200
472,104,44260,1,8
414,231,44410,2,0,B|472:232|492:172,1,100
392,304,44710,2,0,B|336:284|340:220,1,100,0|8
40,300,45160,5,0
156,332,45310,1,0
84,236,45460,1,8
40,60,45610,2,0,B|68:160|68:160|124:152|152:200,1,200,4|0
120,60,46060,2,0,B|228:60,1,100,8|0
460,60,46360,1,8
348,172,46510,1,8
396,20,46660,1,8
424,176,46810,2,0,B|424:248|320:284|280:208,1,200,8|0
136,136,47260,6,0,B|144:80|208:68,1,100,8|0
200,312,47560,2,0,B|144:304|132:240,1,100,8|0
312,72,47860,2,0,B|368:80|380:144,2,100,8|0|8
376,248,48310,1,0
376,248,48385,1,0
376,248,48460,2,0,B|368:304|304:316,1,100,8|0
304,148,48760,1,8
236,312,48910,1,0
236,312,48985,1,0
236,312,49060,2,0,B|240:252|300:240,1,100,8|0
136,244,49360,5,8
180,88,49510,1,0
328,192,49660,2,0,B|432:192,1,100,8|0
256,120,49960,2,0,B|256:16,1,100,8|0
256,264,50260,2,0,B|256:368,2,100,8|0|8
84,192,50710,1,0
84,192,50785,1,0
84,192,50860,2,0,B|184:192,1,100,8|0
328,120,51160,1,8
212,264,51310,1,0
212,264,51385,1,0
212,264,51460,2,0,B|104:264,1,100,8|4
424,56,51910,5,0
448,72,51985,1,0
472,88,52060,2,0,B|500:192,1,100,8|0
344,80,52360,1,8
396,188,52510,1,0
408,216,52585,1,0
420,244,52660,2,0,B|352:332,1,100,8|0
328,96,52960,5,8
284,208,53110,1,0
272,236,53185,1,0
260,264,53260,2,0,B|156:312,1,100,8|0
308,104,53560,1,8
172,184,53710,1,0
144,196,53785,1,0
116,208,53860,2,0,B|8:160,1,100,8|0
216,24,54310,5,0
232,24,54385,1,0
248,24,54460,1,8
264,28,54535,1,0
280,32,54610,1,0
296,36,54685,1,0
308,44,54760,1,8
320,52,54835,1,0
332,60,54910,1,0
344,68,54985,1,0
356,80,55060,1,8
364,92,55135,1,0
372,104,55210,1,0
376,120,55285,1,0
380,132,55360,5,8
380,148,55435,1,0
380,164,55510,1,0
372,180,55585,1,0
364,192,55660,1,8
352,204,55735,1,0
340,212,55810,1,0
324,216,55885,1,0
308,216,55960,2,0,B|308:280|368:296,1,100,8|0
304,144,56260,2,0,B|248:148|236:208,1,100,8|0
76,112,56560,6,0,B|184:136|184:136|216:88|264:76,1,200,4|0
32,188,57010,1,0
40,216,57085,1,0
48,244,57160,2,0,B|160:272,1,100,8|0
464,140,57460,2,0,B|352:112,1,100
256,288,57910,1,8
256,96,58060,1,0
256,96,58360,1,8
256,288,58510,1,0
380,224,58660,5,8
352,216,58735,1,8
324,208,58810,2,0,B|256:188|256:188|132:224,2,200,8|0|0
144,136,59560,1,8
256,96,59710,1,0
368,136,59860,1,0
112,304,60010,2,0,B|256:380|400:304,1,300
44,276,60760,1,8
40,260,60835,1,8
36,244,60910,1,8
32,228,60985,1,8
32,212,61060,1,8
32,196,61135,1,8
32,180,61210,1,8
32,164,61285,1,8
36,148,61360,6,0,B|84:120|128:156,1,100,12|0
260,104,61660,2,0,B|252:160|200:176,1,100
0,76,61960,2,0,B|104:28|192:108,1,200,8|0
456,332,62560,1,0
56,332,62860,1,0
256,44,63160,1,8
256,192,63460,12,0,64810
416,72,65260,5,0
416,312,65560,1,0
208,192,65860,1,8
68,72,66010,6,0,B|88:124|160:136|160:136|200:104|252:132,1,200,4|0
8,116,66460,2,0,B|36:172|96:192,1,100,8|0
28,296,66760,1,0
132,236,66910,1,0
204,332,67060,1,8
376,260,67210,2,0,B|328:304|264:292|264:292|236:252|180:260,1,200
372,184,67660,2,0,B|432:192|448:248,1,100,8|0
308,148,67960,1,0
432,128,68110,1,0
440,100,68185,1,0
440,72,68260,1,8
260,92,68410,6,0,B|312:60|352:92|352:92|368:100|368:84|368:84|360:32|408:4,1,200
236,160,68860,2,0,B|180:140|188:72,1,100,8|0
40,48,69160,1,0
32,168,69310,1,0
112,80,69460,1,8
56,240,69610,2,0,B|108:216|108:152|108:152|160:152|184:100,1,200
108,296,70060,2,0,B|56:332|8:296,1,100,8|0
180,304,70360,1,0
200,324,70435,1,0
228,336,70510,1,0
256,344,70585,1,0
284,344,70660,2,0,B|344:344|372:300,1,100,8|4
124,40,71110,5,0
204,128,71260,1,8
468,308,71560,1,0
388,220,71710,1,0
468,132,71860,1,8
396,292,72010,2,0,B|308:300|280:184|364:148,1,200
256,292,72460,1,8
136,304,72610,1,0
188,196,72760,1,0
68,276,72910,1,0
60,248,72985,1,0
52,220,73060,1,8
8,64,73210,6,0,B|32:152|32:152|96:140|120:200,1,200
184,64,73660,2,0,B|84:64,1,100,8|0
288,152,73960,1,0
256,36,74110,1,0
404,120,74260,1,8
216,132,74410,2,0,B|208:200|272:224|272:224|312:264|288:316,1,200
156,212,74860,2,0,B|181:261|225:281,1,100,8|0
144,140,75160,1,0
116,148,75235,1,0
92,168,75310,1,0
80,196,75385,1,0
80,224,75460,2,0,B|88:272|144:320,1,100,8|4
28,48,75910,5,0
148,64,76060,1,8
484,336,76360,1,0
364,320,76510,1,0
384,200,76660,1,8
260,84,76810,2,0,B|292:132|344:140|344:140|396:112|444:156,1,200
332,48,77260,1,8
332,48,77410,1,0
200,128,77560,2,0,B|232:180|288:200,1,100
300,204,77785,1,0
328,212,77860,1,8
48,208,78010,6,0,B|96:208|156:192|156:192|176:220|224:252,1,200
24,132,78460,2,0,B|88:132|152:112,1,100,8|0
132,276,78760,1,0
240,328,78910,1,0
296,220,79060,1,8
316,340,79210,2,0,B|320:312|308:292|308:292|368:284|388:208|352:176,1,200
392,336,79660,2,0,B|436:292|440:248,1,100,8|0
444,100,79960,1,0
416,88,80035,1,0
388,104,80110,1,0
364,88,80185,1,0
340,104,80260,1,8
236,44,80410,6,0,B|220:104|220:104|216:120|220:192|304:212,1,200,4|0
160,180,80860,1,8
160,180,81160,1,0
116,68,81310,1,0
40,160,81460,1,8
124,248,81610,2,0,B|196:316|308:316,1,200,0|0
52,232,82060,2,0,B|48:296|100:320,1,100,8|0
216,224,82360,2,0,B|264:244|320:244,1,100
224,152,82660,1,8
400,168,82810,6,0,B|344:176|296:168|296:168|300:100|248:84,1,200
428,100,83260,1,8
324,44,83410,1,0
204,32,83560,1,0
96,76,83710,2,0,B|44:104|20:156,1,100,0|8
168,100,84010,2,0,B|152:148|88:136|92:200|36:252,1,200
224,152,84460,1,8
472,336,84760,1,0
460,308,84835,1,0
432,304,84910,1,0
416,280,84985,1,0
388,276,85060,2,0,B|344:252|344:252|344:204,1,100,8|4
52,336,85510,6,0,B|100:336|100:336|140:296,1,100
32,240,85810,1,0
56,220,85885,1,0
80,200,85960,2,0,B|280:200,1,200,8|0
20,156,86410,2,0,B|60:108|120:136,1,100
244,48,86710,2,0,B|204:96|144:68,1,100
300,104,87010,1,0
320,128,87085,1,0
348,132,87160,1,8
88,336,87460,1,0
240,216,87610,6,0,B|132:204|44:280,1,200
53,271,88060,1,0
132,152,88210,1,0
160,144,88285,1,0
188,140,88360,2,0,B|292:132|380:184,1,200,8|0
296,72,88960,1,0
296,72,89110,2,0,B|192:48|92:88,1,200
76,104,89485,1,0
60,128,89560,2,0,B|56:180|4:208,1,100,8|8
440,296,90010,6,0,B|488:192|436:96,1,200
380,248,90460,2,0,B|400:196|376:144,1,100,2|0
372,320,90760,2,0,B|308:312|304:232,1,100
372,80,91060,2,0,B|316:88|308:148,1,100,2|0
232,256,91360,2,0,B|140:320,1,100
232,128,91660,2,0,B|140:64,1,100,2|0
36,192,91960,1,0
172,192,92110,2,0,B|188:192|192:184|192:184|192:200|192:200|200:200|200:200|200:184|200:184|208:184|208:184|208:200|208:200|216:200|216:200|216:184|216:184|224:184|224:184|224:200|224:200|232:200|232:200|232:184|232:184|240:184|240:184|240:200|240:200|248:192|268:192,1,200,0|4
296,100,102460,6,0,B|352:112|360:168,1,100,8|0
240,148,102760,1,0
128,196,102910,1,0
292,200,103060,2,0,B|248:240|196:208,1,100,8|0
472,340,103510,1,0
360,292,103660,1,8
456,40,103960,1,0
364,120,104110,1,0
284,28,104260,1,8
104,88,104410,6,0,B|152:52|212:56|212:56|232:100|280:104,1,200
48,40,104860,2,0,B|12:88|48:136,1,100,8|0
64,312,105160,2,0,B|164:344|260:348,1,200,0|8
448,312,105610,2,0,B|388:336|332:340|332:340|324:288|272:276,2,200
296,204,106360,1,8
268,204,106435,1,0
240,216,106510,1,0
220,240,106585,1,0
208,268,106660,2,0,B|156:264|96:232,1,100,8|4
464,48,107260,5,0
344,32,107410,1,0
428,116,107560,1,8
268,40,107710,2,0,B|280:96|336:108,1,100,0|0
196,44,108010,2,0,B|216:160|340:184,1,200
444,184,108460,1,0
352,260,108610,1,0
324,256,108685,1,0
296,248,108760,2,0,B|240:236|196:192,1,100,8|0
136,104,109060,1,8
8,240,109210,6,0,B|60:220|88:164|88:164|48:120|68:68,1,200
200,64,109660,2,0,B|160:12|100:36,1,100
176,220,109960,2,0,B|164:176|164:176|196:164|208:128,2,100,8|0|0
336,304,110410,2,0,B|284:296|240:252|240:252|220:296|156:292,1,200
368,240,110860,2,0,B|316:236|280:192,1,100
260,172,111085,1,0
244,148,111160,2,0,B|220:104|216:44,1,100,8|0
348,160,111460,2,0,B|308:132|292:76,1,100,8|0
488,40,111760,6,0,B|420:52|384:100|384:100|424:128|416:180,1,200,4|0
456,304,112210,1,0
432,320,112285,1,0
404,336,112360,2,0,B|364:356|300:360,1,100,8|0
140,334,112660,2,0,B|180:356|236:360,1,100
72,364,112960,2,0,B|52:300|108:268|108:268|136:220|108:176,1,200
48,220,113410,1,0
184,276,113560,2,0,B|204:220|184:168,1,100,8|0
176,152,113785,1,0
160,128,113860,1,8
136,112,113935,1,8
108,108,114010,1,8
440,84,114310,6,0,B|384:80|352:36,1,100
460,156,114610,1,0
432,160,114685,1,0
404,156,114760,2,0,B|352:144|308:100,1,100,8|0
244,12,115060,1,0
256,156,115210,2,0,B|332:228|444:240,1,200,0|8
484,348,115660,1,0
364,336,115810,1,0
248,308,115960,1,8
220,300,116035,1,0
192,288,116110,1,0
164,272,116185,1,0
140,256,116260,1,8
116,240,116335,1,8
92,220,116410,1,8
68,200,116485,1,8
48,180,116560,6,0,B|48:120|96:92|96:92|152:96|192:64,1,200,4|0
304,36,117010,1,0
324,56,117085,1,0
344,76,117160,2,0,B|320:184,1,100,8|0
204,172,117460,1,0
389,229,117610,2,0,B|292:252,2,100,0|0|8
389,229,118060,1,0
44,340,118360,1,8
468,340,118660,5,8
440,340,118735,1,8
412,340,118810,1,8
384,340,118885,1,8
356,340,118960,2,0,B|256:340,1,100,8|8
44,44,119410,1,8
468,44,119710,1,8
256,340,120010,1,8
256,260,120160,5,8
256,244,120235,1,8
256,228,120310,1,2
256,212,120385,1,2
256,196,120460,1,8
256,180,120535,1,8
256,164,120610,1,2
256,148,120685,1,2
256,132,120760,1,8
256,116,120835,1,8
256,100,120910,1,2
256,84,120985,1,2
256,68,121060,6,0,B|216:32|164:48,1,100,8|4
56,324,121510,1,0
44,204,121660,1,8
456,60,121960,1,0
468,180,122110,1,0
388,88,122260,1,8
456,252,122410,2,0,B|388:232|396:160|396:160|348:164|320:116,1,200
404,308,122860,2,0,B|460:340|504:308,1,100,8|0
348,260,123160,1,0
260,344,123310,1,0
248,316,123385,1,0
236,288,123460,1,8
60,268,123610,6,0,B|112:264|168:304|168:304|160:256|200:228,1,200
52,340,124060,2,0,B|-8:324|-12:264,1,100,8|0
124,204,124360,1,0
204,116,124510,1,0
88,140,124660,1,8
236,48,124810,2,0,B|280:76|276:124|276:124|336:104|392:104,1,200
164,56,125260,2,0,B|148:68|136:92|136:92|116:72|88:72,1,100,8|0
232,180,125560,1,0
260,196,125635,1,0
288,196,125710,1,0
316,188,125785,1,0
344,184,125860,1,8
480,312,126010,6,0,B|472:244|412:200|412:200|404:240|360:252,1,200,4|0
392,132,126460,2,0,B|440:116|484:172,1,100,8|0
408,308,126760,1,0
296,264,126910,1,0
360,364,127060,1,8
220,260,127210,2,0,B|220:320|288:344|288:344|252:364|204:356,1,200
260,200,127660,2,0,B|212:172|164:212,1,100,8|0
104,312,127960,1,0
96,192,128110,1,0
108,164,128185,1,0
132,144,128260,1,8
328,164,128410,6,0,B|268:108|196:120|196:120|184:88|148:76,1,200
362,99,128860,2,0,B|324:64|272:52,1,100,8|0
448,56,129160,1,0
400,164,129310,1,0
504,100,129460,1,8
396,236,129610,2,0,B|440:236|464:196|464:196|480:260|468:320,1,200
336,192,130060,2,0,B|304:240|344:292,1,100,8|0
284,144,130360,1,0
264,168,130435,1,0
252,196,130510,1,0
248,224,130585,1,0
248,252,130660,1,8
112,340,130810,6,0,B|200:308|200:308|248:344|304:304,1,200,4|0
136,252,131260,2,0,B|28:296,1,100,8|0
24,96,131560,1,0
32,216,131710,1,0
96,116,131860,1,8
268,88,132010,2,0,B|180:28|72:48,1,200
216,140,132460,2,0,B|264:180|312:144,1,100,8|0
352,36,132760,1,0
408,140,132910,1,0
424,116,132985,1,0
440,92,133060,1,8
360,192,133210,6,0,B|392:224|444:204|444:204|484:244|496:312,1,200
292,220,133660,2,0,B|324:276|392:280,1,100,8|0
248,280,133960,1,0
348,344,134110,1,0
228,348,134260,1,8
80,344,134410,2,0,B|156:344|156:344|160:316|176:296|176:296|168:252|208:212,1,200
4,272,134860,2,0,B|104:272,1,100,8|0
20,168,135160,1,0
28,140,135235,1,0
40,112,135310,1,0
56,88,135385,1,0
80,68,135460,1,8
240,28,135610,6,0,B|184:28|148:44|148:44|164:100|108:136,1,200,4|0
312,28,136060,2,0,B|420:32|508:80,1,200,8|0
276,88,136510,1,0
392,112,136660,1,8
504,220,136810,2,0,B|492:164|456:148|456:148|416:204|352:172,1,200
512,300,137260,2,0,B|444:296|424:228,1,100,8|0
316,280,137560,1,0
420,344,137710,1,0
300,352,137860,1,8
144,308,138010,6,0,B|200:316|240:280|240:280|248:216|308:204,1,200
176,232,138460,1,8
72,292,138610,1,0
16,188,138760,1,0
204,164,138910,2,0,B|152:144|112:196,1,100,0|8
248,104,139210,2,0,B|136:52|48:156,1,200
65,137,139660,1,8
288,44,139960,1,0
312,64,140035,1,0
320,92,140110,1,0
320,120,140185,1,0
308,148,140260,2,0,B|276:200|304:256,1,100,8|4
480,36,140710,6,0,B|516:80|492:136,1,100
436,284,141010,1,0
436,284,141085,1,0
436,284,141160,2,0,B|384:192|432:72,1,200,8|0
364,308,141610,2,0,B|340:264|336:208,1,100
296,336,141910,2,0,B|264:284|264:216,1,100
156,344,142210,1,0
184,340,142285,1,0
212,336,142360,2,0,B|164:240|52:224,1,200,8|0
76,344,142810,2,0,B|120:248|216:200,1,200
84,156,143260,2,0,B|112:164|128:172|128:172|148:156|176:144,1,100
256,56,143560,6,0,B|364:56|448:128,1,200,8|0
256,328,144160,2,0,B|148:328|64:256,1,200
376,192,144760,1,8
256,192,144910,1,8
136,192,145060,1,8
256,192,145360,12,0,147460
256,96,160510,22,0,B|304:96|328:144,1,74.9999977648259
256,172,160810,1,0
192,132,160960,2,0,B|172:92|196:52,1,74.9999977648259
192,204,161260,2,0,B|144:208|120:152,1,74.9999977648259
200,276,161560,2,0,B|112:284|56:196,1,149.999995529652,8|0
64,140,162010,1,0
8,252,162160,2,0,B|56:324|140:344,1,149.999995529652
200,348,162610,2,0,B|252:344|268:296,1,74.9999977648259,0|8
260,236,162910,6,0,B|320:236|360:304|320:356,3,149.999995529652
400,368,163960,1,8
408,348,164035,1,0
412,324,164110,1,0
412,300,164185,1,0
408,276,164260,2,0,B|396:224|356:200,1,74.9999977648259,0|8
392,140,164560,1,0
368,136,164635,1,0
344,140,164710,1,0
324,152,164785,1,0
312,168,164860,2,0,B|236:136|160:128,1,149.999995529652,0|8
188,56,165310,5,0
116,76,165460,1,0
96,148,165610,1,0
148,200,165760,2,0,B|104:240|32:220|24:152,1,149.999995529652
24,276,166210,2,0,B|100:316|184:268,1,149.999995529652
220,220,166660,1,0
244,292,166810,1,0
292,236,166960,2,0,B|336:272|320:352|264:360,1,149.999995529652,0|0
268,164,167560,1,8
340,180,167710,1,0
316,108,167860,1,0
388,124,168010,6,0,B|432:152|420:240|364:248,2,149.999995529652
452,84,168760,1,8
436,68,168835,1,0
416,56,168910,1,0
396,48,168985,1,0
376,40,169060,2,0,B|336:28|292:36,1,74.9999977648259,0|8
316,108,169360,1,0
292,108,169435,1,0
272,104,169510,1,0
252,92,169585,1,0
236,76,169660,2,0,B|172:40|88:52,1,149.999995529652,0|8
20,76,170110,5,0
76,124,170260,1,0
152,128,170410,1,0
228,140,170560,2,0,B|216:200|144:228|100:180,1,149.999995529652
36,188,171010,2,0,B|48:272|148:276,1,149.999995529652
216,264,171460,2,0,B|220:316|168:348,1,74.9999977648259
284,228,171760,2,0,B|304:312|252:372,1,149.999995529652
360,287,172210,2,0,B|364:320|344:360,1,74.9999977648259,0|8
356,212,172510,6,0,B|448:220|432:328,3,149.999995529652
488,212,173560,1,8
476,192,173635,1,0
460,176,173710,1,0
444,164,173785,1,0
424,152,173860,2,0,B|388:132|328:140,1,74.9999977648259,0|8
288,180,174160,1,0
280,160,174235,1,0
276,136,174310,1,0
280,112,174385,1,0
292,92,174460,2,0,B|328:44|436:76,1,149.999995529652,0|8
232,40,174910,5,0
204,112,175060,1,0
208,188,175210,1,0
248,252,175360,2,0,B|296:312|404:324,1,149.999995529652
224,332,175810,2,0,B|148:304|68:320,1,149.999995529652
152,240,176260,2,0,B|116:200|140:152,1,74.9999977648259
68,244,176560,2,0,B|24:244|-24:308|20:364,1,149.999995529652
28,176,177010,2,0,B|68:160|84:108,2,74.9999977648259,0|8|0
132,172,177460,1,0
168,108,177610,6,0,B|232:144|316:136,2,149.999995529652
156,32,178360,1,8
180,32,178435,1,8
200,40,178510,1,2
220,48,178585,1,2
240,56,178660,1,8
264,60,178735,1,8
288,60,178810,1,2
312,60,178885,1,2
376,24,178960,6,0,B|400:80|356:116,2,100,12|0|0
452,176,179410,2,0,B|428:120|472:84,2,100,8|0|0
276,204,179860,2,0,B|332:184|384:204|384:204|404:248|460:252,2,200,8|0|8
360,292,180610,1,0
204,360,180760,2,0,B|236:316|288:308,1,100,8|0
120,216,181060,2,0,B|152:260|204:264,1,100,8|0
24,344,181360,6,0,B|64:304|56:252,2,100,12|0|0
32,116,181810,2,0,B|-8:156|0:208,2,100,8|0|0
224,64,182260,2,0,B|148:56|96:80|96:80|116:120|88:168,2,200,8|0|8
164,192,183010,1,0
280,224,183160,1,8
256,204,183235,1,0
248,176,183310,1,0
252,148,183385,1,0
272,124,183460,2,0,B|312:92|368:108,1,100,12|0
484,40,183760,6,0,B|440:72|436:140,1,100,8|0
392,36,184060,1,0
384,180,184210,2,0,B|424:216|424:272,1,100,8|0
484,188,184510,1,0
352,268,184660,2,0,B|360:324|404:336|404:336|340:360|268:344,2,200,8|0|8
224,340,185410,1,0
36,336,185560,1,8
64,344,185635,1,0
92,348,185710,1,0
120,348,185785,1,0
148,340,185860,2,0,B|156:276|216:264,1,100,8|0
36,88,186160,5,12
52,208,186310,2,0,B|64:160|64:160|96:144|104:112,1,100
320,40,186610,1,8
160,80,186760,2,0,B|216:68|276:92,1,100
464,156,187060,2,0,B|412:116|360:100|360:100|396:80|392:28,2,200,8|0|8
256,256,187810,1,0
452,328,187960,2,0,B|352:328,1,100,8|0
60,328,188260,2,0,B|160:328,1,100,8|0
108,92,188560,6,0,B|19:28,2,100,8|0|0
404,292,189010,2,0,B|492:355,2,100,8|0|0
176,136,189460,1,8
336,248,189610,1,0
108,292,189760,6,0,B|19:355,2,100,8|0|0
404,92,190210,2,0,B|492:28,2,100,8|0|0
176,248,190660,1,8
336,136,190810,1,8
256,192,191260,5,8
256,192,191560,1,8
256,192,191860,1,8
256,192,192160,5,8
256,200,192235,1,8
256,208,192310,1,8
256,216,192385,1,8
256,224,192460,1,2
256,232,192535,1,2
256,240,192610,1,2
256,248,192685,1,2
256,256,192760,1,8
256,264,192835,1,8
256,272,192910,1,8
256,280,192985,1,8
256,288,193060,6,0,B|256:344|312:360,1,100,0|4
32,176,193510,2,0,B|56:120|104:112,1,100,0|8
60,244,193810,1,0
96,40,193960,2,0,B|160:44|172:100,1,100
132,228,194260,1,8
340,144,194410,2,0,B|280:124|236:128|236:128|256:84|220:28,1,200
452,40,194860,1,8
408,172,195010,1,0
376,36,195160,1,0
472,136,195310,1,0
484,164,195385,1,0
480,192,195460,1,8
304,296,195610,6,0,B|352:252|428:240|428:240|452:268|504:264,1,200
256,240,196060,2,0,B|216:288|244:336,1,100,8|0
80,224,196360,1,0
164,336,196510,1,0
148,196,196660,1,8
20,328,196810,2,0,B|20:264|20:264|-4:224|20:180|20:180|20:112,1,200
192,36,197260,2,0,B|148:68|92:68,1,100,8|0
236,96,197560,1,0
264,80,197635,1,0
292,72,197710,1,0
320,68,197785,1,0
348,72,197860,1,8
504,188,198010,6,0,B|480:124|416:92|416:92|408:128|360:144,1,200,4|0
200,188,198460,2,0,B|264:156|312:176|312:176|344:224|408:204,1,200,8|0
468,344,198910,1,0
344,280,199060,1,8
160,332,199210,2,0,B|208:328|276:304|276:304|304:356|356:352,1,200
88,352,199660,2,0,B|76:296|128:264,1,100,8|0
20,144,199960,1,0
148,196,200110,1,0
172,212,200185,1,0
192,236,200260,1,8
84,44,200410,6,0,B|120:84|132:120|132:120|176:116|232:168,1,200
384,56,200860,2,0,B|352:104|304:120,1,100,8|0
448,92,201160,1,0
504,228,201310,1,0
368,172,201460,1,8
512,308,201610,2,0,B|444:312|392:216|464:160,1,200
332,320,202060,2,0,B|356:312|372:296|372:296|392:336|428:360,1,100,8|0
204,308,202360,1,0
228,288,202435,1,0
256,272,202510,1,0
284,256,202585,1,0
312,248,202660,1,8
88,256,202810,6,0,B|136:268|136:268|192:212|264:184,1,200,4|0
28,208,203260,2,0,B|0:264|32:304,1,100,8|0
96,184,203560,1,0
156,56,203710,1,0
40,136,203860,1,8
228,52,204010,2,0,B|232:96|192:120|192:120|248:136|324:136,1,200
483,129,204460,2,0,B|440:136|384:136,1,100,8|0
500,56,204760,1,0
468,208,204910,1,0
440,212,204985,1,0
412,212,205060,1,8
228,204,205210,6,0,B|288:212|340:212|340:212|340:260|392:284,1,200
160,236,205660,2,0,B|184:292|268:276,1,100,8|0
164,164,205960,1,0
108,292,206110,1,0
88,152,206260,1,8
28,332,206410,2,0,B|12:264|56:228|56:228|0:204|8:136,1,200
136,92,206860,2,0,B|80:60|36:96,1,100,8|0
180,36,207160,1,0
200,56,207235,1,0
208,84,207310,1,0
204,112,207385,1,0
192,140,207460,1,8
256,4,207610,6,0,B|312:88|248:200,1,200,4|0
352,52,208060,2,0,B|404:32|460:40,1,100,8|0
344,172,208360,1,0
468,108,208510,1,0
392,228,208660,1,8
216,284,208810,2,0,B|264:252|320:248|320:248|340:304|400:304,1,200
208,356,209260,2,0,B|148:344|144:284,1,100,8|0
36,200,209560,1,0
176,224,209710,1,0
80,324,209860,1,8
84,144,210010,6,0,B|164:84|284:76,1,200
443,67,210460,2,0,B|396:64|344:72,2,100,8|0|0
220,164,210910,2,0,B|272:148|336:144,2,100,0|8|0
452,324,211510,1,0
452,324,211660,1,8
172,344,211960,1,0
200,348,212035,1,0
228,352,212110,1,0
256,352,212185,1,0
284,352,212260,2,0,B|336:352|392:340,1,100,8|4
104,328,212710,6,0,B|48:312|8:288,1,100
152,272,213010,1,0
116,84,213160,2,0,B|108:140|147:192|147:192|100:196|79:240,1,200,8|0
188,72,213610,2,0,B|180:128|228:172|228:172|276:168|320:208,1,200
308,316,214060,2,0,B|296:264|240:244,2,100,0|0|8
444,72,214660,5,0
444,72,214810,2,0,B|424:176|360:260,1,200
364,253,215260,1,0
352,116,215410,1,0
352,116,215485,1,0
352,116,215560,2,0,B|428:184|464:288,1,200,8|0
461,280,216010,1,0
288,152,216160,2,0,B|304:172|324:192|324:192|300:212|284:248,1,100
16,192,216610,1,0
44,192,216685,1,0
72,192,216760,2,0,B|176:192,1,100,8|8
256,192,217360,5,0
256,192,217510,12,0,219160
256,244,219310,6,0,B|256:140,1,100,0|4
