osu file format v9

[General]
AudioFilename: Halo Hawayu.mp3
AudioLeadIn: 0
PreviewTime: 116374
Countdown: 0
SampleSet: Normal
StackLeniency: 0.7
Mode: 0
LetterboxInBreaks: 0

[Editor]
DistanceSpacing: 0.8
BeatDivisor: 4
GridSize: 8

[Metadata]
Title:Hello / How are You
Artist:Hatsune Miku
Creator:Lan wings
Version:Kira
Source:Nanou
Tags:Vocaloid Vocaloid2 mztm hotalsou _Kiva No_Gu Mura_77 Sun Rainbow sherrie__fay

[Difficulty]
HPDrainRate:3
CircleSize:4
OverallDifficulty:3
ApproachRate:5
SliderMultiplier:2
SliderTickRate:1

[Events]
//Background and Video events
0,0,"BG.jpg"
//Break Periods
2,137732,141384
2,205942,211489
//Storyboard Layer 0 (Background)
//Storyboard Layer 1 (Fail)
//Storyboard Layer 2 (Pass)
//Storyboard Layer 3 (Foreground)
//Storyboard Sound Samples
//Background Colour Transformations
3,100,163,162,255

[TimingPoints]
8690,631.578947368421,4,2,1,40,1,0
33953,-100,4,1,1,40,0,0
117321,-100,4,1,1,40,0,1
137532,-100,4,1,1,40,0,0
183005,-100,4,1,1,40,0,1
202584,-100,4,1,1,40,0,0
205742,-100,4,2,1,40,0,0
212690,-100,4,1,1,40,0,0
233742,-100,4,1,1,5,0,0
234479,-100,4,1,1,40,0,0
234690,-100,4,1,1,5,0,0
235111,-100,4,1,1,40,0,0
236058,-100,4,1,1,40,0,1
255005,-100,4,1,1,40,0,0
276479,-100,4,2,1,40,0,0
279005,-100,4,2,1,40,0,0
281532,-100,4,2,1,25,0,0

[Colours]
Combo1 : 251,196,121
Combo2 : 78,179,66
Combo3 : 188,118,48
Combo4 : 139,171,137

[HitObjects]
152,48,13111,6,0,B|136:88|136:88|168:88|168:88|144:104|144:104|152:128|152:128|152:216,1,200,0|4
264,264,14268,1,0
240,264,14374,2,0,B|192:304|128:296,1,100,0|0
144,216,15005,2,0,B|80:216|40:264,2,100
232,312,16163,5,0
248,296,16268,2,0,B|320:296|344:248,1,100
280,200,16900,2,0,B|320:160|392:168,2,100
136,128,18163,6,0,B|136:192|136:192|120:176|120:176|112:208|16:224,1,200,0|4
152,232,19321,1,0
176,248,19426,2,0,B|232:272|240:336,1,100
304,280,20058,2,0,B|304:216|360:176,2,100
440,248,21216,5,0
448,224,21321,2,0,B|432:160|376:136,1,100
320,184,21953,2,0,B|272:168|264:96,1,100
264,104,23216,6,0,B|190:185|68:157,1,200,0|4
8,280,24374,1,0
24,256,24479,2,0,B|62:206|126:221,1,100
176,176,25111,2,0,B|200:236|171:283,2,100
256,80,26268,5,0
256,104,26374,2,0,B|224:152|152:152,1,100
97,180,27005,2,0,B|152:296|297:220|289:220,1,200
336,88,28268,1,0
336,88,28900,1,4
472,104,29426,5,0
459,127,29532,2,0,B|419:191|363:183,1,100
310,221,30163,2,0,B|254:245|254:311,1,100
179,325,30795,2,0,B|112:328|82:279,1,100
64,213,31426,2,0,B|124:57|332:107,1,300
377,248,33005,2,0,B|358:187|298:181,2,100
298,265,33953,6,0,B|206:323|94:261,1,200
48,144,35111,1,0
72,128,35216,2,0,B|116:92|180:125,2,100
32,280,36479,5,4
32,280,37111,2,0,B|112:200|232:200,1,200,2|0
288,208,38058,2,0,B|278:328,2,100,2|2|2
264,128,39005,2,0,B|230:89|162:84,1,100
103,113,39637,2,0,B|85:167|107:211,1,100,2|0
188,183,40268,2,0,B|246:288,2,100,0|2|0
188,183,41532,1,4
72,72,42163,5,2
72,72,42795,2,0,B|128:168,1,100,0|2
112,240,43426,2,0,B|215:292,1,100,2|0
272,320,44058,1,0
312,252,44374,1,0
349,181,44689,1,2
408,128,45005,2,0,B|429:182,3,33.3333333333333
376,88,45637,2,0,B|313:88|280:152,1,100,2|2
144,72,46584,5,4
143,70,47216,2,0,B|184:168,1,100,2|0
104,152,47847,2,0,B|70:257,1,100
96,320,48479,1,2
145,258,48795,1,0
218,226,49111,2,0,B|329:193|406:263|412:275,2,200,0|2|0
145,259,50689,2,0,B|101:220|125:157,1,100,2|0
196,139,51321,2,0,B|176:80|115:71,1,100,2|4
126,74,52268,5,0
248,128,52795,1,0
224,136,52900,2,0,B|191:179|122:175,1,100,0|2
56,152,53532,1,0
152,280,54163,1,0
240,192,54689,1,0
266,200,54795,2,0,B|323:224|319:282,1,100,2|0
239,273,55426,2,0,B|178:298|181:363,2,100,0|2|0
398,286,56689,6,0,B|444:201|415:84,1,200,4|2
352,48,57637,2,0,B|256:8|160:72,1,200,0|2
161,70,58584,1,0
152,152,58900,1,0
120,224,59216,2,0,B|64:320,1,100,2|0
152,328,59847,2,0,B|200:240,1,100,2|0
264,184,60479,2,0,B|312:144|368:192,2,100,0|2|0
272,192,61742,5,4
272,192,62374,2,0,B|320:168|376:200,1,100,2|0
392,272,63005,1,0
448,216,63321,1,0
472,136,63637,2,0,B|424:104|392:152|264:120,1,200,2|0
200,88,64584,2,0,B|152:64|104:104,1,100,0|2
152,216,65426,1,0
136,240,65532,2,0,B|120:296|48:296,2,100,0|2|0
216,216,66479,1,0
288,184,66795,5,4
288,184,67426,2,0,B|312:120|368:112,1,100,2|0
392,184,68058,2,0,B|336:200|328:272,2,100,0|0|2
400,192,69321,6,0,B|392:312,1,100
336,352,69953,1,2
264,320,70268,2,0,B|224:264,1,66.6666666666667
208,248,70584,2,0,B|160:280|104:264,2,100,0|0|2
216,256,71847,5,4
216,256,72479,2,0,B|200:200|120:216,1,100,2|0
64,176,73111,2,0,B|32:72,2,100,0|0|2
136,144,74058,1,0
216,128,74374,6,0,B|208:192|168:224,1,100
248,256,75005,2,0,B|216:304|144:296,1,100,2|0
80,312,75637,2,0,B|160:392|280:328,1,200,0|2
184,184,76900,6,0,B|232:163|288:187,1,100,4|0
336,128,77532,2,0,B|336:232,1,100,2|0
336,308,78163,1,0
216,200,78795,2,0,B|168:176|120:200,2,100,0|2|4
368,256,80058,2,0,B|416:280|464:256,2,100,0|2|0
256,144,81321,1,0
95,144,81953,6,0,B|56:240|88:344,1,200,0|2
232,280,83216,2,0,B|280:264|336:280|333:279,2,100,0|2|0
175,336,84163,1,0
94,336,84479,2,0,B|104:280|144:240|184:216|232:208,1,200,0|2
311,208,85426,1,0
391,208,85742,2,0,B|392:152|352:112|304:80|232:96,1,200,0|0
94,92,87005,5,4
94,172,87321,2,0,B|94:273,2,100,0|2|0
94,92,88268,2,0,B|144:64|200:96,1,100
189,170,88900,1,2
189,330,89532,2,0,B|239:358|295:326,1,100,4|0
284,251,90163,2,0,B|284:137,1,100,2|0
340,94,90795,1,0
499,94,91426,1,2
440,240,92058,6,0,B|440:344,2,100,0|0|2
440,159,93005,1,0
440,78,93321,2,0,B|390:50|334:82,1,100
287,133,93953,2,0,B|237:161|181:129,1,100,2|0
120,96,94584,1,0
120,256,95216,1,2
264,336,95847,1,0
200,192,96479,6,0,B|216:145,3,33.3333333333333,2|0|0|0
232,240,97111,2,0,B|282:268|338:236,1,100,0|2
400,208,97742,1,4
248,272,98374,6,0,B|198:300|142:268,1,100,0|2
96,216,99005,1,4
264,256,99637,6,0,B|264:360,2,100,0|2|0
264,175,100584,1,0
188,149,100900,2,0,B|200:104|264:64|328:104|344:160,1,200,0|4
392,304,102163,6,0,B|496:304,2,100,0|2|0
264,208,103426,2,0,B|160:208,2,100,0|2|0
424,208,104689,1,0
464,136,105005,1,2
424,64,105321,1,0
352,32,105637,2,0,B|305:8|257:32,1,100,2|0
256,192,106584,5,0
256,272,106900,1,0
256,352,107216,2,0,B|208:376|152:352,1,100,4|0
159,274,107847,2,0,B|159:172,2,100,0|2|0
304,352,109111,2,0,B|416:352,1,100
484,352,109742,1,4
370,238,110374,1,2
483,124,111005,1,0
408,96,111321,2,0,B|360:72|312:96,2,100,0|2|0
456,160,112268,6,0,B|456:272,1,100,4|0
456,340,112900,1,2
342,226,113532,2,0,B|342:124,1,100,4|0
342,45,114163,1,2
256,192,114795,12,4,115953
144,120,117321,6,0,B|240:96,1,100,4|0
320,80,117953,1,2
456,168,118584,2,0,B|504:208|400:304|472:352,2,200,0|2|0
384,208,120163,1,0
320,256,120479,2,0,B|352:288|296:320|336:352,2,100,2|0|2
256,304,121426,1,0
80,144,122374,6,0,B|88:200|144:216,1,100,4|0
221,215,123005,2,0,B|320:215|320:216,2,100,2|0|2
140,215,123953,1,0
60,215,124268,2,0,B|32:112,1,100,2|0
90,61,124900,2,0,B|144:40|200:64,1,100
256,104,125532,1,2
256,183,125847,1,0
256,192,126163,12,4,127426
256,192,128058,6,0,B|352:136,2,100,2|0|0
175,192,129005,1,0
102,226,129321,2,0,B|128:280|184:272,1,100,2|0
262,272,129953,2,0,B|360:272,2,100,0|0|2
192,312,130900,1,0
111,312,131216,2,0,B|112:256|176:232,1,100
248,216,131847,1,2
406,235,132479,6,0,B|464:208|448:144,1,100
450,74,133111,1,2
384,120,133426,1,0
303,120,133742,2,0,B|192:120,2,100,0|0|2
384,120,134689,1,0
464,120,135005,2,0,B|488:168|464:232,1,100
428,217,135532,2,0,B|384:216,1,33.3333333333333,2|2
256,192,135953,12,0,137532
112,80,142584,5,4
431,80,143847,1,2
112,152,145111,1,4
431,152,146374,1,2
112,296,147637,6,0,B|216:296,1,100,4|0
452,296,148900,2,0,B|344:296,1,100,4|0
272,72,150163,2,0,B|272:184,3,100,4|0|4|0
272,252,151426,2,0,B|272:364,3,100,0|2|0|2
440,304,153005,5,4
326,190,153637,1,2
212,303,154268,1,4
98,189,154900,1,2
56,120,155216,6,0,B|112:96|160:136,1,100
224,160,155847,2,0,B|273:195|329:165,1,100,2|0
392,144,156479,1,0
288,24,157111,1,2
288,183,157742,6,0,B|288:288,1,100,4|0
224,328,158374,2,0,B|120:296,1,100,2|0
48,298,159005,2,0,B|48:240|112:216,1,100
181,220,159637,2,0,B|282:220,1,100,2|0
361,220,160268,1,0
474,106,160900,1,2
320,64,161532,1,0
256,192,161689,12,4,162795
256,192,163426,5,2
120,272,164058,2,0,B|72:288|16:272,2,100,0|0|2
256,192,165321,2,0,B|264:136|328:120,1,100
384,176,165953,2,0,B|384:280,2,100,2|0|2
384,95,166900,1,0
384,16,167216,1,2
296,144,167847,6,0,B|293:205|229:221,1,100,4|0
168,248,168479,1,2
144,88,169111,2,0,B|191:62|255:86,1,100
296,144,169742,2,0,B|296:256,2,100,2|0|2
360,96,170689,1,0
424,144,171005,2,0,B|424:257,1,100,2|0
376,312,171637,1,0
215,315,172268,6,0,B|120:288,1,100,4|0
48,256,172900,2,0,B|72:200|144:208,1,100
207,207,173532,1,2
286,207,173847,1,0
366,207,174163,1,2
480,88,174795,6,0,B|376:48,1,100
312,88,175426,2,0,B|216:128,1,100,4|0
144,96,176058,2,0,B|128:144|152:208|216:224|272:192,1,200,2|0
336,168,177005,1,0
408,128,177321,1,2
472,272,177953,6,0,B|472:376,2,100,0|2|0
358,158,179216,2,0,B|358:58|360:56,2,100,0|2|0
301,214,180163,1,0
244,270,180479,2,0,B|192:296|136:264,1,100
88,216,181111,2,0,B|88:112,1,100,2|0
88,72,181637,1,0
256,192,181742,12,4,183005
336,192,183637,2,0,B|392:176|392:112,1,100,2|0
352,48,184268,2,0,B|243:48,2,100,0|0|2
432,48,185216,1,0
472,120,185532,2,0,B|472:232,1,100
472,300,186163,2,0,B|408:304|392:240,1,100,2|0
394,169,186795,1,0
394,88,187111,1,0
328,40,187426,6,0,B|280:24|216:40,1,100,2|0
160,80,188058,2,0,B|72:128,2,100,0|0|2
232,40,189005,1,0
312,40,189321,2,0,B|352:48|352:48|360:64|360:64|400:72,1,100
480,96,189953,1,2
480,175,190268,1,0
448,248,190584,2,0,B|424:288|424:288|408:296|408:296|392:336,1,100
320,352,191216,1,2
239,352,191532,1,0
256,192,191847,12,4,193111
256,192,193742,5,2
256,112,194058,1,0
216,40,194374,2,0,B|168:56|144:120,2,100,0|0|2
296,40,195321,2,0,B|344:64|368:120,1,100
384,192,195953,1,0
352,264,196268,2,0,B|305:287|257:263,1,100,2|0
232,216,196795,2,0,B|152:208|88:248,1,133.333333333333
39,293,197532,1,2
95,349,197847,1,0
176,352,198163,6,0,B|217:323|233:267,1,100
232,192,198795,1,2
230,106,199111,1,0
168,48,199426,2,0,B|131:87|136:152|168:192|240:192,1,200,0|2
304,152,200374,1,0
376,120,200689,2,0,B|488:120,2,100,0|0|2
304,80,201637,2,0,B|256:64|200:80,1,100
148,135,202268,1,0
204,191,202584,1,2
256,192,203216,12,4,205742
128,96,212689,6,0,B|176:72|232:80|272:120|272:184,1,200,0|4
288,312,213847,1,0
311,298,213953,2,0,B|407:258,2,100,2|0|0
254,241,214900,2,0,B|207:211|151:243,1,100,0|2
96,288,215532,1,0
56,216,215847,2,0,B|40:160|72:112|136:96|192:136,1,200,0|2
232,192,216795,2,0,B|264:240|320:256|368:240|400:184,1,200,0|2
392,112,217742,6,0,B|336:112|288:176|328:256|384:256,1,200,0|4
488,253,218900,1,0
488,253,219005,1,2
440,320,219321,2,0,B|392:344|336:320,1,100
272,280,219953,2,0,B|224:256|176:280,2,100,0|2|0
344,320,220900,2,0,B|368:264|344:184|272:192|224:192,1,200,0|2
160,184,221847,2,0,B|160:128|248:80|280:112|328:128,1,200,0|2
392,152,222795,5,0
440,304,223426,2,0,B|408:352|344:360|288:328|288:264,1,200,4|2
288,194,224374,2,0,B|288:88,2,100
288,274,225321,2,0,B|272:328|216:344,1,100,2|0
144,336,225953,2,0,B|32:336|40:208,1,166.666666666667,0|2
104,144,226900,1,0
176,112,227216,2,0,B|272:64,2,100,0|2|0
24,152,228479,6,0,B|49:264,1,100
104,312,229111,2,0,B|152:344|208:336,1,100,2|0
264,288,229742,2,0,B|296:240|360:224,1,100
424,248,230374,2,0,B|424:352,2,100,2|0|2
440,168,231321,1,0
392,104,231637,1,2
320,72,231953,1,2
240,56,232268,2,0,B|192:64|128:104|152:192|216:224,1,200
344,184,233532,5,4
344,184,233742,2,0,B|304:144|240:136,1,100
168,200,234479,1,0
168,200,234690,2,0,B|208:240|272:248,1,100
176,128,235426,2,0,B|192:80|256:56|320:80|336:136,1,200,0|4
368,200,236374,5,0
408,272,236689,2,0,B|464:360,2,100,2|0|0
368,200,237637,2,0,B|312:192|280:240,1,100,0|2
240,304,238268,1,0
168,272,238584,5,0
54,158,239216,1,2
167,44,239847,1,0
240,64,240163,2,0,B|296:80|312:136|313:138,2,100,0|2|0
167,44,241111,6,0,B|80:56|192:192|64:208,1,200,0|2
8,192,242058,1,0
56,128,242374,2,0,B|104:152|104:216|80:272|8:272,2,200,0|2|0
8,64,243953,1,0
88,56,244268,2,0,B|136:80|168:128|176:184|160:248,1,200,2|0
144,304,245216,2,0,B|264:304,2,100,0|2|0
64,304,246163,5,4
64,143,246795,1,2
177,29,247426,1,0
257,29,247742,2,0,B|312:40|328:96,1,100,2|0
327,173,248374,1,0
327,252,248689,6,0,B|272:256|232:200|232:128|296:104,1,200,4|2
360,80,249637,1,0
440,104,249953,2,0,B|424:160|376:184|312:176|280:112,1,200,0|2
232,64,250900,1,0
160,104,251216,6,0,B|104:128|96:192,1,100,4|0
88,256,251847,2,0,B|144:264|176:320,1,100,2|0
232,360,252479,2,0,B|272:328|280:272|264:216|216:184,1,200,0|2
152,136,253426,1,0
224,96,253742,6,0,B|272:64|336:72,1,100,4|0
400,88,254374,1,2
464,136,254689,1,0
256,192,254847,12,4,256268
352,128,256900,6,0,B|280:208|168:160,1,200,2|0
104,112,257847,2,0,B|63:139|63:139|31:179,1,100,0|2
96,224,258479,1,0
128,296,258795,6,0,B|208:344|328:320,2,200,0|2|0
96,224,260374,2,0,B|72:176|112:120,1,100,0|2
184,152,261005,2,0,B|208:104|272:96,1,100,0|6
263,97,261953,5,2
340,115,262268,1,0
384,181,262584,2,0,B|372:237|372:237|333:277,2,100,2|0|2
340,115,263532,1,0
262,95,263847,2,0,B|142:92|96:208,3,200,0|2|0|2
112,200,266374,1,4
112,200,267005,6,0,B|156:308,1,100,2|0
224,262,267637,2,0,B|263:319|322:308,1,100
381,280,268268,1,2
463,140,268900,6,0,B|376:197|261:140,1,200,0|2
148,43,270163,2,0,B|216:120|168:240,1,200,0|2
180,240,271426,1,4
180,240,272058,6,0,B|230:246|267:291,1,100,2|0
344,272,272689,2,0,B|392:288|456:256,1,100
384,208,273321,2,0,B|403:141|372:93,1,100,2|0
310,153,273953,6,0,B|276:94|221:93,1,100
211,171,274584,2,0,B|158:139|105:173,1,100,2|0
65,229,275216,2,0,B|87:334|227:329,2,200,0|2|4
65,229,277111,5,2
166,105,277742,1,2
166,105,278058,1,2
324,88,278689,5,2
402,102,279005,2,0,B|412:163|393:217,1,100,2|0
461,251,279637,1,0
400,296,279953,2,0,B|312:336|192:344,1,200,2|0
128,336,280900,1,2
128,336,281532,1,4
288,304,282163,6,0,B|299:236|353:216,1,100,2|0
416,208,282795,2,0,B|440:150|405:100,1,100,0|2
261,74,283742,1,2
184,88,284058,2,0,B|128:96|72:144,1,100,2|0
160,176,284690,2,0,B|168:232|144:296,1,100,0|2
