osu file format v9

[General]
AudioFilename: Halo Hawayu.mp3
AudioLeadIn: 0
PreviewTime: 116374
Countdown: 0
SampleSet: Soft
StackLeniency: 0.7
Mode: 0
LetterboxInBreaks: 0

[Editor]
DistanceSpacing: 1.3
BeatDivisor: 6
GridSize: 8

[Metadata]
Title:Hello / How are You
Artist:Hatsune Miku
Creator:Lan wings
Version:Insane
Source:Nanou
Tags:Vocaloid Vocaloid2 mztm hotalsou _Kiva No_Gu Mura_77 Sun Rainbow sherrie__fay

[Difficulty]
HPDrainRate:7
CircleSize:4
OverallDifficulty:7
ApproachRate:8
SliderMultiplier:2.4
SliderTickRate:1

[Events]
//Background and Video events
0,0,"BG.jpg"
//Break Periods
2,36678,54676
2,137731,141518
2,203415,211939
//Storyboard Layer 0 (Background)
//Storyboard Layer 1 (Fail)
//Storyboard Layer 2 (Pass)
//Storyboard Layer 3 (Foreground)
//Storyboard Sound Samples
//Background Colour Transformations
3,100,163,162,255

[TimingPoints]
8690,631.578947368421,4,2,1,40,1,0
13058,-133.333333333333,4,2,1,40,0,0
13689,-133.333333333333,4,2,1,30,0,0
13689,-133.333333333333,4,2,1,40,0,0
18110,-133.333333333333,4,2,1,45,0,0
18742,-133.333333333333,4,2,1,40,0,0
27900,-133.333333333333,4,2,1,35,0,0
28215,-133.333333333333,4,2,1,40,0,0
33900,-133.333333333333,4,1,1,25,0,0
34216,-133.333333333333,4,2,1,40,0,0
34321,-133.333333333333,4,1,1,25,0,0
34636,-133.333333333333,4,2,1,40,0,0
35058,-133.333333333333,4,1,1,25,0,0
35584,-133.333333333333,4,2,1,28,0,0
36426,-133.333333333333,4,1,1,35,0,0
55373,-133.333333333333,4,1,1,25,0,0
55689,-133.333333333333,4,1,2,35,0,0
56005,-133.333333333333,4,2,1,40,0,0
56636,-133.333333333333,4,1,1,40,0,0
56952,-133.333333333333,4,2,1,40,0,0
57794,-133.333333333333,4,1,1,25,0,0
58215,-133.333333333333,4,1,1,30,0,0
58531,-133.333333333333,4,2,1,40,0,0
58847,-133.333333333333,4,1,1,25,0,0
59058,-133.333333333333,4,2,1,40,0,0
59163,-133.333333333333,4,1,1,35,0,0
59373,-133.333333333333,4,2,1,40,0,0
60321,-133.333333333333,4,1,1,25,0,0
60426,-133.333333333333,4,1,1,35,0,0
60742,-133.333333333333,4,1,2,35,0,0
61058,-133.333333333333,4,2,1,40,0,0
61373,-133.333333333333,4,2,1,60,0,0
61584,-133.333333333333,4,1,1,25,0,0
61689,-133.333333333333,4,1,1,40,0,0
62005,-133.333333333333,4,2,1,40,0,0
62847,-133.333333333333,4,1,1,25,0,0
62952,-133.333333333333,4,1,1,35,0,0
63268,-133.333333333333,4,1,1,25,0,0
63584,-133.333333333333,4,2,1,40,0,0
63900,-133.333333333333,4,1,1,28,0,0
64110,-133.333333333333,4,2,1,40,0,0
64215,-133.333333333333,4,1,1,30,0,0
64531,-133.333333333333,4,2,1,40,0,0
65373,-133.333333333333,4,1,1,25,0,0
65479,-133.333333333333,4,1,1,35,0,0
65794,-133.333333333333,4,1,2,35,0,0
66110,-133.333333333333,4,2,1,40,0,0
66426,-133.333333333333,4,1,1,25,0,0
66742,-133.333333333333,4,1,1,40,0,0
67058,-133.333333333333,4,2,1,40,0,0
67689,-133.333333333333,4,2,1,35,0,0
67900,-133.333333333333,4,1,1,25,0,0
68005,-133.333333333333,4,1,1,35,0,0
68531,-133.333333333333,4,2,1,40,0,0
68952,-133.333333333333,4,1,1,30,0,0
69268,-133.333333333333,4,1,1,43,0,0
69479,-133.333333333333,4,2,1,40,0,0
70426,-133.333333333333,4,1,1,25,0,0
70531,-133.333333333333,4,1,1,35,0,0
70847,-133.333333333333,4,1,2,35,0,0
71163,-133.333333333333,4,2,1,40,0,0
71794,-133.333333333333,4,1,1,35,0,0
72110,-133.333333333333,4,2,1,40,0,0
72952,-133.333333333333,4,1,1,25,0,0
73058,-133.333333333333,4,1,1,35,0,0
73689,-133.333333333333,4,2,1,40,0,0
74321,-133.333333333333,4,1,1,40,0,0
74636,-133.333333333333,4,2,1,40,0,0
75479,-133.333333333333,4,1,1,25,0,0
75584,-133.333333333333,4,1,1,35,0,0
75900,-133.333333333333,4,1,2,40,0,0
76268,-133.333333333333,4,2,1,40,0,0
76531,-100,4,2,1,40,0,0
76847,-100,4,1,1,55,0,0
77058,-100,4,2,1,40,0,0
78005,-100,4,1,1,30,0,0
78110,-100,4,1,1,40,0,0
78636,-100,4,2,1,40,0,0
79373,-100,4,1,1,50,0,0
79584,-100,4,2,1,40,0,0
80531,-100,4,1,1,30,0,0
80636,-100,4,1,1,40,0,0
80847,-100,4,2,1,40,0,0
80952,-100,4,1,2,40,0,0
81163,-100,4,2,1,40,0,0
81794,-100,4,1,1,30,0,0
81900,-100,4,1,1,40,0,0
82215,-100,4,2,1,40,0,0
83058,-100,4,1,1,30,0,0
83163,-100,4,1,1,40,0,0
83479,-100,4,1,1,35,0,0
83794,-100,4,2,1,40,0,0
84426,-100,4,1,1,40,0,0
84742,-100,4,2,1,40,0,0
85584,-100,4,1,1,30,0,0
85689,-100,4,1,1,40,0,0
86005,-100,4,1,2,40,0,0
86321,-100,4,2,1,40,0,0
86636,-100,4,1,1,35,0,0
86952,-100,4,1,1,30,0,0
87268,-100,4,2,1,40,0,0
88110,-100,4,1,1,30,0,0
88215,-100,4,1,1,40,0,0
88426,-100,4,2,1,40,0,0
88531,-100,4,1,1,40,0,0
88847,-100,4,2,1,40,0,0
89479,-100,4,1,1,40,0,0
89794,-100,4,2,1,40,0,0
90636,-100,4,1,1,30,0,0
90742,-100,4,1,1,40,0,0
90952,-100,4,2,1,40,0,0
91058,-100,4,1,2,40,0,0
91268,-100,4,2,1,40,0,0
92005,-100,4,1,1,40,0,0
92321,-100,4,2,1,40,0,0
93163,-100,4,1,1,30,0,0
93268,-100,4,1,1,40,0,0
93584,-100,4,1,1,35,0,0
93900,-100,4,2,1,40,0,0
94531,-100,4,1,1,40,0,0
94847,-100,4,2,1,40,0,0
95689,-100,4,1,1,30,0,0
95794,-100,4,1,1,40,0,0
96110,-100,4,1,2,40,0,0
96426,-100,4,2,1,40,0,0
96742,-100,4,1,2,40,0,0
97058,-100,4,1,1,40,0,0
97373,-100,4,2,1,40,0,0
98215,-100,4,1,1,30,0,0
98321,-100,4,1,1,40,0,0
98531,-100,4,2,1,25,0,0
98636,-100,4,1,1,40,0,0
98952,-100,4,2,1,40,0,0
99163,-100,4,1,1,30,0,0
99268,-100,4,2,1,40,0,0
99584,-100,4,1,1,40,0,0
99900,-100,4,2,1,40,0,0
100742,-100,4,1,1,25,0,0
100847,-100,4,1,1,30,0,0
101058,-100,4,2,1,30,0,0
101163,-100,4,1,1,40,0,0
101479,-100,4,2,1,40,0,0
101794,-100,4,2,1,50,0,0
102110,-100,4,1,1,40,0,0
102426,-100,4,2,1,40,0,0
103268,-100,4,1,1,30,0,0
103373,-100,4,1,1,40,0,0
103584,-100,4,2,1,30,0,0
103689,-100,4,1,1,40,0,0
104005,-100,4,2,1,40,0,0
104215,-100,4,1,1,25,0,0
104321,-100,4,2,1,40,0,0
104636,-100,4,1,1,40,0,0
104952,-100,4,2,1,40,0,0
105794,-100,4,1,1,30,0,0
105900,-100,4,1,1,40,0,0
106110,-100,4,2,1,30,0,0
106215,-100,4,2,1,40,0,0
106847,-100,4,1,1,40,0,0
107479,-100,4,2,1,40,0,0
108321,-100,4,1,1,30,0,0
108426,-100,4,1,1,40,0,0
108636,-100,4,2,1,30,0,0
108742,-100,4,1,1,40,0,0
108952,-100,4,2,1,40,0,0
109689,-100,4,1,1,40,0,0
110005,-100,4,2,1,40,0,0
110847,-100,4,1,1,30,0,0
110952,-100,4,1,1,40,0,0
111163,-100,4,2,1,30,0,0
111268,-100,4,1,1,40,0,0
111584,-100,4,2,1,40,0,0
112215,-100,4,1,1,40,0,0
112531,-100,4,2,1,40,0,0
113373,-100,4,1,1,30,0,0
113479,-100,4,1,1,40,0,0
113689,-100,4,2,1,30,0,0
113794,-100,4,1,1,40,0,0
114110,-100,4,2,1,40,0,0
114426,-100,4,1,1,40,0,0
114636,-100,4,2,1,35,0,0
115953,-100,4,1,1,40,0,0
116636,-133.333333333333,4,1,1,40,0,0
117321,-66.6666666666667,4,1,1,50,0,1
117479,-66.6666666666667,4,2,1,50,0,1
117584,-66.6666666666667,4,1,1,50,0,1
117794,-66.6666666666667,4,2,1,50,0,1
118426,-66.6666666666667,4,1,1,40,0,1
118531,-66.6666666666667,4,1,1,50,0,1
118742,-66.6666666666667,4,2,1,40,0,1
118847,-66.6666666666667,4,1,1,50,0,1
119163,-66.6666666666667,4,2,1,50,0,1
119689,-66.6666666666667,4,1,1,40,0,1
119794,-66.6666666666667,4,1,1,50,0,1
120005,-66.6666666666667,4,2,1,50,0,1
120110,-66.6666666666667,4,1,1,50,0,1
120321,-66.6666666666667,4,2,1,50,0,1
120952,-66.6666666666667,4,1,1,40,0,1
121058,-66.6666666666667,4,1,1,50,0,1
121689,-66.6666666666667,4,2,1,50,0,1
122005,-66.6666666666667,4,1,1,40,0,1
122215,-66.6666666666667,4,2,1,40,0,1
122321,-66.6666666666667,4,1,1,50,0,1
122847,-66.6666666666667,4,2,1,50,0,1
123479,-66.6666666666667,4,1,1,40,0,1
123584,-66.6666666666667,4,1,1,50,0,1
123794,-66.6666666666667,4,2,1,40,0,1
123894,-66.6666666666667,4,1,1,50,0,1
124110,-66.6666666666667,4,2,1,50,0,1
124742,-66.6666666666667,4,1,1,40,0,1
124847,-66.6666666666667,4,1,1,50,0,1
125479,-66.6666666666667,4,2,1,50,0,1
126005,-66.6666666666667,4,1,1,40,0,1
126110,-66.6666666666667,4,1,1,50,0,1
126321,-66.6666666666667,4,2,1,40,0,1
126426,-66.6666666666667,4,1,1,50,0,1
126636,-66.6666666666667,4,2,1,50,0,1
126952,-66.6666666666667,4,1,2,50,0,1
127058,-66.6666666666667,4,2,1,50,0,1
127373,-66.6666666666667,4,1,2,50,0,1
127900,-66.6666666666667,4,2,1,50,0,1
128531,-66.6666666666667,4,1,1,40,0,1
128636,-66.6666666666667,4,1,1,50,0,1
128847,-66.6666666666667,4,2,1,40,0,1
128952,-66.6666666666667,4,1,1,50,0,1
129163,-66.6666666666667,4,2,1,50,0,1
129794,-66.6666666666667,4,1,1,40,0,1
129900,-66.6666666666667,4,1,1,50,0,1
130110,-66.6666666666667,4,2,1,40,0,1
130215,-66.6666666666667,4,1,1,50,0,1
130531,-66.6666666666667,4,2,1,50,0,1
131058,-66.6666666666667,4,1,1,40,0,1
131163,-66.6666666666667,4,1,1,50,0,1
131373,-66.6666666666667,4,2,1,40,0,1
131479,-66.6666666666667,4,1,1,50,0,1
131794,-66.6666666666667,4,2,1,50,0,1
132110,-66.6666666666667,4,1,1,50,0,1
132321,-66.6666666666667,4,2,1,40,0,1
132426,-66.6666666666667,4,1,1,40,0,1
132742,-66.6666666666667,4,1,1,50,0,1
132952,-66.6666666666667,4,2,1,35,0,1
133584,-66.6666666666667,4,1,1,40,0,1
133689,-66.6666666666667,4,1,1,50,0,1
133900,-66.6666666666667,4,2,1,40,0,1
134005,-66.6666666666667,4,1,1,50,0,1
134110,-66.6666666666667,4,2,1,50,0,1
134847,-66.6666666666667,4,1,1,40,0,1
134952,-66.6666666666667,4,1,1,50,0,1
135479,-66.6666666666667,4,2,1,50,0,1
136110,-66.6666666666667,4,1,1,40,0,1
136215,-66.6666666666667,4,1,1,50,0,1
136426,-66.6666666666667,4,2,1,40,0,1
136531,-66.6666666666667,4,1,1,50,0,1
136847,-100,4,2,1,50,0,1
137532,-133.333333333333,4,2,1,40,0,0
142531,-133.333333333333,4,1,1,35,0,0
142847,-133.333333333333,4,2,1,40,0,0
143689,-133.333333333333,4,1,1,30,0,0
143794,-133.333333333333,4,2,1,40,0,0
144110,-133.333333333333,4,1,1,35,0,0
144321,-133.333333333333,4,2,1,40,0,0
144742,-133.333333333333,4,1,1,30,0,0
145373,-133.333333333333,4,2,1,40,0,0
146215,-133.333333333333,4,1,1,30,0,0
146321,-133.333333333333,4,1,1,25,0,0
146531,-133.333333333333,4,2,1,40,0,0
146636,-133.333333333333,4,1,2,30,0,0
146847,-133.333333333333,4,2,2,30,0,0
146952,-133.333333333333,4,1,2,30,0,0
147268,-133.333333333333,4,1,1,5,0,0
147584,-133.333333333333,4,2,1,40,0,0
148742,-133.333333333333,4,1,1,20,0,0
148847,-133.333333333333,4,1,1,25,0,0
149163,-133.333333333333,4,1,1,30,0,0
149479,-133.333333333333,4,2,1,40,0,0
149794,-133.333333333333,4,1,1,25,0,0
150110,-133.333333333333,4,1,1,30,0,0
150426,-133.333333333333,4,2,1,40,0,0
150636,-133.333333333333,4,1,1,25,0,0
150742,-133.333333333333,4,1,1,30,0,0
151058,-133.333333333333,4,2,1,40,0,0
151268,-133.333333333333,4,1,1,25,0,0
151373,-133.333333333333,4,1,1,30,0,0
152005,-133.333333333333,4,2,1,40,0,0
152636,-100,4,2,1,40,0,0
153794,-100,4,1,1,30,0,0
153900,-100,4,1,1,40,0,0
154110,-100,4,2,1,40,0,0
154215,-100,4,1,1,30,0,0
154426,-100,4,2,1,40,0,0
155163,-100,4,1,1,40,0,0
155479,-100,4,2,1,40,0,0
156321,-100,4,1,1,30,0,0
156426,-100,4,1,1,40,0,0
156636,-100,4,2,1,40,0,0
156742,-100,4,1,2,40,0,0
156952,-100,4,2,1,40,0,0
157373,-100,4,1,1,30,0,0
157689,-100,4,1,1,40,0,0
158005,-100,4,2,1,40,0,0
158847,-100,4,1,1,30,0,0
158952,-100,4,1,1,40,0,0
159584,-100,4,2,1,40,0,0
160215,-100,4,1,1,30,0,0
160531,-100,4,2,1,40,0,0
161373,-100,4,1,1,30,0,0
161479,-100,4,1,1,40,0,0
161794,-100,4,1,2,40,0,0
162110,-100,4,2,1,40,0,0
162426,-100,4,1,2,40,0,0
162636,-100,4,2,1,40,0,0
162742,-100,4,1,1,40,0,0
163058,-100,4,2,1,40,0,0
163900,-100,4,1,1,30,0,0
164005,-100,4,1,1,40,0,0
164215,-100,4,2,1,30,0,0
164321,-100,4,1,1,40,0,0
164636,-100,4,2,1,40,0,0
164847,-100,4,1,1,25,0,0
164952,-100,4,2,1,40,0,0
165268,-100,4,1,1,40,0,0
165584,-100,4,2,1,40,0,0
166426,-100,4,1,1,30,0,0
166531,-100,4,1,1,40,0,0
166742,-100,4,2,1,30,0,0
166847,-100,4,1,1,40,0,0
167163,-100,4,2,1,40,0,0
167479,-100,4,1,1,40,0,0
168110,-100,4,2,1,40,0,0
168952,-100,4,1,1,30,0,0
169058,-100,4,1,1,40,0,0
169268,-100,4,2,1,30,0,0
169373,-100,4,1,1,40,0,0
169584,-100,4,2,1,40,0,0
169900,-100,4,1,1,25,0,0
170005,-100,4,2,1,40,0,0
170321,-100,4,1,1,40,0,0
170636,-100,4,2,1,40,0,0
171479,-100,4,1,1,30,0,0
171584,-100,4,1,1,40,0,0
171794,-100,4,2,1,40,0,0
172531,-100,4,1,1,40,0,0
173163,-100,4,1,1,30,0,0
173479,-100,4,2,1,40,0,0
174005,-100,4,1,1,30,0,0
174110,-100,4,1,1,40,0,0
174321,-100,4,2,1,30,0,0
174426,-100,4,1,1,40,0,0
174742,-100,4,2,1,40,0,0
175373,-100,4,1,1,40,0,0
175689,-100,4,2,1,40,0,0
176531,-100,4,1,1,25,0,0
176636,-100,4,1,1,30,0,0
176847,-100,4,2,1,30,0,0
176952,-100,4,1,1,30,0,0
177268,-100,4,2,1,40,0,0
177584,-100,4,1,1,30,0,0
177794,-100,4,2,1,40,0,0
177900,-100,4,1,0,25,0,0
178847,-100,4,2,1,30,0,0
179058,-100,4,1,1,30,0,0
179163,-100,4,1,0,25,0,0
179373,-100,4,2,0,30,0,0
179479,-100,4,1,0,25,0,0
180426,-100,4,2,1,20,0,0
180742,-100,4,2,1,25,0,0
181058,-100,4,2,1,30,0,0
181584,-100,4,1,1,30,0,0
182689,-100,4,2,1,30,0,0
183005,-66.6666666666667,4,1,1,50,0,1
183163,-66.6666666666667,4,2,1,50,0,1
183268,-66.6666666666667,4,1,1,50,0,1
183479,-66.6666666666667,4,2,1,50,0,1
184110,-66.6666666666667,4,1,1,40,0,1
184215,-66.6666666666667,4,1,1,50,0,1
184426,-66.6666666666667,4,2,1,40,0,1
184531,-66.6666666666667,4,1,1,50,0,1
184847,-66.6666666666667,4,2,1,50,0,1
185373,-66.6666666666667,4,1,1,40,0,1
185479,-66.6666666666667,4,1,1,50,0,1
185794,-66.6666666666667,4,1,1,40,0,1
186005,-66.6666666666667,4,2,1,50,0,1
186636,-66.6666666666667,4,1,1,40,0,1
186742,-66.6666666666667,4,1,1,50,0,1
186952,-66.6666666666667,4,2,1,40,0,1
187058,-66.6666666666667,4,1,1,50,0,1
187373,-66.6666666666667,4,2,1,50,0,1
187689,-66.6666666666667,4,1,1,50,0,1
187900,-66.6666666666667,4,2,1,40,0,1
188005,-66.6666666666667,4,1,1,40,0,1
188215,-66.6666666666667,4,2,1,50,0,1
188321,-66.6666666666667,4,1,1,50,0,1
188531,-66.6666666666667,4,2,1,50,0,1
189163,-66.6666666666667,4,1,1,40,0,1
189268,-66.6666666666667,4,1,1,50,0,1
189479,-66.6666666666667,4,2,1,40,0,1
189584,-66.6666666666667,4,1,1,50,0,1
189794,-66.6666666666667,4,2,1,50,0,1
190426,-66.6666666666667,4,1,1,40,0,1
190531,-66.6666666666667,4,1,1,50,0,1
191163,-66.6666666666667,4,2,1,50,0,1
191689,-66.6666666666667,4,1,1,40,0,1
191794,-66.6666666666667,4,1,1,50,0,1
192005,-66.6666666666667,4,2,1,40,0,1
192110,-66.6666666666667,4,1,1,50,0,1
192321,-66.6666666666667,4,2,1,40,0,1
192426,-66.6666666666667,4,2,1,50,0,1
192636,-66.6666666666667,4,1,2,50,0,1
192742,-66.6666666666667,4,2,1,10,0,1
192952,-66.6666666666667,4,2,1,40,0,1
193058,-66.6666666666667,4,1,2,50,0,1
193373,-66.6666666666667,4,1,2,55,0,1
193689,-66.6666666666667,4,2,1,50,0,1
194215,-66.6666666666667,4,1,1,40,0,1
194321,-66.6666666666667,4,1,1,50,0,1
194531,-66.6666666666667,4,2,1,40,0,1
194636,-66.6666666666667,4,1,1,50,0,1
194952,-66.6666666666667,4,2,1,50,0,1
195479,-66.6666666666667,4,1,1,40,0,1
195584,-66.6666666666667,4,1,1,50,0,1
195794,-66.6666666666667,4,2,1,40,0,1
195900,-66.6666666666667,4,1,1,50,0,1
196215,-66.6666666666667,4,2,1,50,0,1
196742,-66.6666666666667,4,1,1,40,0,1
196847,-66.6666666666667,4,1,1,50,0,1
197058,-66.6666666666667,4,2,1,40,0,1
197163,-66.6666666666667,4,1,1,50,0,1
197479,-66.6666666666667,4,2,1,50,0,1
197794,-66.6666666666667,4,1,1,40,0,1
198005,-66.6666666666667,4,2,1,40,0,1
198110,-66.6666666666667,4,1,1,50,0,1
198321,-66.6666666666667,4,2,1,50,0,1
199268,-66.6666666666667,4,1,1,40,0,1
199373,-66.6666666666667,4,1,1,50,0,1
199584,-66.6666666666667,4,2,1,40,0,1
199689,-66.6666666666667,4,1,1,50,0,1
200005,-66.6666666666667,4,2,1,50,0,1
200531,-66.6666666666667,4,1,1,40,0,1
200636,-66.6666666666667,4,1,1,50,0,1
200847,-66.6666666666667,4,2,1,50,0,1
200952,-66.6666666666667,4,1,1,50,0,1
201268,-66.6666666666667,4,2,1,50,0,1
201794,-66.6666666666667,4,1,1,40,0,1
201900,-66.6666666666667,4,1,1,50,0,1
202110,-66.6666666666667,4,2,1,40,0,1
202215,-66.6666666666667,4,1,1,50,0,1
202531,-100,4,2,1,50,0,1
203216,-133.333333333333,4,1,1,40,0,0
212636,-133.333333333333,4,2,1,40,0,0
213268,-133.333333333333,4,1,1,40,0,0
213794,-133.333333333333,4,1,1,30,0,0
213900,-133.333333333333,4,2,1,40,0,0
214215,-133.333333333333,4,1,1,30,0,0
214531,-133.333333333333,4,2,1,40,0,0
215794,-133.333333333333,4,1,1,30,0,0
216110,-133.333333333333,4,2,1,40,0,0
216742,-133.333333333333,4,1,1,30,0,0
217268,-133.333333333333,4,1,1,25,0,0
217373,-133.333333333333,4,1,1,30,0,0
217689,-133.333333333333,4,2,1,40,0,0
218321,-133.333333333333,4,1,1,40,0,0
218636,-133.333333333333,4,2,1,40,0,0
218847,-133.333333333333,4,1,1,30,0,0
218952,-133.333333333333,4,2,1,40,0,0
219268,-133.333333333333,4,1,1,30,0,0
219584,-133.333333333333,4,2,1,25,0,0
219900,-133.333333333333,4,2,1,40,0,0
220847,-133.333333333333,4,1,1,30,0,0
221373,-133.333333333333,4,2,1,40,0,0
221479,-133.333333333333,4,1,1,25,0,0
221794,-133.333333333333,4,1,1,30,0,0
222321,-133.333333333333,4,1,1,25,0,0
222426,-133.333333333333,4,1,1,30,0,0
222742,-133.333333333333,4,2,1,40,0,0
223373,-133.333333333333,4,1,1,40,0,0
223900,-133.333333333333,4,1,1,30,0,0
224005,-133.333333333333,4,2,1,40,0,0
224321,-133.333333333333,4,1,1,30,0,0
224636,-133.333333333333,4,2,1,40,0,0
225900,-133.333333333333,4,1,1,30,0,0
226215,-133.333333333333,4,2,1,40,0,0
226847,-133.333333333333,4,1,1,30,0,0
227373,-133.333333333333,4,1,1,25,0,0
227479,-133.333333333333,4,1,1,30,0,0
227794,-133.333333333333,4,2,1,25,0,0
228110,-133.333333333333,4,2,1,40,0,0
228422,-100,4,2,1,40,0,0
228426,-100,4,1,1,25,0,0
228636,-100,4,2,1,40,0,0
228742,-100,4,1,1,26,0,0
228952,-100,4,2,1,40,0,0
229058,-100,4,1,1,27,0,0
229268,-100,4,2,1,40,0,0
229373,-100,4,1,1,28,0,0
229584,-100,4,2,1,40,0,0
229689,-100,4,1,1,28,0,0
229900,-100,4,2,1,40,0,0
230005,-100,4,1,1,29,0,0
230215,-100,4,2,1,40,0,0
230321,-100,4,1,1,30,0,0
230531,-100,4,2,1,40,0,0
230636,-100,4,1,1,31,0,0
230847,-100,4,2,1,40,0,0
230952,-100,4,1,1,32,0,0
231163,-100,4,2,1,40,0,0
231268,-100,4,1,1,33,0,0
231479,-100,4,2,1,40,0,0
231584,-100,4,1,1,34,0,0
231794,-100,4,2,1,40,0,0
231900,-100,4,1,1,35,0,0
232215,-100,4,1,1,36,0,0
232531,-100,4,1,1,37,0,0
232847,-100,4,1,1,38,0,0
233163,-100,4,1,1,39,0,0
233321,-100,4,2,1,40,0,0
233689,-133.333333333333,4,1,1,40,0,0
234005,-133.333333333333,4,1,1,50,0,0
234268,-100,4,2,1,20,0,0
234426,-100,4,2,1,40,0,0
234636,-133.333333333333,4,1,1,40,0,0
234952,-133.333333333333,4,1,1,50,0,0
235373,-133.333333333333,4,2,0,30,0,0
236058,-66.6666666666667,4,1,1,50,0,1
236215,-66.6666666666667,4,2,1,50,0,1
236321,-66.6666666666667,4,1,1,40,0,1
236531,-66.6666666666667,4,2,1,50,0,1
237163,-66.6666666666667,4,1,1,40,0,1
237268,-66.6666666666667,4,1,1,50,0,1
237479,-66.6666666666667,4,2,1,40,0,1
237584,-66.6666666666667,4,1,1,50,0,1
237900,-66.6666666666667,4,2,1,50,0,1
238426,-66.6666666666667,4,1,1,40,0,1
238531,-66.6666666666667,4,1,1,50,0,1
238742,-66.6666666666667,4,2,1,40,0,1
238847,-66.6666666666667,4,1,1,50,0,1
239058,-66.6666666666667,4,2,1,40,0,1
239163,-66.6666666666667,4,2,1,50,0,1
239689,-66.6666666666667,4,1,1,40,0,1
239794,-66.6666666666667,4,1,1,50,0,1
240005,-66.6666666666667,4,2,1,40,0,1
240110,-66.6666666666667,4,1,1,50,0,1
240426,-66.6666666666667,4,2,1,50,0,1
240952,-66.6666666666667,4,1,1,40,0,1
241058,-66.6666666666667,4,1,1,50,0,1
241268,-66.6666666666667,4,2,1,50,0,1
241373,-66.6666666666667,4,1,1,50,0,1
241584,-66.6666666666667,4,2,1,50,0,1
242215,-66.6666666666667,4,1,1,40,0,1
242321,-66.6666666666667,4,1,1,50,0,1
242531,-66.6666666666667,4,2,1,40,0,1
242636,-66.6666666666667,4,1,1,50,0,1
242952,-66.6666666666667,4,2,1,50,0,1
243479,-66.6666666666667,4,1,1,40,0,1
243584,-66.6666666666667,4,1,1,50,0,1
243794,-66.6666666666667,4,2,1,40,0,1
243900,-66.6666666666667,4,1,1,50,0,1
244110,-66.6666666666667,4,2,1,50,0,1
244742,-66.6666666666667,4,1,1,40,0,1
244847,-66.6666666666667,4,1,1,50,0,1
245058,-66.6666666666667,4,2,1,40,0,1
245163,-66.6666666666667,4,1,1,50,0,1
245373,-66.6666666666667,4,2,1,40,0,1
245479,-66.6666666666667,4,2,1,50,0,1
246005,-66.6666666666667,4,2,1,40,0,1
246110,-66.6666666666667,4,1,1,50,0,1
246321,-66.6666666666667,4,1,1,50,0,1
246426,-66.6666666666667,4,2,1,50,0,1
247268,-66.6666666666667,4,1,1,40,0,1
247373,-66.6666666666667,4,1,1,50,0,1
247584,-66.6666666666667,4,2,1,40,0,1
247689,-66.6666666666667,4,1,1,50,0,1
248005,-66.6666666666667,4,2,1,50,0,1
248636,-66.6666666666667,4,1,1,50,0,1
248847,-66.6666666666667,4,2,1,40,0,1
248952,-66.6666666666667,4,1,1,50,0,1
249163,-66.6666666666667,4,2,1,40,0,1
249268,-66.6666666666667,4,2,1,50,0,1
249794,-66.6666666666667,4,1,1,40,0,1
249900,-66.6666666666667,4,1,1,50,0,1
250110,-66.6666666666667,4,2,1,40,0,1
250215,-66.6666666666667,4,1,1,50,0,1
250531,-66.6666666666667,4,2,1,50,0,1
251058,-66.6666666666667,4,2,1,40,0,1
251163,-66.6666666666667,4,1,1,40,0,1
251479,-66.6666666666667,4,1,1,50,0,1
251689,-66.6666666666667,4,2,1,50,0,1
252321,-66.6666666666667,4,1,1,40,0,1
252426,-66.6666666666667,4,1,1,50,0,1
252636,-66.6666666666667,4,2,1,40,0,1
252742,-66.6666666666667,4,1,1,50,0,1
252952,-66.6666666666667,4,2,1,50,0,1
253584,-66.6666666666667,4,1,1,40,0,1
253689,-66.6666666666667,4,2,1,40,0,1
254005,-66.6666666666667,4,1,1,50,0,1
254215,-66.6666666666667,4,2,1,50,0,1
254847,-66.6666666666667,4,1,1,40,0,1
254952,-66.6666666666667,4,1,1,50,0,1
255163,-66.6666666666667,4,2,1,40,0,1
255268,-66.6666666666667,4,1,1,50,0,1
255584,-100,4,2,1,50,0,1
256268,-133.333333333333,4,1,1,40,0,0
256531,-133.333333333333,4,1,1,30,0,0
256847,-133.333333333333,4,2,1,40,0,0
257373,-133.333333333333,4,1,1,30,0,0
257479,-133.333333333333,4,1,1,40,0,0
257689,-133.333333333333,4,2,1,30,0,0
257794,-133.333333333333,4,1,1,40,0,0
258110,-133.333333333333,4,2,1,40,0,0
258742,-133.333333333333,4,1,1,40,0,0
259058,-133.333333333333,4,1,1,30,0,0
259268,-133.333333333333,4,2,1,40,0,0
260005,-133.333333333333,4,1,1,30,0,0
260636,-133.333333333333,4,2,1,40,0,0
261268,-133.333333333333,4,1,1,40,0,0
261584,-133.333333333333,4,1,1,30,0,0
261794,-133.333333333333,4,2,1,40,0,0
262531,-133.333333333333,4,1,1,30,0,0
263163,-133.333333333333,4,2,1,40,0,0
263794,-133.333333333333,4,1,1,40,0,0
264110,-133.333333333333,4,1,1,30,0,0
264321,-133.333333333333,4,2,1,40,0,0
265058,-133.333333333333,4,1,1,30,0,0
265689,-133.333333333333,4,2,1,40,0,0
266321,-133.333333333333,4,1,1,40,0,0
266636,-133.333333333333,4,1,1,30,0,0
266847,-133.333333333333,4,2,1,40,0,0
267479,-133.333333333333,4,1,1,25,0,0
267584,-133.333333333333,4,1,1,30,0,0
268215,-133.333333333333,4,2,1,40,0,0
268847,-133.333333333333,4,1,1,40,0,0
269163,-133.333333333333,4,1,1,30,0,0
269373,-133.333333333333,4,2,1,40,0,0
270005,-133.333333333333,4,1,1,25,0,0
270110,-133.333333333333,4,1,1,30,0,0
270742,-133.333333333333,4,2,1,40,0,0
271373,-133.333333333333,4,1,1,40,0,0
271689,-133.333333333333,4,1,1,30,0,0
272005,-133.333333333333,4,2,1,40,0,0
272636,-133.333333333333,4,1,1,40,0,0
272952,-133.333333333333,4,1,1,30,0,0
273268,-133.333333333333,4,2,1,40,0,0
273900,-133.333333333333,4,1,1,40,0,0
274215,-133.333333333333,4,1,1,30,0,0
274426,-133.333333333333,4,2,1,40,0,0
275163,-133.333333333333,4,1,1,40,0,0
275479,-133.333333333333,4,1,1,30,0,0
275794,-133.333333333333,4,2,1,40,0,0

[Colours]
Combo1 : 251,196,121
Combo2 : 78,179,66
Combo3 : 188,118,48
Combo4 : 139,171,137

[HitObjects]
112,184,13111,2,0,B|160:264|272:280,1,179.999994635582,2|4
424,208,14268,1,0
424,208,14374,2,0,B|392:176|328:168,1,89.9999973177911,0|2
104,96,15005,6,0,B|152:72|208:88,1,89.9999973177911,0|2
184,176,15637,2,0,B|208:224|272:240,1,89.9999973177911,0|0
360,288,16163,2,0,B|360:336,1,29.9999991059304,0|0
456,224,16479,2,0,B|496:232,1,29.9999991059304,0|2
368,144,16795,2,0,B|344:104,1,29.9999991059304,0|0
280,64,17216,6,0,B|232:88|208:128,1,89.9999973177911,2|0
212,121,17847,1,2
96,216,18163,1,0
96,216,18479,1,2
32,328,18795,6,0,B|120:344|184:312,1,149.999995529652,4|0
216,296,19426,1,0
304,224,19742,1,2
384,152,20058,1,0
400,48,20374,2,0,B|352:48|304:80,1,89.9999973177911,2|0
128,128,21005,6,0,B|144:160|176:176,1,59.9999982118607,2|0
216,160,21321,2,0,B|256:192|272:248,1,89.9999973177911,0|2
104,264,21953,1,0
104,264,22268,1,2
296,72,23216,6,0,B|216:88|160:136,1,149.999995529652,2|0
128,160,23847,2,0,B|160:208|216:216,1,89.9999973177911,4|0
400,160,24374,5,0
400,160,24479,2,0,B|400:216|360:256,1,89.9999973177911,0|2
296,328,25111,1,0
184,328,25426,1,2
96,272,25742,1,0
136,112,26268,5,0
168,136,26373,1,0
208,264,26584,1,0
240,232,26689,1,2
344,144,26900,1,0
376,176,27005,1,0
472,264,27321,6,0,B|440:304|368:312,1,89.9999973177911,2|0
272,304,27953,1,2
336,216,28268,2,0,B|368:176|424:168,2,89.9999973177911,2|0|4
96,120,29426,5,0
136,120,29532,2,0,B|184:128|224:176,1,89.9999973177911,0|2
320,280,30163,1,0
400,160,30479,2,0,B|448:168|480:216,2,89.9999973177911,2|0|2
312,112,31426,6,0,B|256:176|160:184,1,149.999995529652,4|2
152,144,32058,2,0,B|112:168|88:216,1,89.9999973177911,0|2
400,328,33005,5,2
432,240,33321,1,0
408,144,33637,1,2
336,80,33953,5,0
248,40,34268,2,0,B|208:56|176:88,1,59.9999982118607,0|0
168,96,34584,1,0
248,144,34900,2,0,B|232:176|224:224,1,59.9999982118607,0|0
224,232,35216,1,0
424,240,35532,1,0
424,240,35847,2,0,B|368:320|264:336,1,179.999994635582,8|4
176,192,55426,5,0
104,264,55742,1,2
200,304,56058,2,0,B|296:304|368:224,1,179.999994635582,8|4
448,88,57005,5,2
320,56,57216,1,0
304,80,57321,1,8
224,160,57532,1,0
200,144,57637,1,2
128,56,57847,1,0
104,88,57953,2,0,B|72:128|88:200,1,89.9999973177911,0|2
83,173,58584,1,8
144,272,58900,5,2
264,272,59111,2,0,B|306:264,1,29.9999991059304,0|0
240,176,59426,2,0,B|196:171,1,29.9999991059304,0|2
296,112,59742,2,0,B|343:105,1,29.9999991059304,0|8
464,160,60163,5,2
448,256,60374,1,0
448,256,60479,1,0
320,296,60795,2,0,B|269:305|216:288,1,89.9999973177911,2|8
104,224,61426,1,0
56,88,61637,1,0
56,88,61742,1,4
216,64,62058,6,0,B|224:104|256:136,1,59.9999982118607,2|0
264,160,62374,2,0,B|280:192|272:224,1,59.9999982118607,8|0
240,248,62689,2,0,B|208:256|176:288,1,59.9999982118607,2|0
152,304,63005,1,0
200,152,63321,6,0,B|160:128|136:80,2,89.9999973177911,0|8|2
296,192,64163,1,0
296,192,64268,1,0
472,72,64584,6,0,B|488:112|480:152,1,59.9999982118607,2|0
480,168,64900,1,8
392,240,65111,1,0
400,272,65216,1,2
304,312,65426,1,0
272,328,65532,1,0
136,336,65847,6,0,B|88:320|56:256,1,89.9999973177911,2|8
120,176,66479,1,0
224,216,66795,1,4
336,216,67111,2,0,B|368:208|400:176,1,59.9999982118607,2|0
416,160,67426,1,8
352,48,67637,6,0,B|304:64,1,29.9999991059304,0|2
296,136,67953,1,0
272,168,68058,1,0
176,80,68374,2,0,B|144:104|136:136,1,59.9999982118607
128,160,68689,1,8
112,304,68900,5,0
152,320,69005,2,0,B|192:336|256:328,1,89.9999973177911,0|0
368,312,69532,2,0,B|408:296,1,29.9999991059304,0|2
408,200,69847,1,0
416,168,69953,2,0,B|432:120|408:64,1,89.9999973177911,8|2
328,24,70479,1,0
320,56,70584,1,0
224,88,70900,2,0,B|208:136|232:192,1,89.9999973177911,2|8
171,304,71532,2,0,B|184:256|168:216,1,89.9999973177911,2|4
56,96,72163,6,0,B|56:143|72:176,1,59.9999982118607,2|0
88,176,72479,1,8
248,208,72795,2,0,B|248:161|232:128,1,59.9999982118607,2|0
216,128,73111,1,0
80,264,73426,1,2
272,312,73742,1,8
216,128,74058,1,2
120,96,74268,5,0
120,96,74374,1,0
24,184,74689,2,0,B|72:200|120:184,1,89.9999973177911,2|8
272,168,75321,1,2
376,128,75532,1,0
408,144,75637,1,0
488,224,75953,2,0,B|448:248|376:248,1,89.9999973177911,2|8
176,280,76584,6,0,B|168:240|184:176,1,80,2|0
336,104,76900,2,0,B|344:144|328:208,1,80,0|0
168,112,77216,2,0,B|208:104|272:120,1,80,2|0
280,128,77532,1,8
344,272,77847,2,0,B|304:280|240:264,1,80,2|0
232,256,78163,1,0
72,120,78479,6,0,B|64:160|72:216,1,80
120,320,78795,2,0,B|112:272|120:232,1,80,8|0
168,120,79111,2,0,B|176:160|168:216,1,80,2|0
216,320,79426,2,0,B|224:272|216:232,1,80,0|0
240,208,79742,1,2
288,104,79953,5,0
312,136,80058,1,8
328,256,80268,1,0
352,232,80374,1,2
448,184,80584,2,0,B|496:208,1,40,0|0
440,88,80900,1,0
408,64,81005,2,0,B|376:40|320:32,1,80,2|0
232,80,81321,2,0,B|224:128|224:176,1,80,8|0
112,216,81637,2,0,B|145:254|200:272,1,80,2|0
216,280,81953,1,0
360,296,82268,5,0
424,224,82479,1,0
424,224,82584,1,8
360,96,82900,1,2
320,184,83111,1,0
320,184,83216,1,0
184,96,83532,1,2
184,96,83847,1,8
56,168,84163,5,2
56,168,84479,2,0,B|96:224|168:248,1,120,0|2
192,160,85111,2,0,B|248:184|296:240,1,120,8|2
392,312,85637,1,0
392,312,85742,1,0
416,208,86058,2,0,B|400:144|336:88,1,120,2|0
355,106,86689,1,0
224,48,87005,6,0,B|152:24|88:56,1,120,0|2
64,160,87532,1,0
104,176,87637,2,0,B|176:200|240:168,1,120,8|2
320,144,88163,1,0
360,168,88268,1,2
464,144,88479,1,2
480,184,88584,1,0
416,304,88900,1,8
256,320,89216,6,0,B|184:256,1,80,2|0
248,240,89532,2,0,B|200:208|120:192,1,120,0|2
88,96,90058,2,0,B|56:48,1,40,0|8
160,24,90374,2,0,B|208:64,1,40,0|2
312,112,90689,5,0
344,144,90795,1,0
464,160,91006,1,2
472,192,91111,2,0,B|463:236|432:296,1,80
416,288,91426,1,8
304,272,91637,1,0
272,240,91743,1,2
168,168,92058,6,0,B|112:176|56:240,1,120,0|2
152,256,92584,1,0
152,256,92689,1,8
144,352,93005,2,0,B|192:336|216:312,1,80,2|0
240,288,93321,1,0
312,136,93637,1,2
160,136,93953,1,8
280,216,94268,1,2
248,56,94584,1,0
88,88,94900,6,0,B|104:144|80:192,1,80,2|0
80,200,95216,1,8
192,160,95426,1,0
176,192,95532,2,0,B|160:240|192:296,1,80,2|0
200,296,95847,1,0
336,248,96163,2,0,B|448:304,1,120,2|0
400,160,96795,2,0,B|272:96,1,120,6|0
160,112,97426,5,2
160,112,97742,1,8
64,216,98058,2,0,B|86:254|136:288,1,80,2|0
152,296,98374,1,0
232,216,98584,1,8
264,232,98689,1,0
416,288,99005,6,0,B|384:320|344:328,1,80,8|0
312,336,99321,1,2
216,280,99532,1,0
216,280,99637,1,0
48,304,99953,1,2
40,144,100268,1,8
184,48,100584,5,2
288,72,100795,2,0,B|336:72,1,40,0|0
328,176,101111,2,0,B|272:176,1,40,8|0
144,128,101532,2,0,B|128:192|152:264,1,120,8|2
240,320,102163,5,0
240,320,102479,1,2
240,320,102795,1,8
400,288,103111,6,0,B|392:240|352:200,1,80,2|0
320,224,103426,2,0,B|291:194|280:136,1,80,0|8
280,120,103742,1,0
112,96,104058,2,0,B|120:144|160:184,1,80,8|0
192,160,104373,2,0,B|220:189|232:248,1,80,2|0
232,264,104689,1,0
376,344,105005,6,0,B|432:312|456:248,1,120,2|8
480,144,105637,1,2
416,112,105847,1,0
384,136,105953,2,0,B|349:169|336:216,1,80,0|8
296,184,106269,2,0,B|272:216|216:232,1,90,2|2
208,192,106584,2,0,B|144:208|96:256,1,120,8|2
24,320,107216,5,0
120,312,107532,1,2
216,288,107847,1,8
296,240,108163,1,0
384,208,108374,6,0,B|384:280,1,40,0|0
456,328,108689,2,0,B|456:272,1,40,8|0
456,184,109005,1,0
440,152,109111,1,8
328,72,109426,6,0,B|272:48|192:48,2,120,2|0|2
224,152,110374,2,0,B|171:168|112:232,1,120,8|2
48,304,110900,1,0
48,304,111005,1,0
168,320,111216,1,8
200,320,111321,2,0,B|264:328|336:296,1,120,0|8
440,96,111953,5,2
312,72,112163,1,0
280,80,112268,2,0,B|227:109|184:176,1,120,0|0
193,161,112900,1,8
32,224,113216,6,0,B|72:224|112:248,1,80,2|0
224,272,113532,2,0,B|264:264|312:224,1,80,0|8
376,160,113847,2,0,B|432:192|472:264,1,120,0|8
320,304,114479,5,0
176,248,114689,1,8
176,248,114795,1,8
280,136,115111,1,8
256,280,115426,1,8
352,232,115742,2,0,B|408:224|440:240,1,80,8|0
56,56,116689,6,0,B|56:240,1,179.999994635582,0|4
88,320,117532,5,0
128,336,117637,1,0
168,224,117847,1,0
200,200,117953,2,0,B|256:176|328:208,1,119.999996423721,8|0
272,320,118268,2,0,B|328:352|416:312,1,119.999996423721,0|0
424,304,118584,1,0
504,168,118795,1,8
472,144,118900,2,0,B|400:80|296:96,1,179.999994635582,0|8
72,96,119426,5,0
72,96,119532,2,0,B|144:112|200:160,1,119.999996423721,2|0
208,168,119847,1,0
168,312,120058,1,0
168,312,120163,2,0,B|239:322|304:296,1,119.999996423721
408,264,120479,2,0,B|392:200|352:152,1,119.999996423721,8|0
256,48,120794,2,0,B|224:96|152:120,1,119.999996423721,0|0
120,128,121111,1,0
120,128,121426,1,0
120,128,121742,1,8
72,320,121953,5,0
56,288,122058,2,0,B|40:216|64:152,1,119.999996423721,0|8
160,192,122374,2,0,B|208:112|328:72,1,179.999994635582,0|0
416,48,122900,5,0
456,40,123005,1,8
464,136,123216,1,0
488,160,123321,1,2
424,232,123532,1,0
400,264,123637,2,0,B|352:304|288:304,1,119.999996423721,0|8
256,304,123953,1,0
136,320,124163,2,0,B|80:264,1,59.9999982118607,0|8
56,136,124584,6,0,B|104:96|176:96,1,119.999996423721
208,96,124900,1,0
208,96,125216,1,0
456,248,125532,2,0,B|408:288|336:288,1,119.999996423721,8|0
304,288,125848,1,0
96,336,126058,5,0
120,304,126163,2,0,B|104:240|120:168,1,119.999996423721,0|8
160,168,126479,2,0,B|152:96|168:16,1,119.999996423721,0|0
192,24,126795,1,8
416,96,127005,6,0,B|352:56,1,59.9999982118607,2|0
216,240,127321,2,0,B|264:200,1,59.9999982118607,0|6
416,328,127742,6,0,B|432:264|416:192,1,119.999996423721,0|0
304,176,128058,2,0,B|320:104|304:32,1,119.999996423721,8|0
152,168,128374,2,0,B|136:232|152:296,1,119.999996423721,2|0
160,320,128689,1,0
288,336,128900,5,8
304,304,129005,2,0,B|328:240|400:208,1,119.999996423721
416,200,129321,1,8
336,96,129532,5,0
296,112,129637,2,0,B|232:136|168:120,1,119.999996423721,2|0
216,208,129953,2,0,B|152:216|80:272,1,119.999996423721,0|2
40,320,130268,2,0,B|104:344|200:328,1,119.999996423721,2|0
280,320,130584,6,0,B|352:300|408:248,1,119.999996423721,8|2
288,192,130900,2,0,B|241:151|168:136,1,119.999996423721,0|0
64,112,131216,2,0,B|88:56|176:16,1,119.999996423721,0|8
176,24,131532,1,0
416,112,131847,5,8
320,280,132058,1,0
288,256,132163,2,0,B|240:224|208:152,1,119.999996423721,0|8
56,216,132479,2,0,B|152:240|216:312,1,179.999994635582,0|0
432,312,133005,6,0,B|416:232,1,59.9999982118607,2|10
328,48,133321,2,0,B|312:120,1,59.9999982118607,2|2
280,304,133637,1,0
240,296,133742,2,0,B|182:270|128:208,1,119.999996423721,0|8
112,192,134058,1,0
88,56,134268,2,0,B|152:88,1,59.9999982118607,8|0
440,248,134689,5,0
264,144,134900,1,0
296,128,135005,2,0,B|392:104|488:120,1,179.999994635582,0|0
248,240,135532,1,0
216,256,135637,2,0,B|120:280|24:264,1,179.999994635582,8|0
112,160,136163,5,0
152,152,136268,1,0
240,40,136479,1,8
272,64,136584,1,0
264,192,136795,5,0
264,192,136900,2,0,B|408:208|496:104,1,240,2|4
112,88,142268,6,0,B|104:144|120:200,1,89.9999973177911,0|0
160,272,142900,1,0
256,312,143111,1,0
288,336,143216,1,2
360,272,143426,1,0
400,280,143532,1,2
448,184,143742,2,0,B|504:176,1,29.9999991059304,0|2
472,80,144058,5,0
432,64,144163,2,0,B|392:48|352:48,1,59.9999982118607,0|0
360,96,144479,2,0,B|328:96|296:128,1,59.9999982118607,2|0
272,144,144795,1,0
208,320,145111,6,0,B|128:264,1,89.9999973177911,0|0
80,96,145742,2,0,B|160:160,1,89.9999973177911,2|0
344,264,146268,2,0,B|336:224,1,29.9999991059304,0|2
248,72,146584,2,0,B|280:80,1,29.9999991059304,0|0
408,104,146900,1,0
408,104,147005,2,0,B|352:184|240:192,1,179.999994635582,0|0
64,80,148163,5,0
56,120,148268,2,0,B|48:168|64:208,1,89.9999973177911,2|0
160,152,148795,1,0
176,184,148900,2,0,B|192:232|176:280,1,89.9999973177911,2|0
336,184,149532,2,0,B|320:232|336:280,2,89.9999973177911,0|0|0
408,56,150479,6,0,B|438:93|448:120,1,59.9999982118607,2|0
456,144,150795,1,0
408,328,151111,2,0,B|438:291|448:264,1,59.9999982118607,2|0
456,240,151427,1,0
320,192,151742,2,0,B|216:192,2,89.9999973177911,0|8|0
320,192,152689,5,2
200,48,153005,6,0,B|256:64|288:112,1,80,2|0
120,80,153321,2,0,B|160:96|216:104,1,80,8|0
72,152,153637,2,0,B|112:136|176:144,1,80,2|0
192,144,153953,1,0
88,248,154163,5,0
128,264,154268,2,0,B|168:288|232:280,1,80,2|0
248,280,154584,1,8
272,192,154795,1,0
312,192,154900,2,0,B|376:192|440:240,1,120,2|0
184,288,155532,1,2
272,336,155742,1,0
304,336,155847,2,0,B|368:344|440:296,1,120,8|2
480,168,156374,5,0
440,152,156479,2,0,B|400:136|336:144,1,80,0|0
392,80,156795,2,0,B|352:96|296:104,1,80,2|0
312,48,157111,2,0,B|256:64|224:112,1,80,8|0
216,112,157426,1,2
128,208,157742,6,0,B|184:248|240:256,1,120,0|2
408,208,158268,1,0
384,176,158374,2,0,B|328:136|272:128,1,120,8|2
88,112,158900,1,0
88,112,159005,2,0,B|160:104|200:48,2,120,0|0|8
56,232,159953,6,0,B|112:240|152:272,1,80,2|0
168,280,160268,1,0
280,232,160584,2,0,B|328:272|400:288,1,120,2|8
368,152,161111,2,0,B|328:112,1,40,0|2
240,56,161426,5,0
240,56,161532,1,0
240,56,161847,2,0,B|184:80|104:64,1,120,2|0
160,152,162479,2,0,B|110:182|80:232,1,80,0|0
64,256,162795,6,0,B|120:288|200:272,1,120,0|2
464,208,163426,1,8
464,208,163742,2,0,B|424:200|352:216,1,80,2|0
352,216,164058,1,0
192,176,164268,1,8
192,176,164374,2,0,B|224:232|296:264,1,120,0|8
480,104,164900,5,0
480,104,165005,2,0,B|456:136|400:152,1,80
376,152,165321,1,0
256,80,165637,1,2
256,80,165953,2,0,B|192:102|136:160,1,120,8|2
72,200,166479,2,0,B|48:240,1,40,0|0
144,264,166795,2,0,B|168:304,1,40,8|0
368,336,167216,5,8
368,336,167532,2,0,B|416:296|424:200,1,120,2|0
376,112,168163,2,0,B|335:167|328:232,1,120,2|8
329,221,168795,5,2
192,136,169005,1,0
192,176,169111,2,0,B|192:216|168:280,1,80,0|8
160,288,169426,1,0
80,336,169637,1,0
40,352,169742,1,8
40,256,169953,2,0,B|0:232,1,40,0|2
56,152,170268,2,0,B|40:104,1,40,0|0
160,72,170689,6,0,B|216:40|296:40,1,120,2|8
496,56,171321,2,0,B|472:152,1,80,2|0
416,112,171637,2,0,B|368:192,1,80,0|8
328,144,171953,2,0,B|264:200,1,80,2|2
232,152,172268,2,0,B|185:177|96:184,1,120,8|0
48,288,172900,6,0,B|112:280|184:304,1,120,0|0
264,328,173532,2,0,B|336:320|384:272,1,120,8|2
448,200,174058,1,0
424,168,174163,2,0,B|384:120|336:120,1,80,0|8
320,112,174479,1,0
104,80,174795,5,8
104,80,175111,1,2
104,80,175427,1,2
16,160,175742,2,0,B|48:200|96:216,1,80,2|0
120,224,176058,1,0
288,296,176374,2,0,B|297:249|288:192,1,80,2|0
320,192,176689,2,0,B|328:144|320:96,1,80,0|8
344,80,177006,1,0
344,80,177321,1,8
152,32,177637,6,0,B|144:80|152:128,1,80
168,136,177953,1,4
256,192,178268,1,4
256,192,178584,1,12
360,352,178900,2,0,B|368:304|360:256,1,80
344,248,179217,1,4
256,192,179426,1,8
256,192,179532,1,4
400,40,179847,6,0,B|376:104|320:136,1,120,4|4
176,240,180479,2,0,B|112:272|88:336,2,120,8|8|8
256,40,181426,2,0,B|256:144,1,80,8|0
424,176,182374,6,0,B|396:236|336:272,1,120,0|0
112,56,183005,6,0,B|105:122|120:184,1,119.999996423721,4|0
160,296,183321,2,0,B|176:240|176:168,1,119.999996423721,0|0
232,56,183637,2,0,B|225:122|240:184,1,119.999996423721,8|0
280,296,183953,2,0,B|296:240|296:168,1,119.999996423721,0|0
360,56,184268,2,0,B|367:122|352:184,1,119.999996423721,0|8
376,208,184584,1,0
376,208,184900,5,8
272,224,185111,1,0
256,192,185216,2,0,B|222:131|168:96,1,119.999996423721,2|0
72,48,185532,2,0,B|72:152|160:216,1,179.999994635582,0|0
264,288,186058,5,0
304,288,186163,2,0,B|368:288|416:248,1,119.999996423721,8|0
488,152,186479,2,0,B|440:120|368:120,1,119.999996423721,0|0
248,112,186795,2,0,B|280:176|360:192,1,119.999996423721,0|8
376,192,187111,1,0
376,192,187426,1,8
320,32,187637,6,0,B|256:40,1,59.9999982118607,0|0
104,40,187953,2,0,B|168:88,1,59.9999982118607,0|0
112,240,188268,2,0,B|64:176,1,59.9999982118607,0|0
32,72,188584,1,0
56,96,188689,2,0,B|96:136|176:152,1,119.999996423721,8|0
200,152,189005,1,2
432,168,189216,5,0
416,200,189321,2,0,B|376:256|312:272,1,119.999996423721,0|0
216,216,189637,2,0,B|176:264|168:328,1,119.999996423721,0|2
168,360,189953,1,8
8,184,190269,5,2
128,80,190479,1,0
168,64,190584,2,0,B|264:32|360:72,2,179.999994635582,2|0|8
120,192,191426,1,2
128,224,191532,2,0,B|144:288|200:336,1,119.999996423721,2|0
264,248,191847,2,0,B|304:192|376:176,1,119.999996423721,0|8
392,168,192164,1,0
352,40,192374,5,8
336,72,192479,1,8
176,128,192689,2,0,B|232:184,1,59.9999982118607,2|0
128,304,193005,1,8
168,320,193110,2,0,B|264:352|360:312,2,179.999994635582,6|0|8
24,168,193953,5,0
24,168,194058,1,2
152,216,194269,1,0
192,208,194374,2,0,B|256:200|328:144,1,119.999996423721,0|8
400,88,194689,2,0,B|488:128|520:240,1,179.999994635582,0|8
392,320,195216,6,0,B|328:264,1,59.9999982118607,0|2
256,64,195532,2,0,B|256:136,1,59.9999982118607,0|0
120,320,195847,2,0,B|184:264,1,59.9999982118607,0|0
48,104,196268,6,0,B|96:144|176:160,1,119.999996423721,8|0
192,160,196584,1,2
304,160,196795,1,0
328,192,196900,1,0
424,192,197111,1,8
456,216,197216,2,0,B|384:264|264:256,1,179.999994635582,0|8
48,288,197742,5,0
72,256,197847,2,0,B|144:144,1,119.999996423721,0|8
216,32,198163,2,0,B|248:96|248:176,1,119.999996423721,0|0
288,296,198479,2,0,B|328:256|336:176,1,119.999996423721,2|0
336,152,198795,1,8
440,56,199111,6,0,B|448:120|480:184,1,119.999996423721,0|2
496,200,199426,1,0
384,272,199637,1,8
352,240,199742,2,0,B|288:174|192:168,1,179.999994635582,0|8
40,176,200268,5,0
64,208,200374,2,0,B|104:264|168:296,1,119.999996423721,2|0
240,336,200690,2,0,B|296:304|320:248,1,119.999996423721
424,240,201006,2,0,B|360:152|248:128,1,179.999994635582,0|8
144,120,201532,5,0
144,120,201637,1,2
88,256,201848,1,0
120,272,201953,2,0,B|176:296|248:296,1,119.999996423721,0|8
272,296,202269,1,0
416,80,202584,6,0,B|352:200|216:208,1,240,8|4
64,152,212689,6,0,B|96:248|200:288,1,179.999994635582,8|4
216,128,213847,5,0
216,128,213953,2,0,B|264:120|320:152,1,89.9999973177911,0|0
416,272,214584,2,0,B|368:272|320:248,1,89.9999973177911,0|2
192,192,215216,2,0,B|144:224|120:280,2,89.9999973177911,8|2|2
320,192,216163,2,0,B|368:160|392:104,2,89.9999973177911,2|0|0
256,192,217321,1,0
256,192,217426,1,0
328,352,217742,6,0,B|240:344|160:264,1,179.999994635582,8|4
72,176,218689,1,2
72,80,218900,1,0
104,80,219006,2,0,B|152:80|200:128,1,89.9999973177911,2|0
408,80,219637,2,0,B|360:80|312:128,1,89.9999973177911,8|2
256,240,220269,2,0,B|256:344,1,89.9999973177911
72,304,220900,6,0,B|144:272|184:200,1,149.999995529652
208,152,221532,2,0,B|256:160|304:192,1,89.9999973177911,0|0
400,112,222374,1,0
400,112,222479,1,0
480,104,222795,6,0,B|480:200|424:272,1,179.999994635582,8|4
240,96,223953,1,0
240,96,224058,1,2
80,152,224374,2,0,B|96:200|152:224,1,89.9999973177911,0|0
272,280,225005,1,2
272,280,225321,1,8
368,112,225637,2,0,B|336:144|272:152,1,89.9999973177911,2|0
144,112,226268,1,2
144,112,226584,2,0,B|176:80|240:72,1,89.9999973177911,0|0
256,224,227426,1,0
256,264,227532,2,0,B|256:352,2,89.9999973177911,0|8|2
408,96,228479,6,0,B|368:80|320:88,1,80,0|0
288,96,228795,1,0
104,176,229005,1,0
128,208,229111,2,0,B|152:248|208:264,1,80,0|0
312,224,229426,2,0,B|360:248|384:296,1,80,0|0
384,304,229742,1,0
456,184,229953,5,0
424,176,230058,2,0,B|376:153|368:120,1,80,0|0
272,40,230374,2,0,B|228:73|168:80,1,80,0|0
160,80,230689,1,0
56,248,230900,2,0,B|88:216,1,40
216,160,231216,1,0
216,160,231321,1,0
184,272,231532,5,0
224,280,231637,2,0,B|264:288|320:272,1,80,0|0
312,176,231953,2,0,B|368:152|448:176,1,120,0|0
472,288,232584,1,0
344,336,232900,1,0
192,312,233216,1,0
192,312,233374,6,0,B|144:312,2,30,0|0|8
256,232,233742,2,0,B|304:240|360:232,1,89.9999973177911,2|2
360,64,234321,2,0,B|400:64,2,30,8|8|8
256,64,234690,2,0,B|208:56|152:64,1,89.9999973177911,2|2
72,144,235321,5,0
72,144,235426,2,0,B|112:224|216:264,1,179.999994635582,8|4
416,304,236268,5,0
440,272,236374,2,0,B|432:216|440:144,1,119.999996423721,0|0
464,120,236689,1,8
360,48,236900,1,0
360,48,237005,1,0
256,104,237216,1,0
224,80,237321,2,0,B|168:88|96:72,1,119.999996423721,0|8
0,48,237637,2,0,B|32:144|104:200,1,179.999994635582,0|8
120,336,238163,5,0
160,320,238268,2,0,B|216:280|256:208,1,119.999996423721,2|0
336,136,238584,2,0,B|328:200|352:280,1,119.999996423721,0|2
360,288,238900,1,0
496,200,239111,2,0,B|448:152,1,59.9999982118607,2|8
320,32,239426,1,0
296,56,239532,2,0,B|257:106|176:128,1,119.999996423721,2|0
96,240,239847,2,0,B|150:222|214:238,1,119.999996423721,0|8
254,254,240163,1,0
254,254,240479,5,8
32,80,240689,2,0,B|124:52|232:88,1,179.999994635582
248,96,241111,1,0
416,192,241321,1,0
376,208,241426,2,0,B|317:223|240:200,1,119.999996423721
224,192,241742,1,8
40,192,241953,5,0
72,192,242058,2,0,B|144:200|192:256,1,119.999996423721,2|0
288,328,242374,2,0,B|352:328|408:288,1,119.999996423721,0|8
504,208,242689,2,0,B|490:147|504:64,1,119.999996423721
472,48,243005,1,8
368,48,243321,6,0,B|360:120|296:168,1,119.999996423721,2|0
208,112,243637,2,0,B|200:184|240:264,1,119.999996423721,0|2
96,296,243953,2,0,B|160:336|240:320,1,119.999996423721
248,320,244268,1,8
248,320,244584,5,2
384,288,244795,1,0
400,256,244900,1,0
464,152,245111,1,8
440,120,245216,1,0
320,40,245426,5,8
288,48,245532,2,0,B|236:79|200:136,1,119.999996423721,8|2
168,88,245847,2,0,B|144:224,1,119.999996423721,2|8
144,240,246163,1,0
216,344,246374,5,0
224,312,246478,1,0
320,192,246690,1,0
312,232,246794,1,8
376,344,247005,1,0
376,304,247111,1,0
464,216,247321,5,0
456,176,247426,2,0,B|442:116|384:56,1,119.999996423721,0|8
320,192,247742,2,0,B|231:152|176:72,1,179.999994635582,0|8
40,248,248268,5,0
80,248,248374,2,0,B|160:248|280:312,1,179.999994635582,0|0
440,312,248900,1,0
424,272,249005,2,0,B|392:224|320:176,1,119.999996423721,0|8
248,40,249321,2,0,B|224:104|232:160,1,119.999996423721,8|0
184,296,249637,2,0,B|216:248|296:224,1,119.999996423721,2|0
408,48,249953,2,0,B|376:120|304:136,1,119.999996423721,0|8
248,40,250268,2,0,B|148:67|88:136,1,179.999994635582,0|8
32,264,250795,5,0
72,264,250900,2,0,B|136:256|224:320,1,119.999996423721,0|8
224,320,251216,1,0
440,336,251532,2,0,B|408:288|328:256,1,119.999996423721
304,256,251847,1,8
512,200,252163,6,0,B|456:192|392:96,1,119.999996423721
392,96,252479,1,0
256,40,252689,1,0
240,80,252795,1,0
128,160,253005,1,0
160,192,253111,1,8
80,304,253426,6,0,B|136:272|224:280,1,119.999996423721,2|0
320,272,253742,2,0,B|288:176|184:128,1,179.999994635582,8|0
64,80,254269,1,0
104,72,254374,2,0,B|200:56|304:96,1,179.999994635582,8|2
400,192,254900,6,0,B|464:192,1,59.9999982118607,0|0
312,264,255216,2,0,B|248:264,1,59.9999982118607,8|0
32,192,255637,6,0,B|80:304|224:336,1,240,8|4
344,336,256584,1,0
456,272,256900,1,2
496,144,257216,2,0,B|477:105|448:80,1,59.9999982118607,2|0
432,72,257532,1,2
336,88,257742,1,8
296,72,257848,1,0
96,96,258163,6,0,B|184:128|240:216,1,179.999994635582,8|4
336,360,259111,2,0,B|373:341|392:304,1,59.9999982118607
400,288,259426,1,8
400,144,259742,1,2
296,64,260058,2,0,B|240:64|208:96,1,89.9999973177911,0|0
264,224,260689,6,0,B|208:296|104:312,1,179.999994635582,8|4
80,184,261636,1,0
160,80,261848,1,0
160,80,261953,2,0,B|208:64|256:80,1,89.9999973177911,8|2
368,112,262584,1,0
440,208,262900,1,0
400,320,263216,6,0,B|312:336|216:288,1,179.999994635582,8|4
72,168,264163,1,0
80,80,264374,1,0
80,80,264479,1,8
176,152,264795,1,2
288,112,265111,1,0
400,152,265426,1,0
288,208,265742,6,0,B|192:216|128:296,1,179.999994635582,8|4
256,336,266689,2,0,B|304:336|336:320,1,59.9999982118607
352,312,267005,1,8
496,168,267321,2,0,B|448:168|424:184,1,59.9999982118607,2|0
400,192,267637,1,2
280,232,267953,1,0
280,232,268268,6,0,B|184:208|136:128,1,179.999994635582,8|4
240,64,269216,2,0,B|280:72|304:104,1,59.9999982118607
280,136,269532,2,0,B|320:168|376:160,1,89.9999973177911,8|2
496,152,270058,1,0
496,152,270163,2,0,B|476:214|448:240,1,89.9999973177911,0|0
456,352,270795,6,0,B|360:336|296:256,1,179.999994635582,8|4
240,144,271742,1,0
240,144,272058,2,0,B|328:136|400:232,1,179.999994635582,8|4
248,240,273006,1,0
248,240,273321,2,0,B|152:240|88:168,1,179.999994635582,8|4
48,32,274268,5,0
152,72,274479,1,0
192,88,274584,2,0,B|240:112|280:88,2,89.9999973177911,8|0|4
184,184,275532,1,0
184,184,275847,2,0,B|248:248|352:256,1,179.999994635582,8|4
456,88,277111,6,0,B|360:88|288:192,1,179.999994635582,0|0
303,171,278058,1,2
72,136,278690,5,2
128,216,279006,1,0
216,272,279321,1,2
312,304,279637,1,2
424,304,279953,2,0,B|408:240|312:192,1,149.999995529652,2|0
288,184,280584,1,2
168,120,281532,5,0
336,88,282163,2,0,B|390:80|440:104,2,89.9999973177911,0|2|0
336,88,283111,1,2
112,240,283742,5,2
192,280,283953,1,0
232,288,284058,2,0,B|280:296|336:272,1,89.9999973177911,0|2
416,224,284689,1,0
464,128,285005,1,2
