osu file format v9

[General]
AudioFilename: Hazy moonlight.mp3
AudioLeadIn: 1000
PreviewTime: 98519
Countdown: 0
SampleSet: Soft
StackLeniency: 0.7
Mode: 0
LetterboxInBreaks: 0

[Editor]
DistanceSpacing: 1.2
BeatDivisor: 4
GridSize: 4

[Metadata]
Title:Hazy Moon
Artist:Hatsune Miku
Creator:Snowy Dream
Version:Kiva
Source:Vocaloid
Tags:Yumeko Yuki FankuX _Kiva Dark Append Ryuusei-P Sanjenin Nagi -U

[Difficulty]
HPDrainRate:4
CircleSize:4
OverallDifficulty:3
ApproachRate:5
SliderMultiplier:1.6
SliderTickRate:2

[Events]
//Background and Video events
0,0,"miku.jpg"
//Break Periods
2,118339,126141
2,184874,191191
//Storyboard Layer 0 (Background)
//Storyboard Layer 1 (Fail)
//Storyboard Layer 2 (Pass)
//Storyboard Layer 3 (Foreground)
Sprite,Foreground,Centre,"Lyric\1.png",320,240 F,0,954,2142,0,1 M,0,954,14616,273,322,391,322 F,0,2142,13428,1 F,0,13428,14616,1,0
Sprite,Foreground,Centre,"Lyric\2.png",320,240 F,0,10458,11646,0,1 M,0,10458,17883,400,355,297,355 F,0,11646,16695,1 F,0,16695,17883,1,0
Sprite,Foreground,Centre,"Lyric\3.png",320,240 F,0,16844,17586,0,1 S,0,16844,22352,0.75,1.25 F,0,17586,21447,1 F,0,21447,22338,1,0
Sprite,Foreground,Centre,"miku.jpg",320,240 F,0,22490,23084,1,0 S,0,22490,23084,0.625
Sprite,Foreground,Centre,"miku.jpg",320,240 F,0,23095,23986,1,0 S,0,23095,23986,0.625,1
Sprite,Foreground,Centre,"miku.jpg",320,240 F,0,32600,33491,1,0 S,0,32600,33491,0.625,1
Sprite,Foreground,Centre,"white.png",320,240 F,0,32585,33179,0.52896,0
Sprite,Foreground,Centre,"Black Ring.png",320,240 F,0,41496,41794,0,0.6254095 F,0,41794,42089,0.6254095,1 M,0,42089,50999,320,240 F,0,42089,50999,1 F,0,50999,53969,1,0
Sprite,Foreground,Centre,"Lyric\yume.png",320,240 M,0,42094,,320,272 F,0,42094,42985,1,0 S,0,42094,42985,1.34816,2.04448
Sprite,Foreground,Centre,"Lyric\4.png",320,240 F,0,42980,43871,0,1 M,0,42980,55157,275,322,413,322 F,0,43871,54266,1 F,0,54266,55157,1,0
Sprite,Foreground,Centre,"Lyric\5.png",320,240 F,0,51147,52038,0,1 M,0,51147,60800,423,355,342,355 F,0,52038,59909,1 F,0,59909,60800,1,0
Sprite,Foreground,Centre,"Lyric\6.png",320,240 F,0,60651,61542,0,1 M,0,60651,73571,255,322,398,322 F,0,61542,72680,1 F,0,72680,73571,1,0
Sprite,Foreground,Centre,"Lyric\7.png",320,240 F,0,70304,71195,0,1 M,0,70304,79659,449,355,296,355 F,0,71195,78768,1 F,0,78768,,1 F,0,78768,79659,1,0
Sprite,Foreground,Centre,"Lyric\8.png",320,240 F,0,79362,80253,0,1 M,0,79362,93173,264,322,378,322 F,0,80253,92282,1 F,0,92282,93173,1,0
Sprite,Foreground,Centre,"Lyric\9.png",320,240 F,0,88866,89757,0,1 M,0,88866,96440,417,355,268,355 F,0,89757,95549,1 F,0,95549,96440,1,0
Sprite,Foreground,Centre,"Lyric\11.png",320,240 F,0,98370,99261,0,1 M,0,98370,111587,263,322,388,322 F,0,99261,110696,1 F,0,110696,111587,1,0
Sprite,Foreground,Centre,"Lyric\12.png",320,240 F,0,107874,108765,0,1 M,0,107874,117972,378,355,273,355 F,0,108765,117230,1 F,0,117230,117972,1,0
Sprite,Foreground,Centre,"Lyric\yume.png",320,240 M,0,127193,,133,356 F,0,127193,128232,1,0 S,0,127193,128232,1.04096,2.06496
Sprite,Foreground,Centre,"Lyric\yume.png",320,240 M,0,127341,,133,356 S,0,127341,,1.0512 F,0,127341,127638,0,1 F,0,127638,128232,1 F,0,128232,128826,1,0
Sprite,Foreground,Centre,"Lyric\13.png",320,240 F,0,128516,129407,0,1 M,0,128516,139802,315,322,413,322 F,0,129407,138911,1 F,0,138911,139653,1,0 F,0,139653,139802,0
Sprite,Foreground,Centre,"Lyric\hana.png",320,240 M,0,136846,,129,355 F,0,136846,137737,1,0 S,0,136846,137737,1.24576,2.36864
Sprite,Foreground,Centre,"Lyric\hana.png",320,240 M,0,136846,,129,355 S,0,136846,,1.22528 F,0,136846,137143,0,1 F,0,137143,137737,1 F,0,137737,138331,1,0
Sprite,Foreground,Centre,"Lyric\14.png",320,240 F,0,138020,138911,0,1 M,0,138020,146336,400,355,317,355 F,0,138911,145445,1 F,0,145445,146336,1,0
Sprite,Foreground,Centre,"Lyric\15.png",320,240 F,0,146039,147078,0,1 M,0,146039,155543,236,322,396,322 F,0,147078,154652,1 F,0,154652,155543,1,0
Sprite,Foreground,Centre,"Lyric\16.png",320,240 F,0,150642,151533,0,1 M,0,150642,155691,445,355,302,355 F,0,151533,154800,1 F,0,154800,155691,1,0
Sprite,Foreground,Centre,"Lyric\17.png",320,240 F,0,155543,156434,0,1 M,0,155543,162968,259,322,440,322 F,0,156434,162077,1 F,0,162077,162968,1,0
Sprite,Foreground,Centre,"Lyric\18.png",320,240 F,0,164750,165641,0,1 M,0,164750,177818,262,322,385,322 F,0,165641,176927,1 F,0,176927,177818,1,0
Sprite,Foreground,Centre,"miku.jpg",320,240 F,0,165669,166560,1,0 S,0,165669,166560,0.625,1
Sprite,Foreground,Centre,"Lyric\19.png",320,240 F,0,174551,175442,0,1 M,0,174551,184649,382,355,272,355 F,0,175442,183758,1 F,0,183758,184649,1,0
Sprite,Foreground,Centre,"Lyric\21.png",320,240 F,0,192519,193410,0,1 M,0,192519,196826,203,322,287,322 F,0,193410,195935,1 F,0,195935,196826,1,0
Sprite,Foreground,Centre,"Lyric\22.png",320,240 F,0,199796,200687,0,1 M,0,199796,202914,471,355,420,355 F,0,200687,202023,1 F,0,202023,202914,1,0
Sprite,Foreground,Centre,"Lyric\23.png",320,240 F,0,203063,203954,0,1 M,0,203063,215240,256,322,388,322 F,0,203954,214349,1 F,0,214349,215240,1,0
Sprite,Foreground,Centre,"Black Ring.png",320,240 F,0,203063,203657,0,1 F,0,203657,219546,1 M,0,203657,219669,320,240 F,0,219546,222071,1,0 F,0,222071,222073,0,0.128 F,0,222073,222688,0.128
Sprite,Foreground,Centre,"white.png",320,240 F,0,203657,,0.5596801 F,0,203657,204548,0.5596801,0
Sprite,Foreground,Centre,"miku.jpg",320,240 F,0,222699,223590,1,0 S,0,222699,223590,0.625,1 F,0,223590,248826,0
Sprite,Foreground,Centre,"Lyric\25.png",320,240 F,0,222516,223407,0,1 M,0,222516,235436,215,322,427,322 F,0,223407,234545,1 F,0,234545,235436,1,0
Sprite,Foreground,Centre,"Lyric\26.png",320,240 F,0,231575,232466,0,1 M,0,231575,241970,404,355,235,355 F,0,232466,241079,1 F,0,241079,241970,1,0
Sprite,Foreground,Centre,"black.png",320,240 M,0,241698,,320,240 F,0,241698,246450,0,1 F,0,246450,251203,1
Sprite,Foreground,Centre,"Thanks.png",320,240 M,0,241821,,322,356 F,0,241821,246722,1 S,1,241821,247910,0.3,1 F,0,246722,247761,1,0 F,0,247761,247910,0
Sprite,Foreground,Centre,"Lyric\24.png",320,240 F,0,212292,212886,0,1 M,0,212292,217935,467,356,370,356 F,0,212886,217935,1,0.9939748 F,0,217935,218529,0.9939748,0
Sprite,Foreground,Centre,"Lyric\3.png",320,240 F,0,217935,218529,0,1 M,0,218232,,320,240 S,0,218232,221500,0.5904002,1.16384 F,0,218529,222094,1 F,0,222094,222539,1,0 F,0,222539,222688,0
//Storyboard Sound Samples
//Background Colour Transformations
3,100,142,242,253

[TimingPoints]
-678,594.059405940594,4,2,1,70,1,0
1104,-200,4,2,2,60,0,0
21896,-200,4,2,2,20,0,0
22490,-100,4,2,2,70,0,0
42094,-200,4,2,2,65,0,0
56351,-200,4,2,2,65,0,0
61104,-100,4,2,2,70,0,0
69866,-100,4,1,0,45,0,0
70460,-100,4,2,2,70,0,0
98232,-100,4,2,2,70,0,0
127341,-100,4,2,2,70,0,0
145460,-100,4,2,2,50,0,0
146054,-100,4,2,2,70,0,0

[Colours]
Combo1 : 67,188,98
Combo2 : 64,81,236
Combo3 : 1,182,168
Combo4 : 214,38,238

[HitObjects]
256,112,1104,2,0,B|256:152,2,40
160,96,2292,2,0,B|112:80|72:104,1,80,0|2
56,192,3480,2,0,B|85:210|133:194,1,80,0|2
232,192,4668,1,0
280,184,4965,1,0
328,192,5262,1,2
392,264,5856,6,0,B|368:216|392:200|392:176,1,80
327,114,7044,2,0,B|351:162|327:178|327:202,2,80
242,159,8826,1,0
156,115,9421,2,0,B|156:159,2,40
184,208,10609,5,0
224,184,10906,1,0
264,160,11203,2,0,B|280:152|312:96,1,80,0|2
352,124,12094,2,0,B|360:140|384:148,1,40
328,72,12985,6,0,B|296:88|280:64,1,40
272,120,13579,2,0,B|232:136|184:120,1,80,0|2
184,168,14470,1,0
168,216,14767,2,0,B|120:216,1,40
80,240,15361,2,0,B|56:192,1,40
104,176,15955,6,0,B|136:152|160:168|192:152,1,80
320,168,17143,2,0,B|360:208,1,40
392,208,17737,1,2
368,248,18034,1,0
416,256,18331,2,0,B|392:304|344:312,1,80,0|2
312,288,19222,1,0
256,192,19668,12,0,21896
256,192,22490,5,2
96,96,23084,6,0,B|140:84|172:116,2,80,4|0|2
112,192,23975,1,0
52,268,24272,2,0,B|81:298|125:286,1,80
112,192,24866,1,2
176,120,25163,1,0
240,192,25460,6,0,B|288:200|312:144,1,80
216,136,26054,2,0,B|168:144|144:88,1,80,2|0
224,40,26648,1,4
416,56,27242,6,0,B|368:72|368:120,1,80
464,120,27836,1,2
416,192,28133,1,0
432,288,28430,2,0,B|480:272|480:224,1,80
392,192,29024,2,0,B|304:192,1,80,2|0
216,192,29619,1,2
120,192,29916,1,0
168,112,30213,5,0
256,72,30510,2,0,L|216:72,2,40,0|0|2
328,136,31104,2,0,B|376:136,2,40,0|0|2
432,280,31995,1,2
432,280,32292,6,0,B|480:280,2,40,0|0|4
336,280,32886,1,0
384,200,33183,1,2
152,272,33777,5,2
56,272,34074,2,0,B|16:272,2,40,0|0|2
152,272,34668,1,0
104,184,34965,1,2
256,300,35559,6,0,B|286:337|332:320,2,80,0|0|2
240,112,36747,2,0,B|320:112,1,80
376,192,37341,2,0,B|296:192,1,80,2|0
216,248,37935,2,0,B|288:248,2,40,0|0|0
140,304,38529,1,2
64,129,39123,1,0
160,112,39421,1,0
256,192,39718,12,0,42094
216,104,42688,5,0
216,104,42985,2,0,B|240:96|272:112,1,40
328,160,43876,1,0
360,195,44173,1,0
390,232,44470,2,0,B|372:328|299:356,1,160
256,184,46252,1,0
256,88,46846,6,0,B|216:80|176:88,1,80
136,104,47737,1,0
96,136,48034,2,0,B|88:176|96:216,1,80
176,192,49222,2,0,B|264:208,1,80
248,256,50114,1,0
240,304,50411,2,0,B|320:320,1,80
376,264,51302,6,0,L|376:224,1,40
248,128,52193,2,0,B|249:83,1,40
184,96,52787,2,0,B|160:144|208:160|165:176,1,80
131,237,53678,1,2
208,296,53975,2,0,B|284:328|368:296,1,160
452,256,55757,1,0
416,168,56351,6,0,B|375:167,1,40,2|0
328,168,56945,1,0
176,208,57539,2,0,B|223:209,2,40,2|0|0
284,324,58727,2,0,B|356:276|372:188,1,160
344,320,61104,6,0,B|272:248,2,80,4|0|0
249,338,61995,2,0,B|189:277,1,80
344,320,62886,2,0,B|392:316|416:280,2,80,0|0|2
344,224,63777,2,0,B|296:192,2,40,0|0|2
352,128,64371,1,0
344,224,64668,1,2
262,275,64965,2,0,L|262:315|262:331,2,40,0|0|2
184,128,65856,5,0
88,128,66153,2,0,B|40:128,2,40,0|0|2
183,128,66747,1,0
278,126,67044,2,0,B|326:126,2,40
232,44,67638,1,2
183,127,67935,1,0
278,126,68232,5,0
232,212,68529,2,0,B|288:212,2,40,0|0|2
136,208,69123,2,0,B|37:209,1,80
178,62,70015,2,0,B|178:102,2,40
256,116,70609,6,0,B|280:84|336:84,1,80,4|0
300,176,71203,1,2
212,212,71500,1,0
188,304,71797,6,0,B|164:336|108:336,1,80
144,244,72391,2,0,B|80:196,1,80,2|0
164,152,72985,1,0
328,52,73579,2,0,B|392:100,1,80,2|0
360,192,74173,1,0
432,256,74470,2,0,L|392:256,2,40,0|0|2
360,320,75064,1,0
284,264,75361,5,0
224,188,75658,1,0
320,172,75955,1,0
140,236,76549,5,0
224,188,76846,1,0
148,128,77143,1,0
216,312,77737,2,0,B|272:320|296:280,1,80
352,216,78331,1,0
312,128,78628,1,0
216,104,78925,1,4
280,272,79520,6,0,B|272:320|232:352,1,80
160,288,80114,2,0,B|120:288,2,40,4|0|0
184,192,80708,2,0,B|136:184|104:144,1,80
160,80,81302,1,2
248,120,81599,2,0,B|256:72|296:40,1,80
368,96,82193,1,0
336,188,82490,6,0,B|380:196|396:236,1,80
316,272,83084,2,0,B|220:272,1,80
180,348,83678,2,0,B|117:285,1,80
136,196,84272,1,0
232,208,84569,1,0
275,294,84866,6,0,B|437:293,1,160,0|2
416,198,85757,1,0
472,120,86054,2,0,B|384:120,1,80
392,120,86648,1,2
344,200,86945,1,0
288,120,87242,2,0,B|219:79,1,80
160,152,87836,2,0,B|127:178,2,40
200,240,88430,2,0,B|264:176,1,80
328,120,89024,1,4
384,200,89321,6,0,B|384:288,2,80,0|4|0
384,104,90213,1,2
288,104,90510,2,0,B|288:24,2,80
192,104,91401,2,0,B|191:150,2,40
96,104,91995,5,0
96,200,92292,2,0,B|56:200,2,40,0|0|2
96,296,92886,1,0
184,248,93183,2,0,B|184:184,2,40
256,184,93777,1,2
256,184,94074,1,0
256,184,94371,1,2
256,192,94668,12,0,96153
257,186,96747,6,0,B|257:311,2,120,0|4|4
257,186,97935,1,4
296,80,98529,6,0,B|384:80,2,80,2|0|4
176,128,99421,2,0,L|216:128,2,40,0|0|2
80,128,100015,1,0
128,208,100312,1,0
184,288,100609,2,0,B|128:288,2,40,0|0|2
320,288,101500,6,0,B|280:288,2,40
274,203,102094,2,0,B|436:203,1,160
476,288,102985,2,0,B|377:288|372:289,1,80
204,288,103876,6,0,B|284:288,1,80
320,199,104470,1,0
248,136,104767,2,0,B|168:136,1,80
80,184,105361,1,0
168,224,105658,2,0,B|272:224,1,80,2|0
344,224,106252,2,0,B|432:224,2,80
392,136,107143,1,0
296,136,107440,1,4
132,48,108034,5,2
84,128,108331,2,0,B|84:216,1,80,0|4
160,268,108925,2,0,B|132:296,2,40,0|0|2
248,304,109520,1,0
312,232,109817,2,0,B|312:136,1,80
216,128,110411,1,2
44,220,111005,6,0,B|124:220,1,80
220,220,111599,1,2
264,132,111896,1,0
168,132,112193,1,0
124,220,112490,1,0
168,304,112787,1,2
264,304,113084,1,0
312,220,113381,1,0
236,44,113975,6,0,B|316:44,2,80,2|0|2
152,88,114866,2,0,L|128:40,2,40,0|0|2
112,176,115460,1,0
208,180,115757,2,0,B|280:180,2,40
252,92,116351,1,0
252,92,116648,1,0
332,148,116945,2,0,B|372:128|420:152|440:204|420:240,1,160
244,304,118133,1,4
128,112,127341,5,2
128,112,127638,1,4
300,196,128232,1,2
204,204,128529,1,0
244,116,128826,1,2
320,292,129421,1,0
320,292,129718,1,0
300,196,130015,6,0,B|348:180|364:132,1,80
428,80,130609,1,2
462,170,130906,1,0
406,248,131203,2,0,B|364:260|350:304,2,80
219,291,132391,6,0,B|219:243|171:203,1,80
128,144,132985,2,0,B|160:112|168:56,1,80,2|0
264,72,133579,1,0
344,128,133876,1,0
280,200,134173,1,2
200,144,134470,1,0
256,192,134767,12,0,136549
144,96,137143,5,4
184,184,137440,1,0
272,144,137737,1,2
244,52,138034,2,0,B|300:28|332:68,1,80
376,132,138628,1,0
340,220,138925,1,2
252,256,139222,1,0
184,184,139520,6,0,B|168:148|120:132|72:148|52:184,1,160,0|2
116,256,140411,1,0
184,324,140708,2,0,B|216:352,2,40
88,328,141302,1,2
32,248,141599,2,0,B|0:212|12:160,1,80
64,96,142193,5,0
156,116,142490,1,2
192,204,142787,2,0,B|256:252,1,80
276,160,143381,2,0,B|348:216,1,80,0|2
340,304,143975,2,0,B|388:328|436:296,1,80
488,240,144569,2,0,B|440:216|392:248,1,80
396,144,145163,2,0,B|376:104|398:66,1,80
124,112,146054,6,0,B|87:90|47:114,2,80,2|0|4
160,300,147242,2,0,B|196:321|236:297,2,80,2|0|2
128,108,148430,6,0,B|104:68|128:28,2,80,2|0|2
268,240,149619,2,0,B|300:280|268:320,2,80,2|0|2
288,48,150807,5,2
224,120,151104,1,2
320,136,151401,1,0
88,304,152292,5,0
88,304,152589,1,0
116,212,152886,2,0,B|168:216|192:292,1,80
256,312,153480,1,0
334,257,153777,2,0,B|344:216|396:212,1,80
424,304,154371,1,2
488,232,154668,2,0,B|488:176,2,40,0|0|2
304,72,155559,6,0,B|264:52|224:72,1,80
168,144,156153,1,4
168,240,156450,1,0
128,328,156747,2,0,B|168:348|208:328,2,80
248,180,157935,6,0,B|296:148|344:196,1,80
408,136,158529,1,2
416,232,158826,1,0
324,256,159123,2,0,B|284:288|236:248,2,80,0|0|0
216,96,160312,6,0,B|256:72|304:104,2,80,0|0|2
140,272,161500,2,0,B|224:244|256:160|256:160|276:244|376:276,1,320
256,192,162985,12,4,164470
112,48,165064,5,2
48,120,165361,1,2
144,128,165658,1,4
80,200,165955,2,0,B|160:232,1,80,0|2
80,288,166549,2,0,B|160:320,1,80,0|0
248,320,167143,1,0
344,320,167440,2,0,B|424:296,1,80,2|0
424,200,168034,2,0,B|416:152|392:128,1,80,0|0
308,88,168628,2,0,B|268:64|224:84,1,80,2|0
144,124,169222,1,4
64,304,169817,6,0,B|32:256|72:216,2,80,2|0|0
152,272,170708,1,0
240,232,171005,2,0,B|272:280|232:320,2,80,2|0|2
128,72,172193,5,2
224,60,172490,2,0,B|264:52|296:92,1,80
240,172,173084,2,0,B|272:220|320:212,1,80
388,164,173678,1,2
460,224,173975,2,0,B|496:244,2,40
376,268,174569,1,2
256,136,175163,5,4
104,256,175757,1,2
200,256,176054,1,0
152,336,176351,1,2
344,328,176945,6,0,B|392:312|400:256,1,80,2|0
312,232,177539,2,0,B|328:184|384:168,1,80,4|0
464,168,178133,2,0,B|504:136|496:72,1,80,2|0
408,56,178727,1,2
312,48,179024,1,0
216,48,179321,1,2
120,56,179619,1,0
72,144,179916,6,0,B|64:236|136:280,2,160
72,144,181698,1,0
256,192,182292,12,4,184668
144,96,192391,6,0,B|224:96,1,80
312,136,192985,2,0,B|400:136,1,80,0|2
360,224,193579,2,0,B|264:224,1,80,0|2
192,256,194173,1,4
96,232,194470,1,0
128,320,194767,1,2
320,336,195361,6,0,B|400:352,2,80
400,160,196549,2,0,B|312:136,2,80
216,224,197737,1,0
144,160,198034,1,0
72,224,198331,1,2
144,288,198628,1,0
216,224,198925,2,0,B|216:184|240:144|328:120,1,160,0|2
488,224,200114,2,0,B|488:264|464:304|376:328,1,160,0|2
256,192,201005,12,4,202490
104,72,203084,5,0
56,160,203381,1,0
104,248,203678,1,0
224,96,204272,2,0,B|180:104|160:144,1,80
164,236,204866,2,0,B|172:280|212:300,1,80
304,304,205460,2,0,B|348:296|368:256,1,80
364,164,206054,2,0,B|356:120|316:100,1,80
224,96,206648,1,0
216,288,207242,1,2
352,152,207836,6,0,B|320:112|360:72,1,80
432,24,208430,1,0
448,216,209024,2,0,B|480:168|440:136,1,80
352,152,209619,1,0
164,108,210213,1,0
264,272,210807,2,0,B|200:256|184:224,1,80
264,272,211401,2,0,B|320:256|344:224,1,80
336,136,211995,2,0,B|336:56,2,80
152,192,213183,5,0
152,192,213777,2,0,B|120:248|176:288,2,80,0|0|0
340,152,214965,2,0,B|380:128|428:160,1,80
368,236,215559,2,0,B|356:276|328:308,2,80
276,204,216450,1,0
264,108,216747,2,0,B|248:60|272:28,1,80
180,68,217341,2,0,B|144:84|96:68,1,80
40,144,217935,5,2
232,168,218529,1,2
384,56,219123,1,2
232,168,219718,1,0
232,168,220015,1,0
232,264,220312,2,0,B|216:312|160:304,1,80
232,264,220906,2,0,B|264:304|320:304,1,80
360,228,221500,2,0,B|368:172|404:152,1,80,2|0
360,228,222094,2,0,B|352:172|304:144,1,80,2|0
248,104,222688,5,4
440,104,223282,1,2
440,296,223876,2,0,B|472:232|413:207,1,80
438,222,224470,1,2
344,240,224767,1,0
248,232,225064,6,0,B|208:252|160:228,2,80,0|0|2
216,144,225955,1,0
216,48,226252,1,4
296,96,226549,1,0
216,144,226846,1,2
136,96,227143,1,0
216,144,227440,6,0,B|152:152|120:176,1,80
216,144,228034,2,0,B|216:200|224:224,1,80,2|0
216,144,228628,2,0,B|264:168|296:168,1,80
288,264,229222,1,2
192,272,229520,1,0
96,288,229817,6,0,B|56:280|48:232,2,80,0|0|2
192,272,230708,1,0
286,286,231005,2,0,B|326:278|334:230,2,80,0|0|2
184,128,232193,5,4
272,88,232490,1,2
360,128,232787,1,2
328,256,233381,5,4
240,296,233678,1,2
152,256,233975,1,2
96,72,234569,6,0,B|64:120|120:160,1,80,4|2
200,144,235163,1,2
416,72,235757,6,0,B|448:120|392:160,1,80,4|2
312,144,236351,1,2
256,224,236648,1,0
184,288,236945,6,0,B|256:336|336:288,1,160,4|2
264,120,238133,2,0,B|208:144|208:184,1,80
264,248,238727,2,0,B|320:224|312:184,1,80,2|0
365,272,239321,2,0,B|298:265|259:163|259:163|219:264|126:276,2,320,4|4|0
