osu file format v9

[General]
AudioFilename: Hazy moonlight.mp3
AudioLeadIn: 1000
PreviewTime: 98519
Countdown: 0
SampleSet: Soft
StackLeniency: 0.9
Mode: 0
LetterboxInBreaks: 0

[Editor]
DistanceSpacing: 1.2
BeatDivisor: 4
GridSize: 4

[Metadata]
Title:Hazy Moon
Artist:Hatsune Miku
Creator:Snowy Dream
Version:Hazy
Source:Vocaloid
Tags:Yumeko Yuki FankuX _Kiva Dark Append Ryuusei-P Sanjenin Nagi -U

[Difficulty]
HPDrainRate:7
CircleSize:4
OverallDifficulty:7
ApproachRate:6
SliderMultiplier:1.4
SliderTickRate:2

[Events]
//Background and Video events
0,0,"miku.jpg"
//Break Periods
2,23284,31539
2,118333,124212
//Storyboard Layer 0 (Background)
//Storyboard Layer 1 (Fail)
//Storyboard Layer 2 (Pass)
//Storyboard Layer 3 (Foreground)
Sprite,Foreground,Centre,"Lyric\1.png",320,240 F,0,954,2142,0,1 M,0,954,14616,273,322,391,322 F,0,2142,13428,1 F,0,13428,14616,1,0
Sprite,Foreground,Centre,"Lyric\2.png",320,240 F,0,10458,11646,0,1 M,0,10458,17883,400,355,297,355 F,0,11646,16695,1 F,0,16695,17883,1,0
Sprite,Foreground,Centre,"Lyric\3.png",320,240 F,0,16844,17586,0,1 S,0,16844,22352,0.75,1.25 F,0,17586,21447,1 F,0,21447,22338,1,0
Sprite,Foreground,Centre,"miku.jpg",320,240 F,0,22490,23084,1,0 S,0,22490,23084,0.625
Sprite,Foreground,Centre,"miku.jpg",320,240 F,0,23095,23986,1,0 S,0,23095,23986,0.625,1
Sprite,Foreground,Centre,"miku.jpg",320,240 F,0,32600,33491,1,0 S,0,32600,33491,0.625,1
Sprite,Foreground,Centre,"white.png",320,240 F,0,32585,33179,0.52896,0
Sprite,Foreground,Centre,"Black Ring.png",320,240 F,0,41496,41794,0,0.6254095 F,0,41794,42089,0.6254095,1 M,0,42089,50999,320,240 F,0,42089,50999,1 F,0,50999,53969,1,0
Sprite,Foreground,Centre,"Lyric\yume.png",320,240 M,0,42094,,320,272 F,0,42094,42985,1,0 S,0,42094,42985,1.34816,2.04448
Sprite,Foreground,Centre,"Lyric\4.png",320,240 F,0,42980,43871,0,1 M,0,42980,55157,275,322,413,322 F,0,43871,54266,1 F,0,54266,55157,1,0
Sprite,Foreground,Centre,"Lyric\5.png",320,240 F,0,51147,52038,0,1 M,0,51147,60800,423,355,342,355 F,0,52038,59909,1 F,0,59909,60800,1,0
Sprite,Foreground,Centre,"Lyric\6.png",320,240 F,0,60651,61542,0,1 M,0,60651,73571,255,322,398,322 F,0,61542,72680,1 F,0,72680,73571,1,0
Sprite,Foreground,Centre,"Lyric\7.png",320,240 F,0,70304,71195,0,1 M,0,70304,79659,449,355,296,355 F,0,71195,78768,1 F,0,78768,,1 F,0,78768,79659,1,0
Sprite,Foreground,Centre,"Lyric\8.png",320,240 F,0,79362,80253,0,1 M,0,79362,93173,264,322,378,322 F,0,80253,92282,1 F,0,92282,93173,1,0
Sprite,Foreground,Centre,"Lyric\9.png",320,240 F,0,88866,89757,0,1 M,0,88866,96440,417,355,268,355 F,0,89757,95549,1 F,0,95549,96440,1,0
Sprite,Foreground,Centre,"Lyric\11.png",320,240 F,0,98370,99261,0,1 M,0,98370,111587,263,322,388,322 F,0,99261,110696,1 F,0,110696,111587,1,0
Sprite,Foreground,Centre,"Lyric\12.png",320,240 F,0,107874,108765,0,1 M,0,107874,117972,378,355,273,355 F,0,108765,117230,1 F,0,117230,117972,1,0
Sprite,Foreground,Centre,"Lyric\yume.png",320,240 M,0,127193,,133,356 F,0,127193,128232,1,0 S,0,127193,128232,1.04096,2.06496
Sprite,Foreground,Centre,"Lyric\yume.png",320,240 M,0,127341,,133,356 S,0,127341,,1.0512 F,0,127341,127638,0,1 F,0,127638,128232,1 F,0,128232,128826,1,0
Sprite,Foreground,Centre,"Lyric\13.png",320,240 F,0,128516,129407,0,1 M,0,128516,139802,315,322,413,322 F,0,129407,138911,1 F,0,138911,139653,1,0 F,0,139653,139802,0
Sprite,Foreground,Centre,"Lyric\hana.png",320,240 M,0,136846,,129,355 F,0,136846,137737,1,0 S,0,136846,137737,1.24576,2.36864
Sprite,Foreground,Centre,"Lyric\hana.png",320,240 M,0,136846,,129,355 S,0,136846,,1.22528 F,0,136846,137143,0,1 F,0,137143,137737,1 F,0,137737,138331,1,0
Sprite,Foreground,Centre,"Lyric\14.png",320,240 F,0,138020,138911,0,1 M,0,138020,146336,400,355,317,355 F,0,138911,145445,1 F,0,145445,146336,1,0
Sprite,Foreground,Centre,"Lyric\15.png",320,240 F,0,146039,147078,0,1 M,0,146039,155543,236,322,396,322 F,0,147078,154652,1 F,0,154652,155543,1,0
Sprite,Foreground,Centre,"Lyric\16.png",320,240 F,0,150642,151533,0,1 M,0,150642,155691,445,355,302,355 F,0,151533,154800,1 F,0,154800,155691,1,0
Sprite,Foreground,Centre,"Lyric\17.png",320,240 F,0,155543,156434,0,1 M,0,155543,162968,259,322,440,322 F,0,156434,162077,1 F,0,162077,162968,1,0
Sprite,Foreground,Centre,"Lyric\18.png",320,240 F,0,164750,165641,0,1 M,0,164750,177818,262,322,385,322 F,0,165641,176927,1 F,0,176927,177818,1,0
Sprite,Foreground,Centre,"miku.jpg",320,240 F,0,165669,166560,1,0 S,0,165669,166560,0.625,1
Sprite,Foreground,Centre,"Lyric\19.png",320,240 F,0,174551,175442,0,1 M,0,174551,184649,382,355,272,355 F,0,175442,183758,1 F,0,183758,184649,1,0
Sprite,Foreground,Centre,"Lyric\21.png",320,240 F,0,192519,193410,0,1 M,0,192519,196826,203,322,287,322 F,0,193410,195935,1 F,0,195935,196826,1,0
Sprite,Foreground,Centre,"Lyric\22.png",320,240 F,0,199796,200687,0,1 M,0,199796,202914,471,355,420,355 F,0,200687,202023,1 F,0,202023,202914,1,0
Sprite,Foreground,Centre,"Lyric\23.png",320,240 F,0,203063,203954,0,1 M,0,203063,215240,256,322,388,322 F,0,203954,214349,1 F,0,214349,215240,1,0
Sprite,Foreground,Centre,"Black Ring.png",320,240 F,0,203063,203657,0,1 F,0,203657,219546,1 M,0,203657,219669,320,240 F,0,219546,222071,1,0 F,0,222071,222073,0,0.128 F,0,222073,222688,0.128
Sprite,Foreground,Centre,"white.png",320,240 F,0,203657,,0.5596801 F,0,203657,204548,0.5596801,0
Sprite,Foreground,Centre,"miku.jpg",320,240 F,0,222699,223590,1,0 S,0,222699,223590,0.625,1 F,0,223590,248826,0
Sprite,Foreground,Centre,"Lyric\25.png",320,240 F,0,222516,223407,0,1 M,0,222516,235436,215,322,427,322 F,0,223407,234545,1 F,0,234545,235436,1,0
Sprite,Foreground,Centre,"Lyric\26.png",320,240 F,0,231575,232466,0,1 M,0,231575,241970,404,355,235,355 F,0,232466,241079,1 F,0,241079,241970,1,0
Sprite,Foreground,Centre,"black.png",320,240 M,0,241698,,320,240 F,0,241698,246450,0,1 F,0,246450,251203,1
Sprite,Foreground,Centre,"Thanks.png",320,240 M,0,241821,,322,356 F,0,241821,246722,1 S,1,241821,247910,0.3,1 F,0,246722,247761,1,0 F,0,247761,247910,0
Sprite,Foreground,Centre,"Lyric\24.png",320,240 F,0,212292,212886,0,1 M,0,212292,217935,467,356,370,356 F,0,212886,217935,1,0.9939748 F,0,217935,218529,0.9939748,0
Sprite,Foreground,Centre,"Lyric\3.png",320,240 F,0,217935,218529,0,1 M,0,218232,,320,240 S,0,218232,221500,0.5904002,1.16384 F,0,218529,222094,1 F,0,222094,222539,1,0 F,0,222539,222688,0
//Storyboard Sound Samples
//Background Colour Transformations
3,100,142,242,253

[TimingPoints]
-678,594.059405940594,4,2,0,40,1,0
22489,-100,4,2,1,80,0,0
23084,-100,4,2,2,80,0,1
23232,-100,4,2,2,80,0,0
42093,-200,4,2,0,41,0,0
43875,-200,4,2,1,41,0,0
44469,-200,4,2,0,41,0,0
61103,-100,4,2,2,80,0,0
99123,-100,4,2,2,80,0,1
118133,-100,4,2,2,80,0,0
145460,-200,4,2,2,80,0,0
146500,-100,4,2,2,80,0,0
165658,-100,4,2,2,80,0,1
184668,-100,4,2,2,80,0,0
203678,-133.333333333333,4,2,2,80,0,0
207836,-133.333333333333,4,2,2,80,0,0
222688,-100,4,2,2,80,0,1
241698,-200,4,2,1,5,0,0

[Colours]
Combo1 : 67,188,98
Combo2 : 64,81,236
Combo3 : 1,182,168
Combo4 : 214,38,238

[HitObjects]
140,104,1104,1,0
220,128,1401,1,0
256,204,1698,2,0,B|204:260|120:244,1,140,2|0
80,176,2589,1,0
164,180,2886,2,0,B|220:232|204:316,1,140,2|0
288,324,3777,1,0
288,324,4074,1,2
336,256,4371,2,0,B|408:256,2,70,2|0|0
376,184,5262,2,0,B|424:140|440:92,2,105,2|0|2
316,128,6450,6,0,B|292:96|256:80,1,70,2|0
240,164,7044,2,0,B|264:196|300:212,1,70,2|0
324,288,7638,1,2
256,336,7935,1,0
256,336,8232,1,0
188,288,8529,1,0
188,288,8826,2,0,B|116:288|48:312,2,140,2|2|2
196,204,10312,2,0,B|156:200|124:184,2,70,0|2|0
376,128,11203,6,0,B|424:180|440:256,1,140,2|0
372,300,12094,1,0
372,300,12391,1,2
312,244,12688,1,0
244,84,12985,2,0,B|176:104|100:84,1,140,0|2
72,164,13876,1,0
100,244,14173,2,0,B|132:224|148:192,1,70,2|0
216,244,14767,2,0,B|253:242|283:222,1,70,2|2
364,248,15361,2,0,B|397:265|433:263,1,70
492,204,15955,1,2
420,96,16549,6,0,B|372:96|348:136|280:124,1,140,0|2
204,104,17440,1,0
216,188,17737,1,2
140,156,18034,1,0
72,208,18331,2,0,B|52:236|56:276,2,70
60,124,19222,2,0,B|52:64|12:28,1,105
256,192,19817,12,2,22490
256,192,23084,5,4
116,108,32589,6,0,B|192:108,1,70,4|0
336,180,33183,2,0,B|260:180,1,70,8|0
192,220,33777,1,2
116,184,34074,1,0
116,184,34222,1,0
116,184,34371,1,8
124,268,34668,1,0
204,300,34965,5,2
204,300,35262,1,0
280,268,35559,1,8
304,284,35708,1,0
331,290,35856,1,0
360,284,36005,1,0
384,268,36153,2,0,B|432:216|436:172,2,105,2|0|2
344,192,37341,6,0,B|316:168|276:156,1,70,2|0
208,196,37935,2,0,B|175:186|147:162,1,70,8|0
196,92,38529,1,2
112,92,38826,1,0
112,92,38975,1,0
112,92,39123,1,8
60,156,39421,1,0
100,232,39718,6,0,B|116:272|152:284,1,70,2|0
180,204,40312,2,0,B|222:210|251:184,1,70,8|0
208,116,40906,2,0,B|228:84|268:68|308:84|328:116,1,140,2|8
368,184,41797,1,0
400,260,42094,6,0,B|352:284|292:284,1,105,2|0
216,276,43282,1,2
92,252,43727,2,0,B|80:204|32:192,1,87.5,2|0
200,180,45064,2,0,B|240:180,1,35,2|0
304,136,45658,2,0,B|332:164,1,35,2|0
408,184,46252,2,0,B|408:224,1,35,2|0
328,244,46846,6,0,B|304:280|280:284,2,52.5,2|0|2
392,296,48034,2,0,B|416:260|440:256,2,52.5,2|0|2
324,344,49222,2,0,B|252:360|180:344,1,140,2|2
148,272,50708,1,0
68,296,51005,1,0
148,272,51302,1,2
148,188,51599,6,0,B|188:180|212:216,1,70,2|0
292,208,52490,1,0
292,208,52787,1,2
404,84,53381,1,2
404,84,53678,1,0
424,164,53975,2,0,B|384:164,1,35,2|0
320,208,54569,2,0,B|291:179,1,35
216,160,55163,2,0,B|184:140|148:160,1,70,2|2
188,236,56054,5,0
188,236,56351,1,2
316,232,56797,1,0
412,312,57242,1,2
412,312,57539,1,2
316,232,57985,1,0
368,116,58430,1,2
368,116,58727,2,0,B|424:168|412:252,1,140,2|2
84,168,61104,5,4
100,84,61401,1,0
184,76,61698,1,8
228,148,61995,1,0
204,228,62292,2,0,B|228:284|280:300,2,105,2|0|0
284,208,63480,5,2
348,152,63777,1,0
432,144,64074,1,8
348,152,64371,1,0
404,212,64668,1,2
344,272,64965,1,0
344,272,65114,1,0
344,272,65262,1,8
260,276,65559,1,0
196,120,65856,6,0,B|160:136|140:164,1,70,2|0
212,208,66450,1,8
132,236,66747,1,0
132,236,66896,1,0
132,236,67044,1,2
48,248,67341,2,0,B|28:264|20:280,2,35,0|0|8
88,320,67935,1,0
232,304,68232,6,0,B|284:352,2,70,2|0|8
308,264,69123,1,0
384,228,69421,2,0,B|332:180,2,70,2|0|8
464,200,70312,1,0
472,172,70460,1,0
464,144,70609,1,4
400,88,70906,6,0,B|372:64|336:56,1,70,0|8
256,68,71500,1,0
256,68,71648,1,0
256,68,71797,1,2
204,132,72094,2,0,B|180:156|140:172,2,70,0|8|0
280,168,72985,1,2
184,304,73579,1,8
352,316,74173,1,2
284,268,74470,1,0
284,268,74619,1,0
284,268,74767,1,8
360,232,75064,5,0
432,188,75361,2,0,B|480:152|488:96,2,105,2|0|2
396,112,76549,2,0,B|352:76|288:80,1,105,2|0
280,80,77143,1,8
324,160,77440,1,0
244,180,77737,2,0,B|176:192|104:176,2,140,2|8|2
276,256,79222,1,0
276,256,79371,1,0
276,256,79520,1,8
200,292,79817,1,0
120,264,80114,6,0,B|48:248,1,70,4|0
112,188,80708,2,0,B|184:204,1,70,8|0
260,172,81302,1,2
280,156,81450,1,0
308,148,81599,1,0
336,152,81747,1,0
360,168,81896,1,8
312,236,82193,6,0,B|312:312,2,70,0|4|0
396,248,83084,1,8
464,200,83381,1,0
464,200,83529,1,0
464,200,83678,1,2
460,116,83975,2,0,B|464:72|444:48,2,70,0|8|0
380,88,84866,6,0,B|316:56|240:52,1,140,4|8
272,132,85757,2,0,B|276:172|304:196,1,70,0|2
376,224,86351,1,0
376,224,86500,1,0
376,224,86648,1,8
348,304,86945,1,0
268,280,87242,6,0,B|180:280|136:272,1,105,2|0
163,275,87836,1,8
88,240,88133,1,0
160,196,88430,1,2
160,196,88579,1,0
160,196,88727,1,0
160,196,88876,1,0
160,196,89024,1,8
236,160,89321,1,0
288,92,89619,5,4
288,92,89916,2,0,B|324:112|320:156,1,70,0|8
388,200,90510,1,0
388,200,90658,1,0
388,200,90807,1,0
336,264,91104,1,0
268,216,91401,1,8
268,216,91698,1,0
184,216,91995,6,0,B|136:216|116:240,2,70,4|0|8
148,140,92886,2,0,B|132:132|108:136,2,35,0|0|2
232,128,93480,1,0
316,140,93777,1,8
232,128,94074,1,0
236,212,94371,2,0,B|220:248|240:280,1,70,2|0
260,300,94817,1,0
288,308,94965,2,0,B|324:308|356:288,1,70,8|0
404,220,95559,2,0,B|421:188|420:151,1,70,2|0
416,68,96153,2,0,B|398:36|364:19,1,70,8|0
324,92,96747,6,0,B|308:128|276:156,1,70,4|0
283,148,97193,1,4
160,144,97638,1,4
160,144,97935,1,4
224,300,98529,5,0
224,300,98678,1,0
224,300,98826,1,0
224,300,98975,1,0
224,300,99123,2,0,B|224:228,1,70,4|0
160,176,99718,2,0,B|224:132|292:176,1,140,8|2
324,252,100609,1,0
352,244,100757,1,0
372,224,100906,1,8
364,140,101203,1,0
300,88,101500,6,0,B|240:64|184:84,2,105,2|0|2
384,80,102688,1,0
384,80,102836,1,0
384,80,102985,1,0
384,80,103133,1,0
384,80,103282,1,8
440,144,103579,1,0
440,296,103876,6,0,B|404:312|368:296,2,70,2|0|8
392,228,104767,1,0
308,228,105064,2,0,B|276:216|239:229,2,70,2|0|8
272,304,105955,1,0
188,308,106252,6,0,B|144:308|108:276,1,70,2|0
84,272,106698,1,0
72,232,106846,2,0,B|68:192|84:160,1,70,8|0
168,148,107440,1,2
244,116,107737,1,0
244,116,107886,1,0
244,116,108034,1,8
232,200,108331,2,0,B|248:232|244:272,2,70,0|4|0
308,240,109222,6,0,B|248:284|168:268,1,140,8|0
216,344,110114,1,0
300,332,110411,1,8
380,304,110708,2,0,B|400:272|404:236,1,70,0|0
420,156,111302,1,0
420,156,111450,1,0
420,156,111599,1,8
348,108,111896,2,0,B|312:92|276:92,2,70,0|0|0
288,168,112787,2,0,B|324:184|360:184,2,70,8|0|0
208,140,113678,5,0
208,140,113826,1,0
208,140,113975,1,8
124,132,114272,2,0,B|48:128,1,70,0|0
88,204,114866,2,0,B|72:220|52:228,2,35,0|0|8
156,256,115460,1,0
228,216,115757,2,0,B|260:268|316:284,2,105,2|0|0
292,160,116945,2,8,B|360:200|425:160,1,140,0|2
360,108,117836,1,0
360,108,118133,1,4
156,180,125262,6,0,B|228:180,1,70,2|0
188,256,125856,1,8
272,256,126153,1,0
272,256,126302,1,0
272,256,126450,1,2
332,196,126747,1,0
332,112,127044,2,0,B|416:116|424:200,1,140,8|4
392,276,127935,6,0,B|364:304|328:320,1,70,0|8
252,328,128529,1,0
212,332,128678,1,0
172,316,128826,2,0,B|108:284|32:296,2,140,2|8|0
172,232,130312,1,0
108,180,130609,1,8
188,152,130906,1,0
124,96,131203,1,0
124,96,131500,1,0
124,96,131648,1,0
124,96,131797,1,8
204,68,132094,6,0,B|280:68,1,70
284,152,132688,1,0
284,152,132836,1,0
284,152,132985,2,0,B|296:188|328:216,1,70,8|0
404,224,133579,2,0,B|380:296|292:292,1,140,0|8
228,244,134470,1,0
228,244,134619,1,0
228,244,134767,1,2
144,228,135064,2,0,B|144:296,1,70,0|8
72,256,135658,2,0,B|72:176,1,70
144,144,136252,2,0,B|160:128|180:124,2,35,0|0|8
68,112,136846,5,0
68,112,137143,1,4
236,112,137737,2,0,B|276:112|300:88,2,70,8|0|2
284,180,138628,1,0
284,180,138777,1,0
284,180,138925,1,8
364,160,139222,1,0
432,208,139520,6,0,B|436:260|400:312,1,105,2|0
372,332,140114,2,0,B|328:361|265:356,1,105,8|0
232,352,140708,2,0,B|184:329|157:272,1,105,2|0
160,277,141302,1,8
244,264,141599,1,0
288,192,141896,2,0,B|272:152|244:136,1,70,4|0
216,60,142490,1,8
160,124,142787,1,0
160,124,142935,1,0
160,124,143084,1,2
80,152,143381,2,0,B|44:144|8:128,2,70,0|8|0
144,204,144272,6,0,B|176:224|180:264,1,70,2|0
288,312,144866,2,0,B|256:291|252:252,1,70,8|0
240,172,145460,2,0,B|292:152|344:172,1,105,2|8
412,220,146648,6,0,B|448:156,1,70,4|0
388,100,147242,2,0,B|344:40,1,70,8|0
264,56,147836,1,0
216,124,148133,2,0,B|176:136,2,35,0|0|8
296,148,148727,1,0
184,264,149024,6,0,B|224:264|260:248,1,70,4|0
236,332,149619,2,0,B|270:312|293:280,1,70,8|0
316,368,150213,2,0,B|336:333|340:294,1,70
324,220,150807,1,8
352,140,151104,1,0
352,140,151252,1,0
352,140,151401,1,0
288,84,151698,1,0
256,160,151995,6,0,B|200:144|176:188|116:164,1,140,8|2
52,116,152886,1,0
36,200,153183,1,8
100,252,153480,1,0
180,232,153777,6,0,B|216:248,4,35,0|0|0|0|8
248,180,154668,1,0
332,164,154965,1,2
360,168,155114,1,0
383,183,155262,1,0
392,208,155411,1,0
388,236,155559,1,8
304,236,155856,1,0
352,84,156153,6,0,B|288:56|212:56,1,140,4|8
136,84,157044,1,0
136,84,157193,1,0
136,84,157341,1,0
184,152,157638,1,0
100,160,157935,1,8
68,236,158232,1,2
152,232,158529,5,4
236,220,158826,1,0
316,244,159123,2,0,B|344:292|328:344,2,105,8|0|2
396,220,160312,1,8
396,220,160609,1,2
364,144,160906,6,0,B|368:104|352:76,1,70
324,68,161351,1,0
296,72,161500,1,8
288,156,161797,1,2
216,112,162094,2,0,B|172:112,4,35,0|0|0|0|8
216,196,162985,1,2
256,192,163282,12,4,165658
224,204,166252,6,0,B|296:204|376:180,1,140,8|0
416,120,167143,1,2
456,192,167440,1,8
344,316,168034,1,0
264,336,168331,1,2
184,308,168628,1,8
128,244,168925,1,0
140,160,169222,2,0,B|92:132|32:144,2,105,2|0|8
220,136,170411,6,0,B|256:136|288:108,2,70,0|0|8
228,220,171302,1,0
228,220,171450,1,0
228,220,171599,1,0
308,192,171896,1,0
392,204,172193,2,0,B|440:260|424:340,1,140,8|0
344,312,173084,5,0
344,312,173232,1,0
344,312,173381,2,0,B|288:360|208:344,1,140,8|0
140,300,174272,1,0
88,236,174569,1,8
140,300,174866,1,0
164,220,175163,6,0,B|168:148,1,70,4|0
336,136,175757,2,0,B|332:208,1,70,8|0
252,184,176351,1,0
260,60,176648,1,0
260,60,176945,2,0,B|304:48|344:60,2,70,8|0|0
180,80,177836,1,0
180,80,178133,2,0,B|148:112|132:152,2,70,8|0|0
228,148,179024,1,0
196,224,179321,1,8
260,276,179619,1,0
300,204,179916,6,0,B|356:248|384:320,1,140,4|8
332,384,180807,1,0
300,308,181104,2,0,B|344:252|416:224,1,140,2|8
420,144,181995,5,0
352,92,182292,2,0,B|376:64|420:60,2,70,2|0|8
328,172,183183,1,0
248,148,183480,1,2
220,144,183628,1,0
196,156,183777,1,0
184,180,183925,1,0
184,208,184074,1,8
264,228,184371,1,0
264,228,184668,1,4
240,308,184965,5,0
156,312,185262,2,0,B|120:328|80:316,2,70,8|0|0
136,232,186153,1,0
136,232,186302,1,0
136,232,186450,2,0,B|96:227|68:197,2,70,8|0|0
148,148,187341,5,0
216,100,187638,1,8
300,104,187935,2,0,B|360:144,1,70
296,200,188529,2,0,B|327:264,1,70,0|8
412,260,189123,1,0
412,260,189272,1,0
412,260,189421,1,2
440,180,189718,1,0
408,100,190015,6,0,B|372:88|332:96,2,70,8|0|0
360,168,190906,1,0
360,168,191054,1,0
360,168,191203,2,0,B|326:174|290:162,2,70,8|0|0
360,252,192094,1,0
288,296,192391,1,8
204,296,192688,1,0
128,256,192985,1,0
100,176,193282,2,0,B|52:180,2,35,0|0|8
116,92,193876,1,0
188,136,194173,6,0,B|216:188|268:208,2,105,2|0|0
268,116,195361,1,8
352,132,195658,1,0
404,196,195955,2,0,B|408:236|388:272,1,70
316,304,196549,2,0,B|264:332|204:328,2,105,8|0|0
252,248,197737,1,0
252,248,197886,1,0
252,248,198034,1,0
172,228,198331,2,0,B|128:232,2,35,8|0|0
224,164,198925,5,0
324,64,199222,1,0
300,204,199520,1,8
240,76,199817,1,0
364,144,200114,1,0
380,228,200411,1,0
380,228,200559,1,0
380,228,200708,1,8
368,312,201005,1,0
284,312,201302,6,0,B|232:336|168:328,2,105,4|4|4
224,256,202490,1,4
224,256,202638,1,0
224,256,202787,1,0
224,256,202935,1,0
224,256,203084,1,2
132,116,203678,6,0,B|96:152|44:176,2,104.999996870756,2|0|2
212,144,205163,1,0
296,128,205460,1,0
360,284,206054,2,0,B|344:252|340:224,1,52.4999984353781,2|0
260,228,206648,2,0,B|276:260|280:288,1,52.4999984353781
204,316,207242,1,2
76,208,207836,6,0,B|60:152|100:108,1,104.999996870756,0|2
152,176,208727,1,0
232,144,209024,2,0,B|248:200|208:244,1,104.999996870756,0|2
209,241,209916,1,0
288,272,210213,2,0,B|344:256|400:256,1,104.999996870756,0|2
392,172,211104,2,0,B|404:160|424:160,2,26.2499992176891
324,120,211698,1,0
324,120,211995,2,0,B|316:68|328:32,2,78.7499976530672,2|0|0
248,200,213183,5,2
104,112,213777,1,0
180,152,214074,1,0
180,152,214222,1,0
180,152,214371,2,0,B|196:120|216:100,2,52.4999984353781,2|0|0
136,224,215262,1,0
200,276,215559,1,2
360,228,216153,5,0
440,200,216450,2,0,B|396:164,1,52.4999984353781,0|2
316,156,217044,2,0,B|352:112,1,52.4999984353781
368,32,217638,2,0,B|412:68,1,52.4999984353781,0|2
472,120,218232,1,0
472,120,218381,1,0
472,120,218529,1,0
400,272,219123,6,0,B|368:280|340:268,1,52.4999984353781,2|0
268,240,219718,1,0
184,224,220015,1,0
116,176,220312,1,2
96,156,220460,1,0
88,132,220609,1,0
96,104,220757,1,0
116,84,220906,1,0
188,128,221203,1,0
256,192,221500,12,4,222688
408,104,223282,6,0,B|408:176,1,70,8|0
400,256,223876,2,0,B|348:232|312:276|260:244,1,140,0|8
212,180,224767,1,0
212,180,224916,1,0
212,180,225064,1,0
132,208,225361,2,0,B|96:244,2,35,0|0|8
80,140,225955,1,0
124,68,226252,1,0
204,100,226549,1,0
280,140,226846,5,8
304,152,226995,1,0
332,156,227143,1,0
360,152,227292,1,0
384,140,227440,1,0
412,220,227737,1,2
328,236,228034,6,0,B|336:280|352:304,2,70,8|0|0
244,228,228925,1,2
172,184,229222,2,0,B|137:212|125:238,2,70,8|0|0
120,116,230114,1,2
120,116,230262,1,0
120,116,230411,1,8
192,76,230708,1,0
272,108,231005,2,0,B|332:104|368:60,2,105,2|0|2
300,188,232193,6,0,B|368:160|440:180,1,140,4|8
404,256,233084,1,0
404,256,233232,1,0
404,256,233381,1,0
332,296,233678,1,2
248,280,233975,1,8
248,280,234272,2,0,B|172:280,1,70
140,204,234866,5,2
140,204,235163,2,0,B|228:204,1,70,8|0
224,120,235757,1,0
308,120,236054,1,2
224,120,236351,1,8
140,120,236648,1,0
64,160,236945,6,0,B|44:188|36:224,1,70,0|2
120,224,237539,1,8
196,256,237836,1,0
220,244,237985,1,0
240,224,238133,1,0
288,156,238430,1,0
324,232,238727,2,0,B|404:248|448:172,1,140,8|0
412,100,239619,5,0
328,84,239916,1,8
360,160,240213,1,0
360,160,240361,1,0
360,160,240510,1,2
256,192,240658,12,0,241698
