osu file format v9

[General]
AudioFilename: Hatsune Miku no tomadoi.mp3
AudioLeadIn: 0
PreviewTime: 52072
Countdown: 1
SampleSet: Normal
StackLeniency: 0
Mode: 0
LetterboxInBreaks: 1

[Editor]
Bookmarks: 27072,60888
DistanceSpacing: 1.2
BeatDivisor: 4
GridSize: 4

[Metadata]
Title:Hatsune Miku no Tomadoi
Artist:Hatsune Miku
Creator:akarina
Version:Insane
Source:VOCALOID
Tags:neryu

[Difficulty]
HPDrainRate:7
CircleSize:4
OverallDifficulty:8
ApproachRate:9
SliderMultiplier:1.8
SliderTickRate:1

[Events]
//Background and Video events
0,0,"20091129_1536442.jpg"
//Break Periods
//Storyboard Layer 0 (Background)
//Storyboard Layer 1 (Fail)
//Storyboard Layer 2 (Pass)
//Storyboard Layer 3 (Foreground)
//Storyboard Sound Samples
//Background Colour Transformations
3,100,163,162,255

[TimingPoints]
6810,263.157894736842,4,1,1,70,1,0
11020,-100,4,1,1,50,0,0
11415,-100,4,1,1,60,0,0
11810,-100,4,1,1,70,0,0
18388,-100,4,1,1,70,0,0
22336,263.157894736842,4,1,1,70,1,0
25493,-100,4,2,1,70,0,0
26546,-100,4,2,0,80,0,0
26678,-100,4,1,1,70,0,0
34967,-100,4,2,0,70,0,0
35230,-100,4,1,0,70,0,0
35493,-100,4,2,1,70,0,0
37467,-100,4,1,1,70,0,0
38125,-100,4,2,1,70,0,0
42467,-100,4,1,1,70,0,0
43388,-100,4,1,1,60,0,1
51809,-100,4,2,0,95,0,0
52072,-100,4,2,1,70,0,0
56809,-100,4,1,1,70,0,0
59441,-100,4,1,1,50,0,0
60230,-100,4,1,1,70,0,1
61941,-100,4,2,1,70,0,1
63388,-100,4,1,1,70,0,1
64441,-100,4,1,1,70,0,1
65493,-100,4,1,1,70,0,1
67599,-100,4,1,1,70,0,1
68520,-100,4,2,1,70,0,1
88651,-100,4,1,1,70,0,1
89046,-100,4,1,1,70,0,0
89441,-200,4,2,0,70,0,0
90757,-200,4,1,0,70,0,0
91809,-200,4,2,0,70,0,0
93914,-100,4,1,1,70,0,0
98125,-100,4,1,1,5,0,0

[Colours]
Combo1 : 142,142,142
Combo2 : 0,128,255
Combo3 : 128,128,192
Combo4 : 0,128,128

[HitObjects]
272,64,6810,2,0,B|284:112|324:136,1,90,8|0
276,212,7073,1,8
276,212,7204,1,8
452,284,7467,1,0
452,284,7599,2,0,B|408:304|408:304|368:304|368:304|360:340|360:340|300:352,1,180,8|8
188,212,8125,6,0,B|284:212,1,90,4|0
224,352,8388,1,0
224,352,8520,2,0,B|136:352,1,90,8|0
76,260,8783,1,8
96,152,8915,1,8
188,212,9046,1,8
96,152,9178,1,0
192,100,9310,1,0
272,172,9441,6,0,B|348:240,1,90,2|0
339,232,9704,1,0
300,56,9836,2,0,B|372:124,1,90,2|0
365,117,10099,1,0
214,311,10231,6,0,B|149:250,1,90,2|0
148,249,10494,1,0
251,192,10625,2,0,B|184:132,1,90,2|0
183,131,10888,1,0
384,96,11020,5,2
396,112,11415,1,2
412,132,11810,2,0,B|472:200,1,90,10|0
488,220,12007,1,0
488,220,12073,1,0
432,312,12204,2,0,B|372:240,1,90,8|0
316,176,12467,1,0
300,68,12599,6,0,B|256:80|256:80|200:68,1,90,12|0
128,140,12862,1,8
212,212,12994,2,0,B|256:224|256:224|312:212,1,90,8|0
380,140,13257,1,0
336,292,13388,6,0,B|300:316|300:316|256:304|208:316|208:316|168:296,1,180,8|0
256,68,13915,2,0,B|256:132,2,45,8|0|0
256,252,14178,1,8
256,68,14310,2,0,B|256:16,2,45,8|0|0
156,156,14573,5,0
256,252,14704,1,8
356,160,14836,1,0
256,68,14967,1,8
256,160,15099,1,0
256,252,15231,6,0,B|248:247|248:247|188:299,1,90,12|0
116,216,15494,2,0,B|56:268|56:268|44:260,2,90,8|8|0
172,124,15888,1,8
257,251,16020,2,0,B|252:260|252:260|304:320,1,90,8|0
332,196,16283,1,0
484,196,16415,2,0,B|515:161|483:101|419:85|384:124,1,180,8|0
332,196,16810,2,0,B|296:236|232:220|200:160|236:120,2,180,8|0|0
412,316,17599,1,8
412,316,17862,1,8
412,316,18125,1,8
256,196,18388,6,0,B|168:272|168:272|112:272|112:272|112:288,1,180,12|8
57,205,18783,2,0,B|28:208|12:252|12:252|12:296|12:296|28:336|60:340,1,180,8|8
60,116,19178,1,0
140,160,19310,2,0,B|228:128|292:48,1,180,8|0
384,100,19704,2,0,B|296:132|232:212,1,180,8|0
296,336,20231,1,8
240,204,20494,6,0,B|168:144,1,90,8|0
88,80,20757,1,8
84,188,20888,2,0,B|153:245,1,90,8|0
176,332,21152,2,0,B|107:275,1,90,8|0
84,188,21415,1,8
188,140,21546,5,4
256,236,21678,1,0
328,140,21810,1,4
396,232,21941,6,0,B|412:256|412:256|408:292|408:292|428:308,2,90
396,232,22336,2,0,B|442:222|458:162|438:106|390:94,1,180,12|8
308,248,22730,2,0,B|284:300|308:352|360:372|404:344,1,180,8|8
396,232,23125,1,0
336,164,23257,2,0,B|248:148|164:80,1,180,8|0
84,144,23651,2,0,B|172:160|256:228,1,180,8|0
288,372,24178,1,8
176,280,24441,6,0,B|84:236,1,90,8|0
84,144,24704,1,8
184,184,24836,2,0,B|256:200|256:200|280:180,1,90,8|0
232,88,25099,2,0,B|304:104|304:104|328:84,1,90,8|0
420,68,25362,1,8
392,188,25493,6,0,B|364:224|352:272,1,90,4|0
244,352,25757,2,0,B|272:320|284:268,1,90,4|0
280,108,26020,2,0,B|240:192,1,90,4|0
88,264,26283,6,0,B|60:320,2,45
80,84,26546,1,4
80,84,26809,1,0
412,220,27072,6,0,B|324:296|324:296|260:296,1,180,0|8
256,148,27467,1,0
260,296,27599,2,0,B|172:356,1,90,8|0
136,252,27862,2,0,B|32:252,1,90,8|0
52,144,28125,1,8
184,40,28388,6,0,B|208:72|256:96|256:96|300:72|328:40,1,180,8|0
356,148,28783,1,0
256,188,28914,1,8
160,140,29046,1,0
184,244,29178,1,8
328,244,29309,1,0
156,244,29441,5,8
360,244,29572,1,0
256,344,29704,2,0,B|132:344|132:344|80:304,1,180,8|8
76,96,30230,1,8
256,216,30493,5,8
256,216,30625,1,0
256,216,30757,2,0,B|256:108,1,90,8|0
384,48,31020,1,8
384,48,31151,1,0
384,48,31283,2,0,B|384:152,1,90,8|0
384,248,31546,6,0,B|384:344,1,90
256,292,31809,2,0,B|256:380,2,90,8|0|8
256,184,32204,1,0
164,240,32335,1,0
256,184,32467,1,0
348,248,32599,1,8
312,88,32730,5,8
200,88,32862,2,0,B|152:56|152:56|92:64|72:144,1,180,8|8
256,184,33257,1,0
312,88,33388,2,0,B|360:56|360:56|420:64|440:144,1,180,8|0
384,240,33783,1,0
388,252,33849,1,0
392,264,33914,2,0,B|328:340,1,90
256,256,34178,5,8
168,336,34309,1,8
156,336,34375,1,0
144,336,34441,1,0
36,336,34572,1,0
104,188,34704,1,8
168,336,34836,1,0
256,256,34967,2,0,B|256:72,1,180,4|0
408,188,35493,5,2
256,28,35757,1,0
104,188,36020,1,2
256,356,36283,1,0
104,188,36546,1,8
408,188,36809,1,8
256,28,37072,6,0,B|272:92|272:92|240:132|240:132|256:192,1,180,8|0
168,280,37467,2,0,B|212:296|212:296|256:284,1,90,8|0
340,280,37730,2,0,B|296:296|296:296|252:284,1,90,8|0
256,192,37993,1,8
212,112,38125,6,0,B|116:112,1,90,2|0
300,112,38388,2,0,B|396:112,1,90,2|0
180,192,38651,2,0,B|88:192,1,90,2|0
332,192,38914,2,0,B|424:192,1,90,2|2
480,296,39178,6,0,B|444:268|392:292|392:292|344:268|308:290,1,180,8|0
264,348,39572,2,0,B|300:376|352:352|352:352|400:376|440:352,1,180,0|8
224,268,39967,1,0
224,268,40099,1,8
140,300,40230,2,0,B|92:280|104:228|104:228|88:172|132:148,1,180,2|8
300,88,40757,1,0
412,216,41020,6,0,B|448:248,2,45
332,172,41283,2,0,B|300:140|236:156|220:224|248:268,1,180,8|0
308,328,41678,1,8
244,264,41809,1,8
164,304,41941,1,8
164,204,42072,1,0
164,304,42204,2,0,B|127:337|67:321|43:261|71:217,1,180,8|2
92,132,42599,5,0
92,132,42730,1,2
92,132,42862,1,0
92,132,42993,2,0,B|24:52,2,90,2|0|2
200,120,43388,5,8
220,128,43454,1,0
244,132,43520,1,0
268,132,43585,1,0
288,128,43651,1,8
308,120,43717,1,0
328,108,43783,1,0
348,96,43849,1,0
368,88,43914,1,8
392,84,43980,1,0
416,88,44046,1,0
436,100,44112,1,0
452,116,44178,1,8
464,136,44243,1,0
464,160,44309,1,0
460,180,44375,1,0
448,200,44441,5,8
432,212,44507,1,0
412,220,44572,1,0
388,220,44638,1,0
364,216,44704,1,8
344,208,44770,1,0
324,200,44835,1,0
304,192,44901,1,0
284,188,44967,1,8
260,188,45033,1,0
236,188,45099,1,0
216,192,45164,1,0
196,200,45230,1,8
176,208,45296,1,0
156,220,45362,1,0
140,236,45428,1,0
128,256,45493,6,0,B|92:284|104:344,2,90,8|0|8
128,256,45888,1,0
40,160,46020,2,0,B|76:132|64:72,2,90,8|0|8
40,160,46414,1,0
159,105,46546,6,0,B|200:120|200:120|244:104,1,90,8|0
243,105,46809,2,0,B|284:120|284:120|328:104,1,90,8|0
160,180,47072,2,0,B|200:194|200:194|244:178,1,90,8|0
244,180,47335,2,0,B|284:194|284:194|328:178,1,90,8|0
368,280,47599,6,0,B|408:216,2,60,8|0|0
292,296,47862,2,0,B|292:368,2,60,8|0|0
220,296,48125,2,0,B|220:368,2,60,8|0|0
144,280,48388,2,0,B|104:216,2,60,8|0|0
164,232,48651,6,0,B|136:180,2,60,8|0|0
348,232,48914,2,0,B|376:180,2,60,8|0|0
200,180,49178,2,0,B|172:128,2,60,8|0|0
312,180,49441,2,0,B|340:128,2,60,8|0|0
136,176,49704,6,0,B|108:124,2,60,8|0|0
376,176,49967,2,0,B|404:124,2,60,8|0|0
164,232,50230,2,0,B|136:180,2,60,8|0|0
348,232,50493,2,0,B|376:180,2,60,8|0|0
256,192,50757,6,8,B|256:124,1,60,4|0
256,84,50932,1,0
256,84,51019,1,8
256,84,51107,1,0
256,84,51195,1,0
256,84,51283,1,8
256,84,51370,1,0
256,84,51458,1,0
256,84,51546,1,8
256,84,51633,1,0
256,84,51721,1,4
256,84,51809,1,4
396,240,52072,5,2
256,352,52335,1,2
116,240,52599,1,2
256,292,52862,2,0,B|256:192,2,90,2|0|2
400,104,53388,5,0
112,104,53651,1,2
256,32,53914,2,0,B|256:220,1,180,2|2
256,304,54309,1,2
256,304,54441,1,0
400,104,54704,5,2
412,212,54835,2,0,B|416:260|468:288,2,90
316,164,55230,2,0,B|236:204|236:204|152:160,1,180,2|2
4,260,55757,2,0,B|40:236|52:184,1,90,2|0
156,160,56020,2,0,B|120:184|108:236,1,90,2|0
140,316,56283,5,2
228,292,56414,1,0
276,368,56546,1,2
296,104,56809,5,8
412,240,57072,1,0
236,204,57335,1,8
100,56,57599,1,8
100,56,57862,1,8
236,136,58125,6,2,B|269:98|333:114|365:174|334:209,1,180,2|8
424,272,58520,1,0
335,328,58651,2,0,B|302:365|238:349|206:289|236:254,2,180,2|0|2
360,188,59309,1,6
268,140,59441,6,0,B|228:180,3,45,8|0|8|0
192,140,59704,2,0,B|144:160,3,45,8|0|8|0
120,112,59967,2,0,B|76:112,3,45,8|0|8|0
48,136,60230,6,0,B|0:128|-28:172|-40:232|4:268,1,180,4|8
88,384,60757,2,0,B|136:392|164:348|176:288|132:252,1,180,8|8
256,88,61283,2,0,B|348:172|348:172|400:144,1,180,8|8
468,92,61678,1,0
392,248,61941,5,2
432,348,62072,1,0
328,316,62204,1,0
308,212,62335,2,0,B|304:164|336:124,1,90,2|0
224,148,62599,1,8
156,232,62730,2,0,B|160:280|128:320,2,90,0|0|8
132,128,63125,1,10
132,128,63257,1,0
232,92,63388,6,2,B|292:108|292:108|324:132|324:132|392:92,1,180,2|10
440,292,63783,1,0
364,224,63914,2,0,B|308:252|308:252|272:304|272:304|212:316,1,180,2|0
196,320,64243,1,0
172,324,64309,1,0
64,340,64441,5,8
144,180,64704,1,0
28,320,64967,1,8
104,156,65230,1,8
332,84,65493,6,0,B|408:140,1,90,2|0
404,248,65757,1,2
300,224,65888,2,0,B|284:272|228:292,1,90,2|8
164,208,66151,1,2
244,136,66283,1,0
136,136,66414,1,2
56,296,66546,2,0,B|88:304|88:304|108:328|108:328|240:328,1,180,10|10
300,224,66941,6,0,B|196:224,1,90,2|8
48,136,67204,2,0,B|144:136,1,90,2|10
244,136,67467,1,8
400,64,67599,5,6
400,64,67730,2,0,B|400:160,1,90,2|0
396,264,67993,1,6
396,264,68257,1,6
84,256,68520,5,0
124,156,68651,2,0,B|172:156|212:200,1,90,4|0
256,100,68914,2,0,B|292:136|340:140,1,90,2|0
388,236,69178,2,0,B|456:316,2,90,2|0|2
188,188,69704,5,8
260,292,69835,1,0
140,248,69967,1,8
260,212,70099,2,0,B|300:192|320:144,1,90,0|2
380,56,70362,1,2
448,136,70493,1,0
384,224,70625,1,2
456,304,70757,6,0,B|376:336|376:336|284:304,1,180,0|8
132,216,71151,2,0,B|248:216,1,90,0|8
340,148,71414,2,0,B|248:148,1,90,0|2
132,76,71678,2,0,B|320:76,1,180,8|0
420,76,72072,1,8
364,256,72335,6,0,B|388:296|444:312,2,90,8|0|0
256,112,72862,2,0,B|176:148|176:148|208:236,1,180,8|0
80,348,73388,2,8,B|160:312|160:312|128:224,1,180
76,84,73914,1,2
76,84,74178,1,2
256,84,74441,1,0
132,232,74704,6,0,B|212:276,1,90,8|0
268,204,74967,2,0,B|372:204,1,90,8|0
444,180,75230,1,8
488,260,75362,1,0
444,340,75493,1,8
356,312,75625,2,0,B|264:360,1,90,8|0
192,316,75888,1,8
88,232,76020,6,0,B|144:208|144:208|172:160|172:160|240:144,1,180
408,80,76546,1,8
380,256,76809,1,0
244,140,77072,2,0,B|228:184|176:208|116:208|92:168,1,180,8|0
268,244,77599,2,0,B|284:200|336:176|396:176|420:216,2,180,8|8|8
268,244,78388,1,0
104,324,78651,5,8
56,152,78914,1,8
236,168,79178,2,0,B|268:144|268:144|320:140|320:140|352:100|352:100|387:92,1,180,8|8
472,124,79572,1,0
264,308,79967,5,2
264,308,80099,2,0,B|180:364,1,90,12|0
136,148,80493,1,8
188,356,80757,1,8
48,192,81020,1,8
308,120,81283,6,0,B|352:128|404:100,2,90,2|0|0
208,76,81678,2,0,B|160:124|160:124|108:112|108:112|56:148,1,180,8|0
112,244,82072,2,0,B|156:260|176:312,1,90,8|0
280,304,82335,2,0,B|236:288|216:236,1,90,8|0
276,148,82599,1,8
276,148,82730,1,8
424,300,83125,5,8
424,300,83388,2,0,B|456:116,1,180,8|0
380,44,83783,2,0,B|360:140,1,90
340,236,84046,1,8
240,192,84178,1,0
236,300,84309,2,0,B|148:348,1,90,0|8
40,160,84704,1,8
236,300,84967,5,2
236,300,85099,2,0,B|280:308|324:276|328:208|292:172,1,180
224,92,85493,6,0,B|172:92|132:56,1,90,2|0
128,152,85757,2,0,B|76:152|44:196,1,90,2|0
48,280,86020,1,0
48,280,86151,1,0
48,280,86283,1,2
136,268,86414,2,0,B|180:288|192:348,1,90,0|2
284,328,86678,1,0
368,296,86809,5,2
376,208,86941,1,0
308,152,87072,1,2
224,184,87204,1,0
212,272,87335,1,2
284,328,87467,1,0
368,296,87599,6,0,B|416:300|444:348,1,90,2|0
448,252,87862,2,0,B|400:248|372:200,1,90,2|0
300,156,88125,6,0,B|348:160|376:208,1,90,2|0
380,112,88388,2,0,B|332:108|304:60,1,90,2|0
236,12,88651,1,8
236,12,88783,1,8
236,12,88914,1,8
236,12,89046,1,8
164,268,89441,5,2
244,308,89704,2,0,B|308:340|376:304,1,135,2|0
416,112,90493,1,2
416,112,90757,2,0,B|320:152|320:152|288:96|288:96|188:164|116:88,1,360,0|2
160,296,93914,6,0,B|196:344,4,45
256,192,94704,12,0,98125
