osu file format v12

[General]
AudioFilename: HATSUNE Miku no Tomadoi_MMD3DPV.mp3
AudioLeadIn: 0
PreviewTime: 45000
Countdown: 0
SampleSet: Normal
StackLeniency: 0.7
Mode: 0
LetterboxInBreaks: 0
WidescreenStoryboard: 0

[Editor]
DistanceSpacing: 1
BeatDivisor: 4
GridSize: 16

[Metadata]
Title:Hatsune Miku no Tomadoi
TitleUnicode:Hatsune Miku no Tomadoi
Artist:Hatsune Miku
ArtistUnicode:Hatsune Miku
Creator:YamatoAkira
Version:Normal
Source:
Tags:Vocaloid Hatsune Miku
BeatmapID:321089
BeatmapSetID:126356

[Difficulty]
HPDrainRate:3
CircleSize:3
OverallDifficulty:4
ApproachRate:4
SliderMultiplier:1.3
SliderTickRate:1

[Events]
//Background and Video events
0,0,"Anime-Various-HatsuneMiku-02-23-12-.jpg",0,0
//Break Periods
2,16701,19027
2,20547,27375
2,90200,94288
//Storyboard Layer 0 (Background)
//Storyboard Layer 1 (Fail)
//Storyboard Layer 2 (Pass)
//Storyboard Layer 3 (Foreground)
//Storyboard Sound Samples
//Background Colour Transformations
3,100,163,162,255

[TimingPoints]
2111,263.157894736842,4,1,0,75,1,0
45000,-100,4,1,0,75,0,1
53586,-100,4,1,0,75,0,0
95478,-100,4,1,0,75,0,1
103850,-100,4,1,0,75,0,0

[Colours]
Combo1 : 50,61,190
Combo2 : 0,255,255
Combo3 : 18,124,255
Combo4 : 0,255,0
Combo5 : 51,174,129

[HitObjects]
240,304,2217,1,8,0:0:0:0:
368,240,3782,1,0,0:0:0:0:
368,128,4565,1,0,0:0:0:0:
320,272,8478,6,0,P|256:208|416:96,1,325
112,176,9782,2,0,P|176:64|272:32,1,227.5
288,112,11086,1,0,0:0:0:0:
352,208,11478,1,0,0:0:0:0:
336,320,11869,1,0,0:0:0:0:
240,320,12260,1,0,0:0:0:0:
144,272,12652,1,0,0:0:0:0:
192,224,14217,5,0,0:0:0:0:
336,144,15130,1,0,0:0:0:0:
336,256,15782,1,0,0:0:0:0:
288,320,16173,2,0,P|192:304|160:224,1,162.5
320,160,20347,5,0,0:0:0:0:
208,192,28695,5,0,0:0:0:0:
272,288,29217,1,0,0:0:0:0:
352,224,29739,1,0,0:0:0:0:
448,208,30130,2,0,P|432:128|352:80,1,162.5
224,112,31304,1,0,0:0:0:0:
112,240,32086,5,0,0:0:0:0:
224,304,32478,1,0,0:0:0:0:
320,272,32869,2,0,P|400:336|464:288,1,195
144,160,34304,5,0,0:0:0:0:
240,256,34826,1,0,0:0:0:0:
352,240,35217,2,0,P|416:176|416:96,1,162.5
320,160,37173,5,0,0:0:0:0:
208,80,37434,1,0,0:0:0:0:
144,208,37763,1,0,0:0:0:0:
48,112,38092,1,0,0:0:0:0:
80,336,38421,1,0,0:0:0:0:
256,224,38815,1,0,0:0:0:0:
16,240,39210,1,0,0:0:0:0:
96,304,39521,2,0,L|192:336,1,97.5
192,208,40826,5,0,0:0:0:0:
208,80,41478,1,0,0:0:0:0:
304,80,41869,1,0,0:0:0:0:
80,192,42913,5,0,0:0:0:0:
112,288,43565,2,0,L|224:224,1,97.5
288,304,45130,5,0,0:0:0:0:
288,192,45521,1,0,0:0:0:0:
288,80,45913,1,0,0:0:0:0:
160,64,46304,1,0,0:0:0:0:
144,192,46695,1,0,0:0:0:0:
160,304,47086,1,0,0:0:0:0:
240,224,47478,1,0,0:0:0:0:
320,144,47869,1,0,0:0:0:0:
400,64,48260,1,0,0:0:0:0:
416,192,48652,1,0,0:0:0:0:
432,320,49043,1,0,0:0:0:0:
272,288,49434,1,0,0:0:0:0:
176,208,49826,5,0,0:0:0:0:
144,112,50217,1,0,0:0:0:0:
240,64,50608,1,0,0:0:0:0:
352,112,51000,1,0,0:0:0:0:
240,64,51521,1,0,0:0:0:0:
272,160,51913,1,0,0:0:0:0:
320,256,52565,1,0,0:0:0:0:
224,304,52956,1,0,0:0:0:0:
128,224,53347,1,0,0:0:0:0:
128,128,53739,5,0,0:0:0:0:
224,128,54000,1,0,0:0:0:0:
320,128,54260,1,0,0:0:0:0:
416,128,54521,1,0,0:0:0:0:
320,288,55043,5,0,0:0:0:0:
208,304,55565,2,0,P|96:240|80:240,1,150
112,336,56608,1,0,0:0:0:0:
112,208,57000,5,0,0:0:0:0:
192,192,57260,1,0,0:0:0:0:
288,192,57521,2,0,P|352:176|384:192,1,90
336,80,58565,5,0,0:0:0:0:
224,80,58826,1,0,0:0:0:0:
128,96,59086,1,0,0:0:0:0:
96,192,59347,1,0,0:0:0:0:
192,176,59739,2,0,B|288:208|272:240|192:320|160:304,1,210
144,240,61043,5,0,0:0:0:0:
112,160,61826,5,0,0:0:0:0:
224,160,62217,1,0,0:0:0:0:
336,160,62608,1,0,0:0:0:0:
448,160,63000,1,0,0:0:0:0:
432,256,63391,2,0,P|384:304|352:304,1,90
288,320,64043,1,0,0:0:0:0:
224,304,64304,1,0,0:0:0:0:
112,224,64826,5,0,0:0:0:0:
176,144,65217,1,0,0:0:0:0:
288,144,65608,1,0,0:0:0:0:
288,256,66130,5,0,0:0:0:0:
384,256,66521,1,0,0:0:0:0:
384,336,66913,1,0,0:0:0:0:
288,336,67173,1,0,0:0:0:0:
208,288,67695,1,0,0:0:0:0:
176,192,68086,2,0,P|192:112|192:96,1,90
288,80,68869,5,0,0:0:0:0:
320,176,69260,1,0,0:0:0:0:
368,256,69782,1,0,0:0:0:0:
224,272,70304,5,0,0:0:0:0:
128,272,70695,1,0,0:0:0:0:
128,176,71217,1,0,0:0:0:0:
128,176,71478,1,0,0:0:0:0:
128,176,71739,1,0,0:0:0:0:
256,128,72130,1,0,0:0:0:0:
256,240,72782,1,0,0:0:0:0:
336,304,73173,1,0,0:0:0:0:
384,208,73565,1,0,0:0:0:0:
384,96,74086,5,0,0:0:0:0:
288,80,74478,1,0,0:0:0:0:
160,96,75000,1,0,0:0:0:0:
112,192,75521,1,0,0:0:0:0:
176,272,76434,5,0,0:0:0:0:
240,224,76695,1,0,0:0:0:0:
320,272,76956,1,0,0:0:0:0:
400,224,77217,1,0,0:0:0:0:
432,288,77608,1,0,0:0:0:0:
432,128,78260,5,0,0:0:0:0:
352,176,78521,1,0,0:0:0:0:
272,192,78782,1,0,0:0:0:0:
192,192,79304,1,0,0:0:0:0:
128,96,80478,1,0,0:0:0:0:
128,96,80739,1,0,0:0:0:0:
240,96,81260,1,0,0:0:0:0:
336,96,81652,2,0,L|336:208,1,90
336,272,82434,1,0,0:0:0:0:
208,272,82956,1,0,0:0:0:0:
208,160,83347,1,0,0:0:0:0:
208,48,83869,1,0,0:0:0:0:
352,48,84391,1,0,0:0:0:0:
352,160,84913,1,0,0:0:0:0:
352,256,85173,5,0,0:0:0:0:
256,256,85565,1,0,0:0:0:0:
160,256,85826,2,0,L|160:144,1,90
256,192,87130,5,0,0:0:0:0:
192,128,87913,1,0,0:0:0:0:
256,128,88304,1,0,0:0:0:0:
336,128,88826,1,0,0:0:0:0:
352,240,89478,1,0,0:0:0:0:
240,256,90000,1,0,0:0:0:0:
208,224,95608,5,0,0:0:0:0:
208,144,96000,1,0,0:0:0:0:
288,144,96260,1,0,0:0:0:0:
384,144,96652,1,0,0:0:0:0:
384,240,97043,1,0,0:0:0:0:
384,336,97565,1,0,0:0:0:0:
272,336,98086,1,0,0:0:0:0:
160,336,98478,1,0,0:0:0:0:
80,256,99000,1,0,0:0:0:0:
80,144,99391,1,0,0:0:0:0:
176,112,99782,6,0,L|288:80,1,90
288,96,100565,2,0,L|352:160,1,90
400,208,101347,1,0,0:0:0:0:
400,304,101608,1,0,0:0:0:0:
288,304,102000,1,0,0:0:0:0:
192,256,102391,1,0,0:0:0:0:
176,160,102913,1,0,0:0:0:0:
80,128,103304,1,0,0:0:0:0:
0,224,103695,1,0,0:0:0:0:
80,272,104086,6,0,B|112:224|112:224|128:288|128:288|176:208,1,210
208,288,105652,1,0,0:0:0:0:
304,272,106173,2,0,B|336:304|336:304|368:224|368:224|432:288,1,210
416,224,107739,2,0,L|416:96,1,120
320,80,108652,1,0,0:0:0:0:
208,80,109043,1,0,0:0:0:0:
96,80,109434,1,0,0:0:0:0:
32,176,109956,1,0,0:0:0:0:
96,256,110478,1,0,0:0:0:0:
192,288,110869,6,0,L|336:288,1,120
400,288,111782,1,0,0:0:0:0:
384,192,112043,1,0,0:0:0:0:
288,160,112434,1,0,0:0:0:0:
176,128,112956,1,0,0:0:0:0:
64,208,113478,1,0,0:0:0:0:
192,256,114000,5,0,0:0:0:0:
320,256,114652,1,0,0:0:0:0:
400,144,116086,1,0,0:0:0:0:
288,80,116739,1,0,0:0:0:0:
160,80,117391,1,0,0:0:0:0:
64,160,117913,1,0,0:0:0:0:
0,224,118304,1,0,0:0:0:0:
48,336,118826,1,0,0:0:0:0:
160,272,119217,1,0,0:0:0:0:
304,240,120000,5,0,0:0:0:0:
304,144,120391,1,0,0:0:0:0:
256,192,121304,12,0,123130,0:0:0:0:
