osu file format v12

[General]
AudioFilename: HATSUNE Miku no Tomadoi_MMD3DPV.mp3
AudioLeadIn: 0
PreviewTime: 45000
Countdown: 0
SampleSet: Normal
StackLeniency: 0.7
Mode: 0
LetterboxInBreaks: 0
WidescreenStoryboard: 1

[Editor]
DistanceSpacing: 1
BeatDivisor: 4
GridSize: 16

[Metadata]
Title:Hatsune Miku no Tomadoi
TitleUnicode:Hatsune Miku no Tomadoi
Artist:Hatsune Miku
ArtistUnicode:Hatsune Miku
Creator:YamatoAkira
Version:Insane
Source:
Tags:Vocaloid Hatsune Miku
BeatmapID:321088
BeatmapSetID:126356

[Difficulty]
HPDrainRate:7
CircleSize:4
OverallDifficulty:8
ApproachRate:9
SliderMultiplier:1.7
SliderTickRate:3

[Events]
//Background and Video events
0,0,"hatsune-miku-wallpaper-20.jpg",0,0
//Break Periods
2,5417,7747
//Storyboard Layer 0 (Background)
//Storyboard Layer 1 (Fail)
//Storyboard Layer 2 (Pass)
//Storyboard Layer 3 (Foreground)
//Storyboard Sound Samples
//Background Colour Transformations
3,100,0,0,0

[TimingPoints]
2111,263.157894736842,4,1,0,75,1,0
45000,-100,4,1,0,75,0,1
53586,-100,4,1,0,75,0,0
95478,-100,4,1,0,75,0,1
103850,-100,4,1,0,75,0,0

[Colours]
Combo1 : 50,61,190
Combo2 : 0,255,255
Combo3 : 18,124,255
Combo4 : 0,255,0
Combo5 : 192,192,192

[HitObjects]
256,192,2086,1,2,0:0:0:0:
16,336,3782,1,8,0:0:0:0:
63,336,3912,1,8,0:0:0:0:
110,336,4042,1,8,0:0:0:0:
157,336,4173,1,8,0:0:0:0:
496,80,4565,1,0,0:0:0:0:
448,48,4695,1,0,0:0:0:0:
400,80,4825,1,0,0:0:0:0:
352,48,4956,1,0,0:0:0:0:
304,80,5086,1,0,0:0:0:0:
256,48,5217,1,0,0:0:0:0:
432,32,8347,6,0,P|384:112|448:192,1,170
208,352,9652,2,0,P|112:304|144:176,1,255
240,32,11086,1,0,0:0:0:0:
112,288,11478,1,0,0:0:0:0:
240,32,11869,1,0,0:0:0:0:
384,288,12260,1,0,0:0:0:0:
464,64,12652,2,0,B|528:160|528:160|496:240,1,170
336,320,13304,2,0,P|176:368|128:336,1,212.5
80,288,14217,6,0,L|16:192,3,85
64,64,15065,2,0,P|176:112|352:32,1,297.5
176,144,16118,2,0,L|333:154,2,127.5
432,48,16907,2,0,P|384:128|432:256,2,212.5
512,288,18026,2,0,P|448:272|240:352,1,297.5
288,208,19276,2,0,P|384:272|384:336,1,170
48,160,19956,2,0,P|96:32|192:16,1,212.5
368,144,20739,1,0,0:0:0:0:
192,288,21144,1,0,0:0:0:0:
80,256,21513,2,0,P|32:144|96:64,1,212.5
304,32,22434,6,0,P|400:96|480:96,1,170
464,16,23086,1,0,0:0:0:0:
384,192,23347,2,0,B|320:320|320:320|192:288,1,255
64,192,24130,1,4,0:0:0:0:
256,32,24652,1,0,0:0:0:0:
464,112,25043,1,0,0:0:0:0:
256,224,25434,2,0,L|160:384,1,170
64,176,26217,1,0,0:0:0:0:
224,32,26739,1,0,0:0:0:0:
480,96,27130,6,0,B|528:144|528:144|432:64|432:64|512:176|512:176|416:112|416:112|432:192,1,510
320,320,28695,1,0,0:0:0:0:
80,320,29217,1,0,0:0:0:0:
80,48,29739,1,0,0:0:0:0:
320,48,30000,1,0,0:0:0:0:
304,336,30391,2,0,B|256:384|256:384|128:256,1,212.5
48,96,31304,1,0,0:0:0:0:
496,128,32086,5,0,0:0:0:0:
384,240,32347,1,0,0:0:0:0:
272,128,32478,1,0,0:0:0:0:
176,256,32739,1,0,0:0:0:0:
48,144,33000,2,0,B|80:80|80:64|240:0,1,212.5
320,96,34173,5,0,0:0:0:0:
448,192,34304,1,0,0:0:0:0:
224,208,34565,1,0,0:0:0:0:
336,288,34695,1,0,0:0:0:0:
160,320,34956,1,0,0:0:0:0:
160,224,35086,2,0,B|96:160|96:112|-16:80,1,212.5
240,64,37173,5,0,0:0:0:0:
400,256,37434,1,0,0:0:0:0:
144,144,37695,1,0,0:0:0:0:
352,144,37956,1,0,0:0:0:0:
128,272,38217,1,0,0:0:0:0:
208,352,38478,1,0,0:0:0:0:
480,144,38739,1,0,0:0:0:0:
64,64,39000,1,0,0:0:0:0:
96,208,39260,1,0,0:0:0:0:
96,352,39521,1,0,0:0:0:0:
384,80,39782,1,0,0:0:0:0:
192,32,40565,5,0,0:0:0:0:
320,112,40826,1,0,0:0:0:0:
128,160,41086,1,0,0:0:0:0:
464,192,41478,1,0,0:0:0:0:
80,288,41869,1,0,0:0:0:0:
240,368,42652,5,0,0:0:0:0:
240,32,43043,1,0,0:0:0:0:
80,208,43304,1,0,0:0:0:0:
416,96,43565,2,0,B|400:160|400:160|448:240|448:256|512:288,1,212.5
240,336,45000,6,0,L|304:272,1,85
336,224,45260,2,0,L|336:128,1,85
416,176,45521,2,0,L|416:80,1,85
496,96,45782,2,0,L|496:16,1,42.5
432,112,46043,2,0,L|400:32,1,85
336,112,46304,2,0,L|272:48,1,85
288,160,46565,2,0,L|192:144,1,85
240,224,46826,2,0,L|160:224,1,42.5
144,272,47086,2,0,L|96:224,1,42.5
48,272,47347,2,0,L|32:208,1,42.5
48,128,47608,5,0,0:0:0:0:
98,114,47738,1,0,0:0:0:0:
96,48,47868,1,0,0:0:0:0:
160,48,47999,1,0,0:0:0:0:
224,80,48129,1,0,0:0:0:0:
288,64,48260,1,0,0:0:0:0:
256,128,48390,1,0,0:0:0:0:
320,160,48521,6,0,L|368:96,1,42.5
320,160,48782,2,0,L|400:160,1,42.5
384,208,49043,2,0,L|448:208,1,42.5
448,272,49304,2,0,L|528:288,1,42.5
384,320,49565,2,0,L|400:384,1,42.5
304,288,49826,2,0,L|240:304,1,42.5
384,224,50086,2,0,L|384:160,1,42.5
320,224,50347,5,0,0:0:0:0:
288,176,50477,1,0,0:0:0:0:
224,192,50607,1,0,0:0:0:0:
208,144,50738,1,0,0:0:0:0:
144,128,50868,1,0,0:0:0:0:
176,80,50999,1,0,0:0:0:0:
224,48,51130,5,0,0:0:0:0:
197,137,51260,1,0,0:0:0:0:
274,113,51391,1,0,0:0:0:0:
332,168,51521,1,0,0:0:0:0:
314,246,51652,1,0,0:0:0:0:
237,270,51782,1,0,0:0:0:0:
179,215,51913,1,0,0:0:0:0:
128,176,52043,2,0,L|32:176,1,85
64,80,52304,2,0,L|0:80,1,42.5
0,192,52565,6,0,L|0:272,1,42.5
32,320,52826,2,0,L|112:352,1,85
144,288,53086,2,0,L|224:272,1,42.5
256,368,53347,2,0,L|320:384,1,42.5
304,208,53739,5,0,0:0:0:0:
304,208,54130,1,0,0:0:0:0:
304,208,54391,1,0,0:0:0:0:
304,208,54652,2,0,L|352:144,1,42.5
416,112,55043,1,0,0:0:0:0:
288,16,55304,1,0,0:0:0:0:
48,112,55565,1,0,0:0:0:0:
0,256,55826,1,0,0:0:0:0:
160,304,55956,2,0,B|224:368|224:368|272:368,1,127.5
416,288,56478,5,0,0:0:0:0:
512,64,57000,2,0,B|416:80|416:80|304:32,1,212.5
128,48,57652,1,0,0:0:0:0:
32,192,58565,5,0,0:0:0:0:
160,320,58695,1,0,0:0:0:0:
160,64,58956,1,0,0:0:0:0:
288,192,59217,1,0,0:0:0:0:
464,192,59608,1,0,0:0:0:0:
464,32,59869,1,0,0:0:0:0:
64,32,60391,1,0,0:0:0:0:
288,32,60782,2,0,P|176:96|176:128,1,170
64,64,61956,5,0,0:0:0:0:
208,224,62217,1,0,0:0:0:0:
256,32,62478,1,0,0:0:0:0:
32,288,62739,1,0,0:0:0:0:
160,112,63000,2,0,L|368:96,1,170
464,64,63652,5,0,0:0:0:0:
160,336,64173,1,0,0:0:0:0:
304,208,64304,1,0,0:0:0:0:
16,192,64695,2,0,P|112:128|112:16,1,212.5
16,80,65478,1,0,0:0:0:0:
160,192,65608,1,0,0:0:0:0:
464,304,66130,5,0,0:0:0:0:
320,96,66391,1,0,0:0:0:0:
320,320,66652,1,0,0:0:0:0:
320,96,66913,1,0,0:0:0:0:
160,304,67173,1,0,0:0:0:0:
112,32,67434,2,0,L|64:144|64:144,1,85
0,240,67826,5,0,0:0:0:0:
64,336,67956,1,0,0:0:0:0:
96,192,68217,1,0,0:0:0:0:
160,288,68608,1,0,0:0:0:0:
288,240,68869,1,0,0:0:0:0:
416,272,69130,1,0,0:0:0:0:
496,96,69391,2,0,P|400:64|400:0,1,170
224,16,70173,5,0,0:0:0:0:
0,192,70565,1,0,0:0:0:0:
224,352,70826,1,0,0:0:0:0:
432,304,71086,1,0,0:0:0:0:
512,176,71347,2,0,P|416:128|416:16,1,212.5
32,160,72130,5,0,0:0:0:0:
80,256,72260,1,0,0:0:0:0:
144,96,72521,1,0,0:0:0:0:
224,192,72782,1,0,0:0:0:0:
192,288,73026,2,0,P|304:352|496:256,1,340
480,48,73956,5,0,0:0:0:0:
352,144,74217,1,0,0:0:0:0:
224,256,74478,1,0,0:0:0:0:
16,64,75130,1,0,0:0:0:0:
432,336,75782,1,0,0:0:0:0:
256,32,76304,5,0,0:0:0:0:
464,208,76695,1,0,0:0:0:0:
208,272,76956,1,0,0:0:0:0:
400,64,77217,1,0,0:0:0:0:
368,320,77347,1,0,0:0:0:0:
160,128,77608,1,0,0:0:0:0:
0,48,78260,6,0,B|-48:128|0:192|64:320,1,255
272,128,79304,2,0,P|256:208|320:272,1,170
464,272,80347,5,0,0:0:0:0:
240,272,80739,1,0,0:0:0:0:
464,48,81000,1,0,0:0:0:0:
240,48,81260,1,0,0:0:0:0:
368,368,81652,2,0,L|128:368,1,212.5
48,224,82434,5,0,0:0:0:0:
176,64,82695,1,0,0:0:0:0:
224,336,83086,2,0,P|272:240|352:256,1,170
464,192,83739,1,0,0:0:0:0:
176,176,84000,1,0,0:0:0:0:
320,64,84391,1,0,0:0:0:0:
320,320,84782,1,0,0:0:0:0:
320,192,85173,1,0,0:0:0:0:
160,96,85565,2,0,P|144:160|48:208,1,170
416,128,87176,5,0,0:0:0:0:
336,256,87505,1,0,0:0:0:0:
496,304,88032,1,0,0:0:0:0:
512,192,88360,1,0,0:0:0:0:
352,336,88887,1,0,0:0:0:0:
208,240,89217,1,0,0:0:0:0:
128,176,89473,2,0,L|128:64,2,85
224,128,90130,1,0,0:0:0:0:
464,288,90521,2,0,L|384:320,4,85,2|4|4|4|4,0:0|0:0|0:0|0:0|0:0,0:0:0:0:
272,176,91434,1,0,0:0:0:0:
48,288,91776,2,0,P|96:192|80:112,1,170
208,112,92347,1,0,0:0:0:0:
368,208,92608,2,0,P|384:96|448:80,1,172.5
352,320,93391,1,0,0:0:0:0:
160,288,93652,2,0,L|144:224,3,57.5
48,128,94304,1,0,0:0:0:0:
288,48,94695,1,0,0:0:0:0:
416,176,95086,5,4,0:0:0:0:
352,336,95608,5,0,0:0:0:0:
331,335,95673,1,0,0:0:0:0:
311,335,95738,1,0,0:0:0:0:
291,333,95803,1,0,0:0:0:0:
271,331,95868,1,0,0:0:0:0:
251,329,95934,1,0,0:0:0:0:
231,326,95999,1,0,0:0:0:0:
212,322,96064,1,0,0:0:0:0:
192,317,96129,1,0,0:0:0:0:
173,311,96194,1,0,0:0:0:0:
154,304,96260,1,0,0:0:0:0:
136,295,96325,1,0,0:0:0:0:
118,286,96390,1,0,0:0:0:0:
101,275,96455,1,0,0:0:0:0:
86,262,96521,1,0,0:0:0:0:
71,248,96586,1,0,0:0:0:0:
67,231,96651,1,0,0:0:0:0:
76,213,96716,1,0,0:0:0:0:
88,197,96781,1,0,0:0:0:0:
103,185,96847,1,0,0:0:0:0:
121,175,96912,1,0,0:0:0:0:
140,169,96977,1,0,0:0:0:0:
160,164,97042,1,0,0:0:0:0:
180,162,97108,1,0,0:0:0:0:
200,160,97173,1,0,0:0:0:0:
220,158,97238,1,0,0:0:0:0:
240,157,97303,1,0,0:0:0:0:
260,155,97368,1,0,0:0:0:0:
280,152,97434,1,0,0:0:0:0:
299,148,97499,1,0,0:0:0:0:
319,143,97564,1,0,0:0:0:0:
337,135,97629,1,0,0:0:0:0:
355,125,97694,1,0,0:0:0:0:
370,112,97760,1,0,0:0:0:0:
382,96,97825,1,0,0:0:0:0:
391,78,97890,1,0,0:0:0:0:
397,58,97955,1,0,0:0:0:0:
399,39,98021,1,0,0:0:0:0:
336,16,98217,6,0,P|288:48|272:48,1,57.5
128,96,98478,2,0,L|144:160,1,57.5
368,256,98739,2,0,L|416:224,1,57.5
256,208,99000,2,0,L|304:128,3,57.5
288,96,99413,5,0,0:0:0:0:
258,111,99478,1,0,0:0:0:0:
267,91,99544,1,0,0:0:0:0:
298,78,99610,1,0,0:0:0:0:
331,71,99676,1,0,0:0:0:0:
365,71,99741,1,0,0:0:0:0:
399,78,99807,1,0,0:0:0:0:
427,96,99873,1,0,0:0:0:0:
439,127,99939,1,0,0:0:0:0:
432,160,100005,1,0,0:0:0:0:
412,187,100070,1,0,0:0:0:0:
381,196,100136,1,0,0:0:0:0:
362,170,100202,1,0,0:0:0:0:
360,136,100268,1,0,0:0:0:0:
448,144,100304,5,0,0:0:0:0:
453,174,100390,1,0,0:0:0:0:
458,204,100477,1,0,0:0:0:0:
463,234,100564,1,0,0:0:0:0:
449,260,100651,1,0,0:0:0:0:
431,285,100738,1,0,0:0:0:0:
413,310,100825,1,0,0:0:0:0:
395,335,100912,1,0,0:0:0:0:
432,288,100956,5,0,0:0:0:0:
411,304,101086,1,0,0:0:0:0:
390,320,101216,1,0,0:0:0:0:
370,337,101347,1,0,0:0:0:0:
349,351,101477,1,0,0:0:0:0:
324,342,101608,1,0,0:0:0:0:
300,330,101738,1,0,0:0:0:0:
278,316,101869,1,0,0:0:0:0:
259,298,101999,1,0,0:0:0:0:
256,272,102129,1,0,0:0:0:0:
224,272,102260,1,0,0:0:0:0:
216,232,102390,1,0,0:0:0:0:
208,207,102521,1,0,0:0:0:0:
201,181,102651,1,0,0:0:0:0:
196,156,102782,1,0,0:0:0:0:
192,129,102912,1,0,0:0:0:0:
189,103,103042,1,0,0:0:0:0:
176,48,103173,5,0,0:0:0:0:
198,59,103238,1,0,0:0:0:0:
221,58,103303,1,0,0:0:0:0:
244,62,103368,1,0,0:0:0:0:
264,72,103433,1,0,0:0:0:0:
288,96,103499,1,0,0:0:0:0:
256,112,103564,1,0,0:0:0:0:
272,144,103629,1,0,0:0:0:0:
252,155,103694,1,0,0:0:0:0:
236,172,103759,1,0,0:0:0:0:
219,187,103825,1,0,0:0:0:0:
201,202,103890,1,0,0:0:0:0:
48,224,104086,6,0,L|80:320,3,57.5
304,336,104739,2,0,L|496:256,1,172.5
32,32,105521,1,0,0:0:0:0:
416,288,105913,1,0,0:0:0:0:
176,272,106173,2,0,P|176:336|208:336,4,57.5
304,256,106847,2,0,P|336:208|320:176,4,57.5
224,80,107739,5,0,0:0:0:0:
80,192,108000,1,0,0:0:0:0:
176,320,108260,2,0,P|256:368|320:352,1,115
368,320,108782,1,0,0:0:0:0:
448,96,109043,1,4,0:0:0:0:
240,80,109304,6,0,L|160:176,1,115
400,256,109956,1,0,0:0:0:0:
80,80,110347,1,0,0:0:0:0:
160,272,110608,1,0,0:0:0:0:
320,352,111000,1,0,0:0:0:0:
224,224,111391,2,0,P|272:176|400:208,1,212.5
320,48,112173,2,0,P|256:112|160:64,1,212.5
32,192,112956,2,0,P|96:224|96:304,1,127.5
288,352,113608,2,0,P|336:272|368:288,1,115
320,160,114130,5,0,0:0:0:0:
320,160,114260,1,0,0:0:0:0:
320,160,114391,2,0,L|352:64,1,57.5
352,32,114652,2,0,L|224:64,1,115
160,96,115043,2,0,P|80:160|96:192,1,149.499993156433
240,224,115434,2,0,P|288:304|272:352,1,149.499993156433
80,272,115826,2,0,L|16:208,1,74.7499965782167
48,80,116086,2,0,L|256:64,1,149.499993156433
320,32,116513,6,0,L|416:144,1,110.499994941712
464,224,117000,1,0,0:0:0:0:
272,336,117391,1,0,0:0:0:0:
64,288,117782,1,0,0:0:0:0:
32,96,118173,1,0,0:0:0:0:
160,32,118565,1,0,0:0:0:0:
400,64,119086,2,0,P|416:144|512:224,1,165.749992412567
480,32,119739,1,0,0:0:0:0:
512,256,120000,1,0,0:0:0:0:
496,144,120260,2,0,P|416:160|0:112,1,497.249977237702
256,192,121173,12,0,123157,0:0:0:0:
