osu file format v12

[General]
AudioFilename: HATSUNE Miku no Tomadoi_MMD3DPV.mp3
AudioLeadIn: 0
PreviewTime: 45000
Countdown: 0
SampleSet: Normal
StackLeniency: 0.7
Mode: 0
LetterboxInBreaks: 0
WidescreenStoryboard: 1

[Editor]
DistanceSpacing: 1
BeatDivisor: 4
GridSize: 16

[Metadata]
Title:Hatsune Miku no Tomadoi
TitleUnicode:Hatsune Miku no Tomadoi
Artist:Hatsune Miku
ArtistUnicode:Hatsune Miku
Creator:YamatoAkira
Version:Hard
Source:
Tags:Vocaloid Hatsune Miku
BeatmapID:321087
BeatmapSetID:126356

[Difficulty]
HPDrainRate:5
CircleSize:4
OverallDifficulty:6
ApproachRate:7
SliderMultiplier:1.7
SliderTickRate:1

[Events]
//Background and Video events
0,0,"hatsune_miku_koikeya_ribbons_skirt_snow_thighhighs_vocaloid_zettai_ryouiki_Wallpaper_glbmb.jpg",0,0
//Break Periods
2,5286,7578
2,91242,94708
//Storyboard Layer 0 (Background)
//Storyboard Layer 1 (Fail)
//Storyboard Layer 2 (Pass)
//Storyboard Layer 3 (Foreground)
//Storyboard Sound Samples
//Background Colour Transformations
3,100,0,0,0

[TimingPoints]
2111,263.157894736842,4,1,0,75,1,0
45000,-100,4,1,0,75,0,1
53586,-100,4,1,0,75,0,0
95478,-100,4,1,0,75,0,1
103850,-100,4,1,0,75,0,0

[Colours]
Combo1 : 50,61,190
Combo2 : 0,255,255
Combo3 : 18,124,255
Combo4 : 0,255,0
Combo5 : 192,192,192

[HitObjects]
160,144,2217,1,8,0:0:0:0:
160,256,3782,1,0,0:0:0:0:
224,256,4043,1,0,0:0:0:0:
288,256,4173,1,0,0:0:0:0:
384,176,4565,1,0,0:0:0:0:
320,176,4695,1,0,0:0:0:0:
272,176,4826,1,0,0:0:0:0:
192,176,5086,1,0,0:0:0:0:
368,64,8478,5,0,0:0:0:0:
96,256,9521,1,0,0:0:0:0:
224,64,11086,1,0,0:0:0:0:
304,272,11478,1,0,0:0:0:0:
112,128,12000,1,0,0:0:0:0:
336,128,12391,1,0,0:0:0:0:
160,256,12782,1,0,0:0:0:0:
224,160,13304,1,0,0:0:0:0:
144,288,14347,6,0,L|224:176,2,127.5
144,288,15000,2,0,L|288:288,2,127.5
144,288,15652,2,0,L|48:176,3,127.5
160,160,16513,2,0,L|416:144,1,255
144,336,17217,2,0,L|128:128,2,170
224,192,18000,2,0,L|368:208,1,127.5
160,80,18421,2,0,L|304:48,2,127.5
416,112,19434,2,0,L|512:208,2,127.5
208,224,19999,2,0,B|240:304|240:304|48:352,2,255
256,336,21052,2,0,B|368:272|384:192|272:144,1,255
384,128,21710,2,0,P|288:96|224:112,3,170
176,160,22828,2,0,P|112:256|192:304,1,212.5
224,272,24000,5,0,0:0:0:0:
304,144,24521,1,0,0:0:0:0:
416,32,24913,1,0,0:0:0:0:
512,160,25304,1,0,0:0:0:0:
480,320,25695,1,0,0:0:0:0:
288,288,26086,1,0,0:0:0:0:
144,256,26608,1,0,0:0:0:0:
64,208,27236,6,0,B|80:128|160:128|256:192|256:192|304:80|176:16,1,425
256,112,28695,1,0,0:0:0:0:
432,192,29217,1,0,0:0:0:0:
288,256,29739,1,0,0:0:0:0:
448,352,30000,1,0,0:0:0:0:
496,256,30391,1,0,0:0:0:0:
256,272,31173,1,0,0:0:0:0:
176,176,31434,1,0,0:0:0:0:
80,48,32217,5,0,0:0:0:0:
304,272,32478,1,0,0:0:0:0:
288,80,32739,1,0,0:0:0:0:
128,208,33000,2,0,B|80:256|80:256|112:336,1,127.5
512,64,34173,5,0,0:0:0:0:
512,256,34434,1,0,0:0:0:0:
336,112,34695,1,0,0:0:0:0:
320,336,34956,2,0,B|240:368|240:368|128:320,1,170
96,208,37173,5,0,0:0:0:0:
96,16,37434,1,0,0:0:0:0:
288,16,37695,1,0,0:0:0:0:
304,208,37956,1,0,0:0:0:0:
384,16,38217,1,0,0:0:0:0:
512,112,38478,1,0,0:0:0:0:
400,240,38739,1,0,0:0:0:0:
224,256,39078,2,0,B|160:256|160:256|96:176,1,127.5
0,112,39652,1,0,0:0:0:0:
128,320,40695,5,0,0:0:0:0:
384,112,41086,1,0,0:0:0:0:
256,208,41608,1,0,0:0:0:0:
64,64,42913,1,0,0:0:0:0:
160,336,43304,1,0,0:0:0:0:
32,224,43956,1,0,0:0:0:0:
288,304,45000,6,0,L|368:256,2,57.5
336,272,45391,2,0,L|368:208,2,57.5
360,222,45782,2,0,L|368:144,2,57.5
365,168,46173,2,0,L|288:128,2,57.5
316,142,46565,2,0,L|240:144,2,57.5
261,143,46956,2,0,L|208:192,2,57.5
220,180,47347,2,0,L|144:208,1,57.5
169,198,47608,2,0,L|96:160,1,57.5
120,173,47869,2,0,L|80:224,1,57.5
86,216,48130,5,0,0:0:0:0:
160,160,48391,1,0,0:0:0:0:
224,112,48652,1,0,0:0:0:0:
288,48,48913,1,0,0:0:0:0:
320,144,49173,1,0,0:0:0:0:
336,224,49434,1,0,0:0:0:0:
352,336,49695,1,0,0:0:0:0:
256,304,49956,1,0,0:0:0:0:
224,240,50086,6,0,L|160:224,1,57.5
170,226,50347,2,0,L|128:160,1,57.5
141,180,50608,2,0,L|144:96,1,57.5
142,125,50869,2,0,L|208:96,3,57.5
193,102,51391,2,0,L|256:144,3,57.5
239,132,51913,2,0,L|320:128,3,57.5
293,129,52434,2,0,L|288:208,3,57.5
289,184,53086,5,0,0:0:0:0:
320,272,53347,1,0,0:0:0:0:
224,336,53477,1,0,0:0:0:0:
128,288,53739,5,0,0:0:0:0:
128,48,54000,1,0,0:0:0:0:
128,176,54260,1,0,0:0:0:0:
272,112,54652,1,0,0:0:0:0:
496,112,55043,5,0,0:0:0:0:
416,256,55304,1,0,0:0:0:0:
256,304,55569,2,0,B|160:272|128:320|128:320|32:240|32:192,1,297.5
144,96,56608,1,0,0:0:0:0:
240,192,57130,1,0,0:0:0:0:
416,128,57391,2,0,P|384:176|448:288,1,172.5
48,128,58434,5,0,0:0:0:0:
42,364,58695,1,0,0:0:0:0:
96,272,59086,2,0,L|281:270,1,172.5
400,256,59869,1,0,0:0:0:0:
432,96,60260,1,0,0:0:0:0:
176,96,60766,2,0,P|256:160|224:304,1,255
0,146,61956,5,0,0:0:0:0:
5,282,62217,1,0,0:0:0:0:
160,160,62478,1,0,0:0:0:0:
176,288,62739,2,0,L|392:376,1,230
397,219,63652,5,0,0:0:0:0:
471,131,63913,1,0,0:0:0:0:
512,239,64173,1,0,0:0:0:0:
446,320,64434,1,0,0:0:0:0:
471,131,64695,1,0,0:0:0:0:
459,230,64956,2,0,P|352:277|332:259,1,115
256,176,65608,1,0,0:0:0:0:
144,336,66000,5,0,0:0:0:0:
0,240,66391,1,0,0:0:0:0:
144,144,66652,1,0,0:0:0:0:
64,32,67043,1,0,0:0:0:0:
272,64,67434,1,0,0:0:0:0:
432,128,67826,2,0,B|480:192|480:192|432:272,1,172.5
304,336,68478,1,0,0:0:0:0:
304,336,68608,1,0,0:0:0:0:
304,336,68869,1,0,0:0:0:0:
304,336,69000,2,0,B|176:288|176:288|192:128,1,287.5
176,80,70304,5,0,0:0:0:0:
288,128,70565,1,0,0:0:0:0:
400,176,70826,1,0,0:0:0:0:
512,240,71086,1,0,0:0:0:0:
320,208,71388,2,0,P|320:240|304:320,1,172.5
512,336,72260,1,0,0:0:0:0:
416,336,72521,1,0,0:0:0:0:
320,288,72913,1,0,0:0:0:0:
224,224,73173,1,0,0:0:0:0:
160,144,73434,1,0,0:0:0:0:
0,144,74217,5,0,0:0:0:0:
96,192,74608,1,0,0:0:0:0:
0,288,75000,1,0,0:0:0:0:
160,336,75652,1,0,0:0:0:0:
480,256,76304,1,0,0:0:0:0:
400,160,76565,1,0,0:0:0:0:
272,80,76826,1,0,0:0:0:0:
160,144,77086,1,0,0:0:0:0:
64,208,77347,1,0,0:0:0:0:
144,336,77608,1,0,0:0:0:0:
368,272,78130,5,0,0:0:0:0:
480,176,78391,1,0,0:0:0:0:
384,48,78782,1,0,0:0:0:0:
256,80,79173,2,0,B|336:144|288:256|288:272,1,172.5
112,160,80347,5,0,0:0:0:0:
160,320,80608,1,0,0:0:0:0:
0,224,80869,1,0,0:0:0:0:
16,352,81130,1,0,0:0:0:0:
64,256,81391,1,0,0:0:0:0:
144,272,81652,2,0,L|272:192,1,115
320,160,82173,1,0,0:0:0:0:
176,112,82434,1,0,0:0:0:0:
256,48,82695,5,0,0:0:0:0:
416,64,82956,2,0,P|320:128|320:176,1,172.5
432,176,83739,1,0,0:0:0:0:
512,256,84000,1,0,0:0:0:0:
464,336,84391,1,0,0:0:0:0:
272,304,84782,1,0,0:0:0:0:
192,352,85043,1,0,0:0:0:0:
112,240,85434,1,0,0:0:0:0:
192,160,85695,1,0,0:0:0:0:
80,64,85956,1,0,0:0:0:0:
448,128,87130,6,0,B|384:160|384:160|448:176|448:176|368:176|368:176|432:208|432:208|368:224|368:224|336:336,1,460
256,240,88695,1,8,0:0:0:0:
256,240,88956,1,8,0:0:0:0:
256,240,89217,1,8,0:0:0:0:
256,240,89478,1,8,0:0:0:0:
256,240,89739,1,8,0:0:0:0:
256,240,90000,1,8,0:0:0:0:
256,240,90260,1,8,0:0:0:0:
256,240,90521,2,0,P|368:176|416:80,1,230
192,256,95608,6,0,L|256:208,3,57.5
238,221,96130,2,0,L|304:224,3,57.5
295,223,96652,2,0,L|336:160,3,57.5
326,175,97173,2,0,L|272:112,3,57.5
288,131,97695,2,0,L|240:160,4,57.5
239,160,98347,2,0,L|208:224,3,57.5
213,212,98869,5,0,0:0:0:0:
224,272,99000,1,0,0:0:0:0:
272,288,99130,1,0,0:0:0:0:
336,272,99260,1,0,0:0:0:0:
384,224,99391,1,0,0:0:0:0:
384,160,99521,1,0,0:0:0:0:
432,112,99652,1,0,0:0:0:0:
448,80,99782,6,0,L|384:64,1,57.5
392,66,100043,2,0,L|320:96,1,57.5
339,88,100304,2,0,L|288:48,1,57.5
293,52,100565,2,0,L|256:128,1,57.5
268,103,100826,2,0,L|192:128,1,57.5
268,103,101086,2,0,L|304:160,1,57.5
268,103,101347,2,0,L|224:160,1,57.5
232,149,101608,2,0,L|224:224,3,57.5
226,206,102130,2,0,L|256:256,4,57.5
226,206,102782,2,0,L|160:224,3,57.5
170,221,103304,6,0,L|80:320,1,115
176,352,103826,1,0,0:0:0:0:
272,288,104086,1,0,0:0:0:0:
352,208,104347,1,0,0:0:0:0:
448,96,104608,1,0,0:0:0:0:
304,80,104869,5,0,0:0:0:0:
208,96,105130,1,0,0:0:0:0:
96,48,105391,2,2,P|64:128|112:192,1,172.5
128,288,106043,1,0,0:0:0:0:
208,160,106304,1,0,0:0:0:0:
240,272,106565,1,0,0:0:0:0:
304,176,106826,1,0,0:0:0:0:
384,256,107086,1,0,0:0:0:0:
416,176,107217,1,0,0:0:0:0:
448,80,107608,5,0,0:0:0:0:
336,32,107869,1,0,0:0:0:0:
240,128,108130,2,0,L|144:224,1,115
128,336,108652,1,0,0:0:0:0:
288,304,108913,1,4,0:0:0:0:
416,240,109304,1,0,0:0:0:0:
480,144,109565,1,4,0:0:0:0:
512,48,109956,2,0,P|448:80|368:64,1,115
336,80,110478,1,0,0:0:0:0:
240,144,110739,1,0,0:0:0:0:
112,128,111000,5,0,0:0:0:0:
224,288,111260,1,0,0:0:0:0:
256,160,111521,1,0,0:0:0:0:
48,256,111913,1,0,0:0:0:0:
160,224,112203,2,0,B|288:240|336:240|400:144,1,255
368,80,112956,1,0,0:0:0:0:
432,192,113217,1,0,0:0:0:0:
496,272,113478,1,4,0:0:0:0:
432,336,113739,1,0,0:0:0:0:
432,336,113869,6,0,L|320:288,1,115
326,290,114260,2,0,L|208:336,1,115
218,331,114652,2,0,L|176:224,1,115
176,224,115043,2,0,L|272:160,1,115
271,160,115434,2,0,L|400:176,1,115
385,174,115826,2,0,L|432:48,1,115
425,66,116217,2,0,L|256:64,1,115
310,64,116608,2,0,L|208:128,1,115
64,128,117391,6,0,L|144:224,1,115
208,112,117913,1,0,0:0:0:0:
48,240,118173,1,0,0:0:0:0:
128,304,118519,2,0,P|224:272|336:304,1,212.5
400,272,119177,2,0,B|464:176|448:96|400:32,1,255
355,109,119869,1,0,0:0:0:0:
208,64,120391,1,0,0:0:0:0:
128,128,120652,1,0,0:0:0:0:
64,64,120913,1,0,0:0:0:0:
256,144,121173,1,0,0:0:0:0:
256,192,121413,12,0,123239,0:0:0:0:
