osu file format v7

[General]
AudioFilename: Hatsune Miku no Shuuen.mp3
AudioLeadIn: 0
PreviewTime: 20547
Countdown: 0
SampleSet: Normal
StackLeniency: 0.4
Mode: 0
LetterboxInBreaks: 0

[Editor]
Bookmarks: 190,10475,20547,31047,41332,51404,61904,66832,77332,88904,99189,109475,114404,124689,135189,141618,152118
DistanceSpacing: 0.670000016689301
BeatDivisor: 2
GridSize: 32

[Metadata]
Title:Hatsune Miku no Shuuen
Artist:Hatsune Miku
Creator:DJPop
Version:Easy
Source:VOCALOID
Tags:cosMo Bousou-P The End of Hatsune Miku samiljul

[Difficulty]
HPDrainRate:2
CircleSize:3
OverallDifficulty:3
SliderMultiplier:0.64
SliderTickRate:1

[Events]
//Background and Video events
Video,-1500,"Hatsune Miku no Shuuen.avi"
0,0,"Hatsune Miku no Shuuen.png"
//Break Periods
2,62103,65607
2,109674,113178
//Storyboard Layer 0 (Background)
//Storyboard Layer 1 (Fail)
//Storyboard Layer 2 (Pass)
//Storyboard Layer 3 (Foreground)
//Storyboard Sound Samples
//Background Colour Transformations
3,100,0,0,0

[TimingPoints]
190,214.285714285714,3,1,1,80,1,0
51618,-100,3,1,1,80,0,1
61905,-100,3,2,1,0,0,0
66189,-100,3,1,1,80,0,0
67047,-100,3,1,1,80,0,1
77332,-100,3,1,1,80,0,0
109475,-100,3,2,1,0,0,0
113975,-100,3,1,1,80,0,0
114618,-100,3,1,1,80,0,1
134868,-100,3,2,1,60,0,1
135189,-100,3,2,1,60,0,0
137118,-100,3,1,1,80,0,0

[Colours]
Combo1 : 0,255,0
Combo2 : 0,255,255
Combo3 : 255,0,255
Combo4 : 255,255,0

[HitObjects]
256,32,10475,5,0
64,192,11761,1,0
256,352,13047,1,0
448,192,14332,1,0
64,96,15618,6,0,C|64:288,1,192
192,288,16904,2,0,C|192:96,1,192
320,96,18189,2,0,C|320:288,1,192
448,288,19475,2,0,C|448:96,1,192
256,32,20761,5,4
64,192,22047,1,0
256,352,23332,1,0
448,192,24618,1,0
192,192,25904,1,0
384,32,27189,1,0
128,32,28475,5,4
96,160,29118,1,4
128,288,29761,1,4
256,320,30404,1,4
384,288,31047,1,4
480,96,31904,6,0,C|480:32,1,64,8|8
288,96,33189,6,0,C|288:32,1,64,8|8
224,288,34475,6,0,C|224:352,1,64,8|8
32,288,35761,6,0,C|32:352,1,64,8|8
32,128,37047,5,8
32,128,37261,1,8
256,128,38332,5,8
256,128,38547,1,8
480,128,39618,5,8
480,128,39832,1,8
64,224,41332,6,0,C|448:224,1,384,4|4
128,32,43689,2,0,C|384:32,1,256
384,160,45189,1,0
384,288,45832,1,0
256,288,46475,6,0,B|160:288|104:256|81:191|104:128|160:96|256:96,1,384,4|4
448,192,49047,1,4
320,192,49689,1,4
192,192,50332,1,4
64,192,50975,1,4
64,320,51618,5,4
320,320,52904,1,0
480,128,54189,1,0
224,128,55475,1,0
128,48,56118,1,4
32,128,56761,5,4
160,352,58047,1,0
416,352,59332,1,0
320,112,60618,2,0,B|312:80|296:48|256:29|216:48|200:80|192:112,2,192,0|0|0
256,352,67047,5,4
64,192,68332,1,0
256,32,69618,1,0
448,192,70904,1,0
416,320,71547,1,4
288,352,72189,5,4
32,352,73475,1,0
32,98,74761,1,0
160,64,75404,1,0
288,32,76047,1,0
416,64,76689,1,0
384,192,77332,6,0,C|192:192,3,192
128,304,79904,2,0,C|320:304,3,192,0|0|8|8
448,352,82475,5,4
448,32,83761,1,4
64,32,85047,5,4
160,112,85689,1,4
256,192,86332,1,4
352,272,86975,1,4
448,352,87618,1,4
64,288,88904,6,0,C|64:96,3,192,4|0|0|0
192,96,91475,2,0,C|192:288,3,192
320,288,94047,6,0,C|320:96,1,192
448,96,95332,2,0,C|448:288,1,192
336,352,96618,2,0,C|144:352,1,192
144,224,97904,2,0,C|336:224,1,192
336,96,99189,5,4
176,40,100047,6,0,C|112:40,1,64,8|8
112,256,101332,6,0,C|176:256,1,64,8|8
384,288,102618,6,0,C|384:352,1,64,8|8
480,160,103904,6,0,C|480:96,1,64,8|8
320,32,104975,5,0
192,32,105618,1,0
64,64,106261,1,0
32,192,106904,1,0
64,320,107547,1,0
192,352,108189,2,0,C|384:352,2,192
352,32,114618,6,0,C|160:32,1,192,4|0
48,96,115904,2,0,C|48:288,1,192
160,352,117189,2,0,C|352:352,1,192
464,288,118475,2,0,C|464:96,1,192,0|4
352,32,119761,6,0,C|352:224,1,192,4|0
272,320,121047,2,0,C|272:128,1,192
192,32,122332,2,0,C|192:224,1,192,0|0
112,320,123618,2,0,C|112:128,1,192
32,32,124904,5,4
32,160,125547,1,0
32,288,126189,1,0
144,352,126832,1,0
256,288,127475,5,0
368,352,128118,1,0
480,288,128761,1,0
480,160,129404,1,0
480,32,130047,5,4
352,32,130689,1,0
320,160,131332,1,0
192,160,131975,1,0
160,32,132618,5,0
32,32,133261,1,0
32,160,133904,1,0
32,288,134547,1,0
160,224,135189,6,0,C|352:224,3,192,0|0|0|0
384,352,137761,5,4
256,352,138404,1,4
128,352,139047,1,4
256,192,139154,12,4,141618
