osu file format v7

[General]
AudioFilename: Hatsune Miku no Shuuen.mp3
AudioLeadIn: 3000
PreviewTime: 20547
Countdown: 0
SampleSet: Normal
StackLeniency: 0.4
Mode: 0
LetterboxInBreaks: 0

[Editor]
Bookmarks: 190,10475,20547,31047,41332,51404,61904,66832,77332,88904,99189,109475,114404,124689,135189,141618,152118
DistanceSpacing: 0.600000023841858
BeatDivisor: 2
GridSize: 32

[Metadata]
Title:Hatsune Miku no Shuuen
Artist:Hatsune Miku
Creator:DJPop
Version:Demise
Source:VOCALOID
Tags:cosMo Bousou-P The End of Hatsune Miku samiljul

[Difficulty]
HPDrainRate:5
CircleSize:5
OverallDifficulty:8
SliderMultiplier:1.6
SliderTickRate:0.5

[Events]
//Background and Video events
Video,-1500,"Hatsune Miku no Shuuen.avi"
0,0,"Hatsune Miku no Shuuen.png"
//Break Periods
2,62031,66082
2,109603,113654
//Storyboard Layer 0 (Background)
//Storyboard Layer 1 (Fail)
//Storyboard Layer 2 (Pass)
//Storyboard Layer 3 (Foreground)
//Storyboard Sound Samples
//Background Colour Transformations
3,100,0,0,0

[TimingPoints]
190,214.285714285714,3,2,1,60,1,0
10368,-100,3,1,1,80,0,0
35225,-100,3,1,1,40,0,0
35547,-100,3,1,1,60,0,0
35761,-100,3,1,1,80,0,0
40582,-100,3,1,1,40,0,0
40904,-100,3,1,1,60,0,0
41011,-100,3,1,1,80,0,0
51618,-100,3,1,1,80,0,1
61582,-100,3,1,1,60,0,1
61904,-100,3,1,1,80,0,0
67047,-100,3,1,1,80,0,1
76618,-100,3,1,1,40,0,1
76904,-100,3,1,1,60,0,1
77118,-100,3,1,1,80,0,1
77332,-100,3,1,1,80,0,0
87511,-100,3,2,1,60,0,0
88689,-100,3,1,1,80,0,0
108725,-100,3,1,1,40,0,0
109047,-100,3,1,1,60,0,0
109261,-100,3,1,1,80,0,0
114618,-100,3,1,1,80,0,1
134547,-100,3,1,1,40,0,1
134761,-100,3,1,1,60,0,1
134975,-100,3,1,1,80,0,1
135189,-100,3,2,1,60,0,0
137011,-100,3,1,1,80,0,0
140225,-100,3,1,1,30,0,0
140547,-100,3,1,1,40,0,0
140761,-100,3,1,1,50,0,0
140975,-100,3,1,1,60,0,0
141189,-100,3,1,1,70,0,0
141404,-100,3,1,1,80,0,0
141725,-100,3,2,1,0,0,0

[Colours]
Combo1 : 0,255,0
Combo2 : 0,255,255
Combo3 : 255,0,255
Combo4 : 255,255,0

[HitObjects]
256,344,190,5,0
256,248,404,1,0
256,152,618,1,0
256,248,832,1,0
256,152,1047,1,0
256,56,1261,1,0
256,248,1689,5,2
256,272,1797,1,2
256,296,1904,1,2
256,320,2011,1,2
256,344,2118,1,2
128,200,2547,5,0
112,200,2654,1,0
96,200,2761,1,0
112,104,2975,1,0
192,152,3189,1,0
192,248,3404,1,0
112,296,3618,1,0
96,200,3832,1,0
240,200,4154,5,2
264,216,4261,1,2
288,200,4368,1,2
312,184,4475,1,2
336,200,4582,1,2
480,200,4797,1,2
456,216,4904,1,2
432,200,5011,1,2
408,184,5118,1,2
384,200,5225,1,2
360,216,5332,5,0
416,296,5547,1,0
320,296,5761,1,0
248,360,5975,1,0
152,360,6189,1,0
80,296,6404,1,0
80,200,6618,5,0
48,184,6725,1,2
32,152,6832,1,2
48,120,6939,1,2
80,104,7047,1,2
112,120,7154,1,2
240,56,7475,5,0
240,152,7689,1,0
312,88,7904,1,0
312,184,8118,1,0
384,120,8332,1,0
384,216,8547,1,0
456,152,8761,1,0
456,248,8975,5,0
400,328,9189,1,0
304,344,9404,1,0
208,360,9618,1,0
112,344,9832,1,0
32,296,10047,1,0
112,248,10261,1,0
32,200,10475,5,0
32,104,10689,1,0
32,104,10904,1,0
96,176,11118,1,0
96,80,11332,1,0
96,80,11547,1,0
160,152,11761,1,0
160,56,11975,1,0
160,56,12189,1,0
224,128,12404,1,0
288,56,12618,5,0
320,48,12725,1,0
352,40,12832,1,0
448,40,13047,5,0
480,128,13261,1,0
480,128,13475,1,0
384,104,13689,1,0
416,192,13904,1,0
416,192,14118,1,0
320,168,14332,1,0
352,256,14547,1,0
352,256,14761,1,0
256,232,14975,1,0
288,320,15189,5,0
264,344,15297,1,0
232,360,15404,1,0
136,344,15618,5,0
104,328,15725,1,0
72,312,15832,1,0
56,280,15939,1,0
40,248,16047,1,0
40,152,16261,1,0
56,120,16368,1,0
72,88,16475,1,0
104,72,16582,1,0
136,56,16689,1,0
224,104,16904,5,0
192,120,17011,1,0
160,136,17118,1,0
144,168,17225,1,0
128,200,17332,1,0
144,232,17439,1,0
160,264,17547,1,0
192,280,17654,1,0
224,296,17761,1,0
240,200,17975,5,0
240,200,18082,1,0
240,200,18189,1,0
336,200,18404,1,0
336,296,18618,1,0
408,360,18832,1,0
480,296,19047,1,0
480,200,19261,5,0
480,168,19368,1,0
480,136,19475,1,0
464,104,19582,1,0
448,72,19689,1,0
416,56,19797,1,0
384,40,19904,2,0,C|328:40,8,53.3333333333333
384,40,20547,5,0
384,136,20761,1,4
384,232,20975,1,0
288,232,21190,1,8
288,136,21404,2,0,B|272:104|256:96|224:86|192:96|176:104|160:136,1,160,0|8
160,232,21832,5,8
96,160,22047,1,0
64,64,22261,1,0
32,160,22475,1,8
64,248,22689,2,0,B|32:272|24:304|30:327|40:344|64:360|96:360,1,160,0|8
192,360,23118,5,8
256,288,23332,1,0
320,360,23547,1,0
416,360,23761,1,8
448,344,23868,1,0
464,312,23975,1,0
480,216,24190,1,8
464,120,24404,1,8
392,184,24618,5,0
368,88,24832,1,0
280,40,25047,1,8
192,88,25261,2,0,C|32:88,1,160,0|8
32,184,25690,5,8
32,216,25797,1,0
32,248,25904,1,0
32,344,26118,1,0
128,344,26332,1,8
128,248,26547,2,0,B|144:216|160:208|192:198|224:208|240:216|256:248,1,160,0|8
256,344,26975,5,8
288,344,27082,1,0
320,344,27189,2,0,B|352:344|412:362|432:296|432:264,1,160
432,232,27511,2,0,C|432:152,1,80,0|8
432,120,27725,1,0
432,88,27832,2,0,B|432:56|400:34|368:56|368:88,1,106.666666666667,0|8
368,104,28047,2,0,B|368:136|336:158|304:136|304:104,1,106.666666666667,8|8
304,88,28261,1,8
216,40,28475,5,4
216,136,28690,1,8
216,136,28904,1,8
144,72,29118,1,4
144,168,29332,1,8
144,169,29547,1,8
144,264,29761,5,4
48,280,29975,1,8
48,280,30190,1,8
112,352,30404,1,4
208,336,30618,1,8
208,336,30832,2,0,B|224:352|256:370|288:352|304:336,1,106.666666666667,8|8
328,320,31047,5,4
416,280,31261,1,0
472,200,31475,1,8
416,120,31690,1,0
328,80,31904,1,8
240,40,32118,1,8
144,40,32332,5,0
48,40,32547,1,0
48,136,32761,1,8
144,136,32975,1,0
144,232,33189,2,0,B|152:256|176:272|209:286|240:272|264:256|272:232,1,160,8|8
272,136,33618,5,0
368,152,33832,1,0
464,168,34047,1,8
464,264,34261,2,0,B|464:296|467:365|400:360|368:360,1,160,0|8
272,360,34689,1,8
344,296,34904,5,0
272,232,35118,1,0
208,304,35332,2,0,B|208:360,2,53.3333333333333,8|8|8
208,288,35547,2,0,B|208:232,2,53.3333333333333,8|8|8
192,296,35761,2,0,C|32:296,1,160,8|8
32,200,36189,5,4
112,144,36404,1,0
192,200,36618,1,8
192,104,36832,1,0
264,40,37047,1,8
336,104,37261,1,8
432,104,37475,5,0
432,200,37689,1,0
336,200,37904,1,8
392,280,38118,1,0
448,360,38332,2,0,C|288:360,1,160,8|8
192,360,38761,5,0
136,280,38975,1,0
232,280,39189,1,8
176,200,39404,1,0
272,200,39618,1,8
216,120,39832,1,8
312,120,40047,5,0
256,40,40261,1,0
160,40,40475,1,8
88,104,40689,2,0,C|32:104,2,53.3333333333333,8|8|8
88,104,40904,1,8
48,192,41118,2,0,C|104:192,2,53.3333333333333,8|8|8
48,192,41332,5,4
80,280,41547,1,8
64,312,41654,1,0
80,344,41761,1,8
176,344,41975,1,0
192,312,42082,1,0
176,280,42189,1,8
176,184,42404,1,8
272,184,42618,5,4
288,216,42725,1,0
272,248,42832,1,8
288,280,42939,1,0
272,312,43047,1,8
352,360,43261,1,0
384,360,43368,1,0
416,360,43475,1,8
472,280,43689,1,8
416,200,43904,5,0
448,184,44011,1,0
464,152,44118,1,8
480,120,44225,1,0
464,88,44332,1,8
448,56,44439,1,0
416,40,44547,2,0,B|357:26|320:72,1,106.666666666667,0|8
304,88,44761,2,0,B|288:104|256:122|224:104|208:88,1,106.666666666667,0|8
192,72,44975,1,8
96,56,45189,6,0,B|40:80|32:136,1,106.666666666667,0|8
32,152,45404,2,0,B|41:209|96:232,1,106.666666666667,0|8
112,240,45618,1,0
176,312,45832,2,0,B|144:344|105:352|64:344|32:312,2,160,0|8|8
272,312,46475,5,4
352,360,46689,1,8
384,344,46797,1,0
416,328,46904,1,8
432,296,47011,1,0
448,264,47118,1,0
400,184,47332,1,8
480,136,47547,1,8
480,40,47761,5,4
384,40,47975,1,8
352,40,48082,1,0
320,40,48189,1,8
224,40,48404,1,0
128,40,48618,1,8
32,40,48832,1,8
32,136,49047,6,0,C|32:296,1,160,4|8
144,360,49475,1,12
256,296,49689,2,0,C|256:136,1,160,4|8
368,40,50118,1,12
480,136,50332,2,0,C|480:296,2,160,4|8|8
368,40,50975,5,4
256,136,51189,1,4
256,296,51404,5,4
272,328,51511,1,0
288,360,51618,1,4
384,360,51832,2,0,B|445:349|464:296,1,106.666666666667,0|8
472,280,52047,1,0
472,184,52261,2,0,B|464:144|446:106|400:104|352:120,1,160,0|8
304,200,52689,5,8
272,216,52797,1,0
240,232,52904,1,0
160,280,53118,2,0,B|160:344|96:352,1,106.666666666667,0|8
80,352,53332,1,0
40,264,53547,2,0,B|30:179|48:104,1,160,0|8
120,40,53975,5,8
192,104,54189,2,0,B|248:104|280:40|337:40,1,160,0|8
432,40,54618,1,8
464,56,54725,1,0
480,88,54832,1,0
464,120,54939,1,0
432,136,55047,1,8
336,136,55261,1,8
336,232,55475,6,0,B|448:232,1,106.666666666667,8|8
464,232,55689,1,0
464,328,55904,2,0,B|352:328,1,106.666666666667,0|8
336,328,56118,1,4
248,280,56332,1,4
160,328,56547,5,4
128,328,56654,1,0
96,328,56761,1,4
32,256,56975,2,0,B|144:256,1,106.666666666667,0|8
160,256,57189,1,0
224,184,57404,1,0
128,184,57618,1,8
32,184,57832,1,8
32,88,58047,5,0
128,88,58261,2,0,B|144:72|168:64|176:66|184:64|208:72|224:88,1,106.666666666667,0|8
240,96,58475,1,0
320,40,58689,2,0,C|480:40,1,160,0|8
480,136,59118,5,8
480,168,59225,1,0
480,200,59332,1,0
408,136,59547,2,0,C|360:232,1,106.666666666667,0|8
352,256,59761,2,0,C|256:304,1,106.666666666667,0|8
224,312,59975,1,0
136,352,60189,1,8
48,312,60404,1,8
32,216,60618,5,0
48,120,60832,1,8
136,80,61047,1,8
224,120,61261,2,0,B|278:141|288:176|288:216|256:248,1,160,0|0
176,200,61689,2,0,B|122:200,2,53.3333333333333,8|8|8
336,200,66832,5,0
368,200,66939,1,0
400,200,67047,1,4
400,296,67261,2,0,B|408:320|424:328|440:329|456:328|472:320|480:296,1,106.666666666667,0|8
480,280,67475,1,0
480,184,67689,2,0,B|480:110|416:40,1,160,0|8
320,40,68118,5,8
256,112,68332,1,0
192,40,68547,2,0,C|80:40,1,106.666666666667,0|8
64,40,68761,1,0
64,136,68975,2,0,B|32:152|24:168|14:200|24:232|32:248|64:264,1,160,0|8
64,360,69404,5,8
160,360,69618,1,0
168,328,69725,1,0
192,304,69832,1,8
224,288,69939,1,0
256,280,70047,1,8
288,288,70154,1,0
320,304,70261,1,0
344,328,70368,1,0
352,360,70475,1,8
448,360,70689,1,8
448,264,70904,5,0
376,200,71118,2,0,B|392:200|446:205|440:136,1,106.666666666667,0|8
440,120,71332,2,0,B|445:52|392:56|376:56,1,106.666666666667,0|8
360,56,71547,1,4
288,120,71761,1,4
288,216,71975,5,4
208,168,72189,1,4
128,216,72404,2,0,B|112:216|56:231|48:168,1,106.666666666667,0|8
48,152,72618,1,0
48,56,72832,2,0,B|72:56|142:35|200:88,1,160,0|8
288,48,73261,5,8
352,120,73475,1,0
432,168,73689,2,0,B|480:211|448:264,1,106.666666666667,0|8
440,280,73904,1,0
384,360,74118,2,0,C|224:360,1,160,0|8
128,360,74547,5,8
96,344,74654,1,0
64,328,74761,1,0
152,288,74975,1,8
64,248,75189,1,8
96,232,75297,1,0
128,216,75404,1,0
40,176,75618,1,8
128,136,75832,1,8
128,40,76047,5,0
224,40,76261,1,8
320,40,76475,1,8
400,88,76689,2,0,B|448:56,8,53.3333333333333,8|8|8|8|8|8|8|8|8
400,88,77332,6,0,B|326:152|256:152,2,160
480,136,77975,2,0,C|480:296,1,160
408,360,78404,5,0
372,328,78511,1,0
336,296,78618,1,0
264,360,78832,1,0
192,296,79047,1,0
120,360,79261,2,0,B|32:357|32:248,1,160
32,152,79689,5,0
32,120,79797,1,0
32,88,79904,1,0
112,40,80118,2,0,B|112:152,1,106.666666666667,0|8
112,168,80332,1,0
208,152,80547,1,0
208,56,80761,1,0
296,104,80975,1,0
384,152,81189,5,8
384,56,81404,1,8
472,104,81618,1,8
472,200,81832,1,8
384,248,82047,1,8
472,296,82261,1,8
384,344,82475,5,4
288,344,82689,1,0
256,360,82797,1,8
224,344,82904,1,0
192,360,83011,1,0
160,344,83118,1,8
64,344,83332,1,8
64,344,83547,1,4
64,248,83761,5,4
160,248,83975,1,0
192,232,84082,1,8
224,248,84189,1,0
256,232,84297,1,0
288,248,84404,1,8
384,248,84618,1,8
384,248,84832,1,4
384,152,85047,5,4
480,152,85261,1,8
464,120,85368,1,0
448,88,85475,1,4
416,72,85582,1,0
384,56,85689,1,4
288,56,85904,1,8
288,152,86118,1,4
192,136,86332,5,4
192,40,86547,1,8
128,112,86761,1,4
128,208,86975,1,4
224,200,87189,1,8
256,288,87404,1,8
160,304,87618,5,4
176,328,87725,1,0
192,352,87832,1,0
224,360,87939,1,0
256,368,88047,1,0
288,360,88154,1,0
320,352,88261,1,0
336,328,88368,1,0
352,304,88475,1,0
256,40,88904,5,4
256,72,89011,1,0
256,104,89118,1,0
256,200,89332,1,8
256,296,89547,1,0
256,272,89654,1,0
256,248,89761,1,8
256,224,89868,1,0
256,200,89975,1,8
256,104,90189,6,0,B|174:104|96:120,1,160
40,200,90618,1,8
97,280,90832,2,0,B|174:296|256:296,2,160,0|8|8
160,200,91475,5,0
256,200,91689,1,0
352,200,91904,1,8
448,200,92118,1,0
496,112,92332,2,0,C|352:40,1,160,8|8
256,40,92761,6,0,C|96:40,2,160,0|0|8
256,136,93404,1,0
184,200,93618,1,8
256,264,93832,1,8
256,360,94047,6,0,C|416:360,2,160,0|0|8
256,264,94689,2,0,C|96:264,2,160,0|8|8
328,200,95332,6,0,B|344:216|360:232|400:237|440:232|456:216|472:200,1,160,0|0
471,200,95761,1,8
471,103,95975,2,0,B|455:88|439:72|399:67|359:72|343:88|328:104,1,160,0|8
328,103,96404,1,8
256,40,96618,5,0
256,40,96832,2,0,C|96:40,1,160,0|8
40,120,97261,1,0
40,120,97475,2,0,C|40:280,1,160,8|8
96,360,97904,5,0
192,360,98118,2,0,C|304:360,1,106.666666666667,0|8
320,360,98332,1,8
416,360,98547,1,0
464,280,98761,1,8
432,192,98975,1,8
336,168,99189,5,4
320,136,99297,1,0
288,120,99404,1,0
256,104,99511,1,0
224,120,99618,1,8
192,136,99725,1,0
176,168,99832,1,0
160,200,99939,1,0
176,232,100047,1,8
192,264,100154,1,0
224,280,100261,1,8
256,296,100368,1,0
288,280,100475,5,0
320,264,100582,1,0
336,232,100689,1,0
352,200,100797,1,8
256,200,101011,1,8
160,200,101225,1,0
128,200,101332,1,8
96,200,101439,1,0
64,200,101547,1,8
32,112,101761,5,0
48,80,101868,1,0
80,64,101975,1,0
112,56,102082,1,0
144,64,102189,1,8
176,80,102297,1,0
192,112,102404,1,0
256,40,102618,1,8
256,40,102832,1,8
320,112,103047,5,0
384,40,103261,1,0
416,56,103368,1,8
448,72,103475,1,0
464,104,103582,1,8
480,136,103689,1,0
480,232,103904,1,8
480,232,104118,1,8
480,328,104332,5,0
384,344,104547,1,8
288,360,104761,1,8
384,344,104975,5,0
368,248,105189,1,8
352,152,105404,1,8
368,248,105618,5,0
272,264,105832,1,8
176,280,106047,1,8
272,264,106261,5,0
256,168,106475,1,8
240,72,106689,1,8
144,88,106904,6,0,C|48:136,1,106.666666666667,0|8
32,144,107118,2,0,C|128:192,1,106.666666666667,0|8
144,200,107332,2,0,C|48:248,1,106.666666666667,0|8
32,256,107547,1,0
96,328,107761,1,8
192,344,107975,1,8
288,344,108189,6,0,B|370:344|448:328,2,160
256,253,108832,2,0,C|256:200,8,53.3333333333333,8|8|8|8|8|8|8|8|8
256,40,114404,5,0
256,40,114511,1,0
256,40,114618,1,4
256,136,114832,2,0,C|368:136,1,106.666666666667,0|8
384,136,115047,1,0
384,40,115261,2,0,B|416:40|484:37|480:104|480:136,1,160,0|8
480,232,115689,5,8
464,264,115797,1,0
448,296,115904,1,0
368,344,116118,2,0,C|256:344,1,106.666666666667,0|8
240,344,116332,1,0
144,344,116547,2,0,B|112:344|48:359|32:296|32:264,1,160,0|8
32,168,116975,5,8
48,136,117082,1,0
64,104,117189,1,0
136,40,117404,1,8
208,104,117618,1,8
224,136,117725,1,0
240,168,117832,2,0,B|256:200|264:208|303:220|336:208|344:200|368:168,1,160,0|8
416,88,118261,5,8
448,104,118368,1,0
464,136,118475,1,0
448,168,118582,1,0
432,200,118689,1,8
448,232,118797,1,0
464,264,118904,1,8
448,296,119011,1,0
416,312,119118,1,4
320,280,119332,1,4
272,360,119547,5,4
240,360,119654,1,0
208,360,119761,1,4
112,360,119975,2,0,B|48:360|40:296,1,106.666666666667,0|8
40,280,120189,1,0
128,232,120404,2,0,B|210:232|288:216,1,160,0|8
384,200,120832,5,8
464,144,121047,1,0
464,48,121261,2,0,C|352:48,1,106.666666666667,0|8
336,48,121475,1,0
256,104,121689,2,0,B|224:104|156:130|128:40,1,160,0|8
32,40,122118,5,8
32,72,122225,1,0
32,104,122332,2,0,C|32:264,1,160,0|8
32,360,122761,1,8
64,360,122868,1,0
96,360,122975,1,0
192,360,123189,1,8
256,288,123404,5,8
288,272,123511,1,0
256,256,123618,1,0
224,240,123725,1,0
256,224,123832,1,8
288,208,123939,1,0
256,192,124047,1,8
224,176,124154,1,0
256,160,124261,2,0,B|256:120|249:61|336:40,1,160,0|8
432,40,124689,5,8
464,56,124797,1,0
480,88,124904,2,0,C|464:216,1,106.666666666667,4|8
464,216,125118,2,0,C|448:344,1,106.666666666667,0|8
448,344,125332,1,0
352,360,125547,2,0,B|320:328|288:320|240:328|208:360,1,160,0|8
112,360,125975,5,8
80,344,126082,1,0
64,312,126189,2,0,C|48:184,1,106.666666666667,0|8
48,184,126404,2,0,C|32:56,1,106.666666666667,0|8
32,56,126618,1,0
128,40,126832,2,0,C|288:40,1,160,0|8
336,120,127261,5,8
304,136,127368,1,0
272,152,127475,2,0,B|224:127|192:168|192:192,1,106.666666666667,0|8
192,208,127689,2,0,B|192:232|224:273|272:248,1,106.666666666667,0|8
288,240,127904,1,0
320,232,128011,1,0
344,240,128118,1,0
344,336,128332,1,8
416,272,128547,5,8
448,256,128654,1,0
464,224,128761,2,0,B|488:172|464:120,1,106.666666666667,0|8
456,104,128975,2,0,B|430:51|368:56,1,106.666666666667,0|8
352,56,129189,1,0
256,56,129404,2,0,C|96:56,1,160,0|8
48,136,129832,5,8
80,128,129939,1,0
112,120,130047,2,0,B|176:128|176:192,1,106.666666666667,0|8
176,208,130261,2,0,B|176:272|112:280,1,106.666666666667,0|8
96,280,130475,1,0
32,352,130689,2,0,C|192:352,1,160,0|8
288,352,131118,5,8
352,280,131332,1,0
368,312,131439,1,8
384,344,131547,1,0
416,360,131654,1,8
448,344,131761,1,0
464,312,131868,1,0
480,280,131975,2,0,C|480:120,1,160,0|8
384,120,132404,5,8
400,88,132511,1,0
384,56,132618,1,0
296,88,132832,1,8
208,56,133047,1,8
192,88,133154,1,0
208,120,133261,1,0
112,136,133475,1,8
112,40,133689,1,8
24,80,133904,6,0,C|24:240,1,160,0|8
112,280,134332,1,8
144,264,134439,1,0
176,248,134547,2,0,C|152:200,8,53.3333333333333,8|8|8|8|8|8|8|8|8
176,248,135189,6,0,C|336:248,1,160
400,248,135547,1,0
400,248,135618,1,0
480,304,135832,1,0
400,360,136047,1,0
336,360,136189,1,0
336,360,136261,1,0
240,360,136475,5,0
144,360,136689,2,0,C|48:312,1,106.666666666667
32,304,136904,1,0
32,208,137118,2,0,C|32:48,2,160,8|8|8
128,232,137761,5,4
224,256,137975,1,0
256,264,138082,1,0
288,256,138189,1,0
384,232,138404,1,4
416,216,138511,1,0
448,200,138618,1,0
464,168,138725,1,0
480,136,138832,1,0
448,49,139047,5,4
352,49,139261,1,8
256,49,139475,1,8
160,49,139689,1,8
64,49,139904,1,8
160,49,140118,1,8
256,49,140332,5,8
256,66,140404,1,8
256,83,140475,1,8
256,100,140547,1,8
256,117,140618,1,8
256,134,140689,1,8
256,151,140761,1,8
256,168,140832,1,8
256,185,140904,1,8
256,202,140975,1,8
256,219,141047,1,8
256,236,141118,1,8
256,253,141189,1,8
256,270,141261,1,8
256,287,141332,1,8
256,304,141404,1,8
256,321,141475,1,8
256,338,141547,1,8
256,355,141618,1,4
256,192,141689,12,0,148475
