osu file format v13

[General]
AudioFilename: Hatsune Miku no Shoushitsu -Gekijouban-.mp3
AudioLeadIn: 0
PreviewTime: 86600
Countdown: 0
SampleSet: None
StackLeniency: 0.7
Mode: 1
LetterboxInBreaks: 0
WidescreenStoryboard: 1

[Editor]
DistanceSpacing: 0.8
BeatDivisor: 3
GridSize: 8
TimelineZoom: 1.8

[Metadata]
Title:Hatsune Miku no Shoushitsu ~Gekijouban~
TitleUnicode:初音ミクの消失 ~劇場版~
Artist:Hatsune Miku
ArtistUnicode:初音ミク
Creator:TaMul
Version:Muzukashii
Source:Taiko no Tatsujin
Tags:
BeatmapID:454580
BeatmapSetID:190934

[Difficulty]
HPDrainRate:4
CircleSize:5
OverallDifficulty:4
ApproachRate:4
SliderMultiplier:1.4
SliderTickRate:1

[Events]
//Background and Video events
0,0,"328411-1366x768.jpg",0,120
//Break Periods
//Storyboard Layer 0 (Background)
//Storyboard Layer 1 (Fail)
//Storyboard Layer 2 (Pass)
//Storyboard Layer 3 (Foreground)
//Storyboard Sound Samples
//Background Colour Transformations
3,100,163,162,255

[TimingPoints]
1100,600,4,1,0,100,1,0
10700,300,4,1,0,100,1,0
51500,-100,4,1,0,100,0,1
61100,-100,4,1,0,100,0,0
76700,-200,4,1,0,100,0,0
86300,-100,4,1,0,100,0,0
95900,-100,4,1,0,100,0,1
105500,-100,4,1,0,100,0,0
107900,285.714285714286,4,1,0,100,1,1
112471,272.727272727273,4,1,0,100,1,1
116834,260.869565217391,4,1,0,100,1,1
121007,250,4,1,0,100,1,1
126007,-100,4,1,0,100,0,0

[Colours]
Combo1 : 0,255,255
Combo2 : 255,0,0

[HitObjects]
128,208,10700,5,4,0:0:0:0:
128,208,11200,1,0,0:0:0:0:
128,208,11300,1,0,0:0:0:0:
128,208,11600,1,8,0:0:0:0:
128,208,11900,1,0,0:0:0:0:
128,208,12700,1,8,0:0:0:0:
128,208,12800,1,8,0:0:0:0:
128,208,13000,1,8,0:0:0:0:
128,208,13100,1,8,0:0:0:0:
128,208,13900,1,8,0:0:0:0:
128,208,14000,1,8,0:0:0:0:
128,208,14200,1,8,0:0:0:0:
128,208,14300,1,8,0:0:0:0:
128,208,14800,1,0,0:0:0:0:
128,208,14900,1,0,0:0:0:0:
128,208,15200,1,8,0:0:0:0:
128,208,15500,1,4,0:0:0:0:
128,208,16700,1,4,0:0:0:0:
128,208,17900,1,4,0:0:0:0:
128,208,18500,1,4,0:0:0:0:
160,112,19100,2,0,P|240:112|96:184,1,560
152,216,22700,1,8,0:0:0:0:
152,216,22900,1,0,0:0:0:0:
152,216,23000,1,0,0:0:0:0:
152,216,23200,1,0,0:0:0:0:
152,216,23300,1,0,0:0:0:0:
152,216,23600,1,0,0:0:0:0:
152,216,23900,1,0,0:0:0:0:
152,216,24050,1,0,0:0:0:0:
152,216,24125,1,0,0:0:0:0:
152,216,24200,1,0,0:0:0:0:
152,216,24350,1,0,0:0:0:0:
152,216,24425,1,0,0:0:0:0:
152,216,24500,1,0,0:0:0:0:
152,216,24800,1,0,0:0:0:0:
152,216,25100,1,0,0:0:0:0:
152,216,25200,1,0,0:0:0:0:
152,216,25300,1,0,0:0:0:0:
152,216,25400,1,0,0:0:0:0:
152,216,25700,1,0,0:0:0:0:
152,216,25775,1,0,0:0:0:0:
152,216,25850,1,0,0:0:0:0:
152,216,25925,1,0,0:0:0:0:
152,216,26000,1,0,0:0:0:0:
152,216,26300,1,0,0:0:0:0:
152,216,26375,1,0,0:0:0:0:
152,216,26450,1,0,0:0:0:0:
152,216,26525,1,0,0:0:0:0:
152,216,26600,1,0,0:0:0:0:
152,216,26900,1,0,0:0:0:0:
152,216,27000,1,0,0:0:0:0:
152,216,27100,1,0,0:0:0:0:
152,216,27200,1,0,0:0:0:0:
152,216,27500,1,0,0:0:0:0:
152,216,27800,1,0,0:0:0:0:
152,216,28000,1,0,0:0:0:0:
152,216,28100,1,0,0:0:0:0:
152,216,28300,1,0,0:0:0:0:
152,216,28500,1,0,0:0:0:0:
152,216,28700,1,0,0:0:0:0:
152,216,29000,1,0,0:0:0:0:
152,216,29200,1,0,0:0:0:0:
152,216,29300,1,0,0:0:0:0:
152,216,29500,1,0,0:0:0:0:
152,216,29700,1,0,0:0:0:0:
152,216,29900,1,8,0:0:0:0:
152,216,30100,1,8,0:0:0:0:
152,216,30200,1,8,0:0:0:0:
152,216,30500,1,8,0:0:0:0:
152,216,30700,1,8,0:0:0:0:
152,216,30800,1,8,0:0:0:0:
152,216,31100,1,0,0:0:0:0:
152,216,31175,1,0,0:0:0:0:
152,216,31250,1,0,0:0:0:0:
152,216,31325,1,0,0:0:0:0:
152,216,31400,1,0,0:0:0:0:
152,216,31700,1,0,0:0:0:0:
152,216,31800,1,0,0:0:0:0:
152,216,31900,1,0,0:0:0:0:
152,216,32000,1,0,0:0:0:0:
152,216,32300,1,0,0:0:0:0:
152,216,32900,1,8,0:0:0:0:
152,216,33500,1,0,0:0:0:0:
152,216,34100,1,8,0:0:0:0:
152,216,34600,1,0,0:0:0:0:
152,216,34700,1,0,0:0:0:0:
152,216,35300,1,8,0:0:0:0:
152,216,35900,1,0,0:0:0:0:
152,216,36200,1,0,0:0:0:0:
152,216,36500,1,8,0:0:0:0:
152,216,36700,1,0,0:0:0:0:
152,216,36900,1,0,0:0:0:0:
152,216,37100,1,0,0:0:0:0:
152,216,37400,1,0,0:0:0:0:
152,216,37700,1,8,0:0:0:0:
152,216,37900,1,0,0:0:0:0:
152,216,38100,1,0,0:0:0:0:
152,216,38300,1,0,0:0:0:0:
152,216,38600,1,0,0:0:0:0:
152,216,38900,1,8,0:0:0:0:
152,216,39200,1,0,0:0:0:0:
152,216,39300,1,0,0:0:0:0:
152,216,39400,1,0,0:0:0:0:
152,216,39500,1,0,0:0:0:0:
152,216,39800,1,0,0:0:0:0:
152,216,40100,1,8,0:0:0:0:
152,216,40400,1,0,0:0:0:0:
152,216,40500,1,0,0:0:0:0:
152,216,40600,1,0,0:0:0:0:
152,216,40700,1,0,0:0:0:0:
152,216,41000,1,0,0:0:0:0:
152,216,41100,1,0,0:0:0:0:
152,216,41200,1,0,0:0:0:0:
152,216,41300,1,0,0:0:0:0:
152,216,41900,1,0,0:0:0:0:
152,216,42500,1,0,0:0:0:0:
152,216,43100,1,0,0:0:0:0:
152,216,43700,1,0,0:0:0:0:
152,216,44000,1,0,0:0:0:0:
152,216,44300,1,0,0:0:0:0:
152,216,44900,1,0,0:0:0:0:
152,216,45500,1,0,0:0:0:0:
152,216,46100,1,0,0:0:0:0:
152,216,46400,1,0,0:0:0:0:
152,216,46700,1,0,0:0:0:0:
152,216,47000,1,0,0:0:0:0:
152,216,47150,1,0,0:0:0:0:
152,216,47300,1,8,0:0:0:0:
152,216,47600,1,0,0:0:0:0:
152,216,47900,1,0,0:0:0:0:
152,216,48200,1,0,0:0:0:0:
152,216,48350,1,0,0:0:0:0:
152,216,48500,1,8,0:0:0:0:
152,216,48800,1,0,0:0:0:0:
152,216,49100,1,0,0:0:0:0:
152,216,49400,1,0,0:0:0:0:
152,216,49550,1,0,0:0:0:0:
152,216,49700,1,8,0:0:0:0:
152,216,50000,1,0,0:0:0:0:
256,192,50300,12,0,51200,0:0:0:0:
160,200,51500,5,0,0:0:0:0:
160,200,51650,1,0,0:0:0:0:
160,200,51800,1,8,0:0:0:0:
160,200,51950,5,0,0:0:0:0:
160,200,52100,1,0,0:0:0:0:
160,200,52250,1,8,0:0:0:0:
160,200,52400,5,0,0:0:0:0:
160,200,52550,1,0,0:0:0:0:
160,200,52700,1,8,0:0:0:0:
160,200,52850,5,0,0:0:0:0:
160,200,53000,1,0,0:0:0:0:
160,200,53150,1,8,0:0:0:0:
160,200,53300,1,0,0:0:0:0:
160,200,53450,1,8,0:0:0:0:
160,200,53600,1,0,0:0:0:0:
160,200,53750,1,8,0:0:0:0:
160,200,53900,5,0,0:0:0:0:
160,200,54050,1,0,0:0:0:0:
160,200,54200,1,8,0:0:0:0:
160,200,54350,5,0,0:0:0:0:
160,200,54500,1,0,0:0:0:0:
160,200,54650,1,8,0:0:0:0:
160,200,54800,5,0,0:0:0:0:
160,200,54950,1,0,0:0:0:0:
160,200,55100,1,8,0:0:0:0:
160,200,55250,5,0,0:0:0:0:
160,200,55400,1,0,0:0:0:0:
160,200,55550,1,8,0:0:0:0:
160,200,55700,1,0,0:0:0:0:
160,200,55850,1,8,0:0:0:0:
160,200,56000,1,0,0:0:0:0:
160,200,56150,1,8,0:0:0:0:
160,200,56300,1,0,0:0:0:0:
160,200,56450,1,0,0:0:0:0:
160,200,56600,1,0,0:0:0:0:
160,200,56750,1,0,0:0:0:0:
160,200,56900,1,0,0:0:0:0:
160,200,57050,1,0,0:0:0:0:
160,200,57200,1,0,0:0:0:0:
160,200,57350,1,0,0:0:0:0:
160,200,57500,1,0,0:0:0:0:
160,200,57600,1,0,0:0:0:0:
160,200,57700,1,0,0:0:0:0:
160,200,57800,1,0,0:0:0:0:
160,200,57900,1,0,0:0:0:0:
160,200,58000,1,0,0:0:0:0:
160,200,58100,1,0,0:0:0:0:
160,200,58200,1,0,0:0:0:0:
160,200,58300,1,0,0:0:0:0:
160,200,58400,1,0,0:0:0:0:
160,200,58500,1,0,0:0:0:0:
160,200,58600,1,0,0:0:0:0:
160,200,58700,1,8,0:0:0:0:
160,200,58850,1,8,0:0:0:0:
160,200,59000,1,8,0:0:0:0:
160,200,59150,1,8,0:0:0:0:
160,200,59300,1,0,0:0:0:0:
160,200,59450,1,0,0:0:0:0:
160,200,59600,1,0,0:0:0:0:
160,200,59750,1,0,0:0:0:0:
160,200,59900,1,8,0:0:0:0:
160,200,59975,1,8,0:0:0:0:
160,200,60050,1,8,0:0:0:0:
160,200,60200,1,8,0:0:0:0:
160,200,60275,1,8,0:0:0:0:
160,200,60350,1,8,0:0:0:0:
160,200,60500,1,0,0:0:0:0:
160,200,60575,1,0,0:0:0:0:
160,200,60650,1,0,0:0:0:0:
160,200,60800,1,0,0:0:0:0:
160,200,60875,1,0,0:0:0:0:
160,200,60950,1,0,0:0:0:0:
160,200,61100,1,0,0:0:0:0:
160,200,61400,1,8,0:0:0:0:
160,200,61700,1,0,0:0:0:0:
160,200,62000,1,8,0:0:0:0:
160,200,62300,1,0,0:0:0:0:
160,200,62500,1,0,0:0:0:0:
160,200,62700,1,0,0:0:0:0:
160,200,62900,1,0,0:0:0:0:
160,200,63200,1,8,0:0:0:0:
160,200,63500,1,0,0:0:0:0:
160,200,63800,1,8,0:0:0:0:
160,200,64100,1,0,0:0:0:0:
160,200,64400,1,8,0:0:0:0:
160,200,64700,1,0,0:0:0:0:
160,200,65000,1,8,0:0:0:0:
160,200,65150,1,8,0:0:0:0:
160,200,65300,1,0,0:0:0:0:
160,200,65600,1,8,0:0:0:0:
160,200,65750,1,8,0:0:0:0:
160,200,65900,1,0,0:0:0:0:
160,200,66200,1,8,0:0:0:0:
160,200,66350,1,8,0:0:0:0:
160,200,66500,1,0,0:0:0:0:
160,200,66800,1,8,0:0:0:0:
160,200,67100,1,0,0:0:0:0:
160,200,67400,1,8,0:0:0:0:
160,200,67700,1,0,0:0:0:0:
160,200,68000,1,0,0:0:0:0:
160,200,68150,1,0,0:0:0:0:
160,200,68300,5,8,0:0:0:0:
160,200,68450,1,8,0:0:0:0:
160,200,68600,1,0,0:0:0:0:
160,200,68750,1,0,0:0:0:0:
224,112,68900,2,0,P|288:256|192:312,1,280
128,232,70850,1,4,0:0:0:0:
128,232,71000,1,4,0:0:0:0:
128,232,71300,1,4,0:0:0:0:
128,232,71450,1,4,0:0:0:0:
128,232,71900,1,4,0:0:0:0:
128,232,73250,1,4,0:0:0:0:
128,232,73400,1,4,0:0:0:0:
128,232,73700,1,4,0:0:0:0:
128,232,73850,1,4,0:0:0:0:
128,232,74300,1,4,0:0:0:0:
128,232,74900,1,4,0:0:0:0:
256,192,75500,12,0,76400,0:0:0:0:
184,184,76700,5,0,0:0:0:0:
184,184,77000,1,0,0:0:0:0:
184,184,77300,1,8,0:0:0:0:
184,184,77750,1,0,0:0:0:0:
184,184,78050,1,0,0:0:0:0:
184,184,78350,1,0,0:0:0:0:
184,184,78500,1,8,0:0:0:0:
184,184,79100,5,0,0:0:0:0:
184,184,79400,1,0,0:0:0:0:
184,184,79700,1,8,0:0:0:0:
184,184,80150,1,0,0:0:0:0:
184,184,80450,1,0,0:0:0:0:
184,184,80750,1,0,0:0:0:0:
184,184,80900,1,8,0:0:0:0:
184,184,81500,5,0,0:0:0:0:
184,184,81800,1,0,0:0:0:0:
184,184,82100,1,8,0:0:0:0:
184,184,82550,1,0,0:0:0:0:
184,184,82850,1,0,0:0:0:0:
184,184,83150,1,0,0:0:0:0:
184,184,83300,1,8,0:0:0:0:
184,184,83900,5,0,0:0:0:0:
184,184,84200,1,0,0:0:0:0:
184,184,84500,1,8,0:0:0:0:
184,184,84950,1,0,0:0:0:0:
184,184,85250,1,0,0:0:0:0:
184,184,85550,1,0,0:0:0:0:
184,184,85700,1,8,0:0:0:0:
184,184,86300,1,0,0:0:0:0:
184,184,86450,1,0,0:0:0:0:
184,184,86600,1,8,0:0:0:0:
184,184,86900,1,0,0:0:0:0:
184,184,87050,1,0,0:0:0:0:
184,184,87200,1,8,0:0:0:0:
184,184,87500,1,0,0:0:0:0:
184,184,87650,1,0,0:0:0:0:
184,184,87800,1,8,0:0:0:0:
184,184,87950,1,8,0:0:0:0:
184,184,88100,1,0,0:0:0:0:
184,184,88250,1,0,0:0:0:0:
184,184,88400,1,8,0:0:0:0:
184,184,88700,1,0,0:0:0:0:
184,184,88850,1,0,0:0:0:0:
184,184,89000,1,8,0:0:0:0:
184,184,89300,1,0,0:0:0:0:
184,184,89450,1,0,0:0:0:0:
184,184,89600,1,8,0:0:0:0:
184,184,89900,1,0,0:0:0:0:
184,184,90050,1,0,0:0:0:0:
184,184,90200,1,8,0:0:0:0:
184,184,90350,1,0,0:0:0:0:
184,184,90650,1,0,0:0:0:0:
184,184,90800,1,8,0:0:0:0:
184,184,91100,1,0,0:0:0:0:
184,184,91250,1,0,0:0:0:0:
184,184,91400,1,8,0:0:0:0:
184,184,91700,1,0,0:0:0:0:
184,184,91850,1,0,0:0:0:0:
184,184,92000,1,8,0:0:0:0:
184,184,92300,1,0,0:0:0:0:
184,184,92450,1,0,0:0:0:0:
184,184,92600,1,8,0:0:0:0:
184,184,92750,1,8,0:0:0:0:
184,184,92900,1,0,0:0:0:0:
184,184,93050,1,0,0:0:0:0:
184,184,93200,1,8,0:0:0:0:
184,184,93500,1,0,0:0:0:0:
184,184,93650,1,0,0:0:0:0:
184,184,93800,1,8,0:0:0:0:
184,184,94100,1,0,0:0:0:0:
184,184,94250,1,0,0:0:0:0:
184,184,94400,1,8,0:0:0:0:
184,184,94700,1,4,0:0:0:0:
184,184,95000,1,4,0:0:0:0:
184,184,95300,1,12,0:0:0:0:
184,184,95600,1,12,0:0:0:0:
184,184,95900,1,0,0:0:0:0:
184,184,96000,1,0,0:0:0:0:
184,184,96100,1,0,0:0:0:0:
184,184,96200,1,0,0:0:0:0:
184,184,96300,1,0,0:0:0:0:
184,184,96400,1,0,0:0:0:0:
184,184,96500,1,0,0:0:0:0:
184,184,96600,1,0,0:0:0:0:
184,184,96700,1,0,0:0:0:0:
184,184,96800,1,0,0:0:0:0:
184,184,96900,1,0,0:0:0:0:
184,184,97000,1,0,0:0:0:0:
184,184,97100,1,0,0:0:0:0:
184,184,97200,1,0,0:0:0:0:
184,184,97300,1,0,0:0:0:0:
184,184,97400,1,0,0:0:0:0:
184,184,97500,1,0,0:0:0:0:
184,184,97600,1,0,0:0:0:0:
184,184,97700,1,0,0:0:0:0:
184,184,97800,1,0,0:0:0:0:
184,184,97900,1,0,0:0:0:0:
184,184,98000,1,0,0:0:0:0:
184,184,98100,1,0,0:0:0:0:
184,184,98200,1,0,0:0:0:0:
184,184,98300,1,0,0:0:0:0:
184,184,98450,1,0,0:0:0:0:
184,184,98600,1,0,0:0:0:0:
184,184,98750,1,0,0:0:0:0:
184,184,98900,1,0,0:0:0:0:
184,184,99050,1,0,0:0:0:0:
184,184,99200,1,0,0:0:0:0:
184,184,99350,1,0,0:0:0:0:
184,184,99500,1,0,0:0:0:0:
184,184,99650,1,0,0:0:0:0:
184,184,99800,1,0,0:0:0:0:
184,184,99950,1,0,0:0:0:0:
184,184,100100,1,0,0:0:0:0:
184,184,100250,1,0,0:0:0:0:
184,184,100400,1,0,0:0:0:0:
184,184,100550,1,0,0:0:0:0:
184,184,100700,1,8,0:0:0:0:
184,184,100850,1,8,0:0:0:0:
184,184,101000,1,8,0:0:0:0:
184,184,101150,1,8,0:0:0:0:
184,184,101300,1,0,0:0:0:0:
184,184,101450,1,0,0:0:0:0:
184,184,101600,1,0,0:0:0:0:
184,184,101750,1,0,0:0:0:0:
184,184,101900,1,8,0:0:0:0:
184,184,102050,1,8,0:0:0:0:
184,184,102200,1,8,0:0:0:0:
184,184,102350,1,8,0:0:0:0:
184,184,102500,1,0,0:0:0:0:
184,184,102650,1,0,0:0:0:0:
184,184,102800,1,0,0:0:0:0:
184,184,102950,1,0,0:0:0:0:
184,184,103100,1,8,0:0:0:0:
184,184,103250,1,8,0:0:0:0:
184,184,103400,1,0,0:0:0:0:
184,184,103550,1,0,0:0:0:0:
184,184,103700,1,8,0:0:0:0:
184,184,103850,1,8,0:0:0:0:
184,184,104000,1,0,0:0:0:0:
184,184,104150,1,0,0:0:0:0:
184,184,104300,1,8,0:0:0:0:
184,184,104375,1,8,0:0:0:0:
184,184,104450,1,8,0:0:0:0:
184,184,104600,1,0,0:0:0:0:
184,184,104675,1,0,0:0:0:0:
184,184,104750,1,0,0:0:0:0:
184,184,104900,1,8,0:0:0:0:
184,184,104975,1,8,0:0:0:0:
184,184,105050,1,8,0:0:0:0:
184,184,105200,1,0,0:0:0:0:
184,184,105275,1,0,0:0:0:0:
184,184,105350,1,0,0:0:0:0:
160,184,107900,1,0,0:0:0:0:
160,184,108090,1,0,0:0:0:0:
160,184,108185,1,0,0:0:0:0:
160,184,108376,1,0,0:0:0:0:
160,184,108471,1,0,0:0:0:0:
160,184,108757,1,0,0:0:0:0:
160,184,109042,1,0,0:0:0:0:
160,184,109185,1,0,0:0:0:0:
160,184,109257,1,0,0:0:0:0:
160,184,109328,1,0,0:0:0:0:
160,184,109471,1,0,0:0:0:0:
160,184,109542,1,0,0:0:0:0:
160,184,109614,1,0,0:0:0:0:
160,184,109900,1,0,0:0:0:0:
160,184,110185,1,0,0:0:0:0:
160,184,110280,1,0,0:0:0:0:
160,184,110376,1,0,0:0:0:0:
160,184,110471,1,0,0:0:0:0:
160,184,110757,1,0,0:0:0:0:
160,184,110828,1,0,0:0:0:0:
160,184,110900,1,0,0:0:0:0:
160,184,110971,1,0,0:0:0:0:
160,184,111042,1,0,0:0:0:0:
160,184,111328,1,0,0:0:0:0:
160,184,111399,1,0,0:0:0:0:
160,184,111471,1,0,0:0:0:0:
160,184,111542,1,0,0:0:0:0:
160,184,111613,1,0,0:0:0:0:
160,184,111900,1,0,0:0:0:0:
160,184,111995,1,0,0:0:0:0:
160,184,112091,1,0,0:0:0:0:
160,184,112186,1,0,0:0:0:0:
160,184,112471,1,0,0:0:0:0:
160,184,112743,1,0,0:0:0:0:
160,184,112925,1,0,0:0:0:0:
160,184,113016,1,0,0:0:0:0:
160,184,113198,1,0,0:0:0:0:
160,184,113380,1,0,0:0:0:0:
160,184,113561,1,0,0:0:0:0:
160,184,113834,1,0,0:0:0:0:
160,184,114016,1,0,0:0:0:0:
160,184,114107,1,0,0:0:0:0:
160,184,114289,1,0,0:0:0:0:
160,184,114471,1,0,0:0:0:0:
160,184,114652,1,8,0:0:0:0:
160,184,114834,1,8,0:0:0:0:
160,184,114925,1,8,0:0:0:0:
160,184,115198,1,8,0:0:0:0:
160,184,115380,1,8,0:0:0:0:
160,184,115471,1,8,0:0:0:0:
160,184,115743,1,0,0:0:0:0:
160,184,115814,1,0,0:0:0:0:
160,184,115886,1,0,0:0:0:0:
160,184,115957,1,0,0:0:0:0:
160,184,116028,1,0,0:0:0:0:
160,184,116289,1,0,0:0:0:0:
160,184,116380,1,0,0:0:0:0:
160,184,116471,1,0,0:0:0:0:
160,184,116561,1,0,0:0:0:0:
160,184,116834,1,0,0:0:0:0:
160,184,117007,1,0,0:0:0:0:
160,184,117094,1,0,0:0:0:0:
160,184,117268,1,0,0:0:0:0:
160,184,117355,1,0,0:0:0:0:
160,184,117616,1,0,0:0:0:0:
160,184,117877,1,0,0:0:0:0:
160,184,118007,1,0,0:0:0:0:
160,184,118073,1,0,0:0:0:0:
160,184,118138,1,0,0:0:0:0:
160,184,118268,1,0,0:0:0:0:
160,184,118334,1,0,0:0:0:0:
160,184,118399,1,0,0:0:0:0:
160,184,118660,1,0,0:0:0:0:
160,184,118920,1,0,0:0:0:0:
160,184,119007,1,0,0:0:0:0:
160,184,119094,1,0,0:0:0:0:
160,184,119181,1,0,0:0:0:0:
160,184,119442,1,0,0:0:0:0:
160,184,119507,1,0,0:0:0:0:
160,184,119573,1,0,0:0:0:0:
160,184,119638,1,0,0:0:0:0:
160,184,119703,1,0,0:0:0:0:
160,184,119964,1,0,0:0:0:0:
160,184,120029,1,0,0:0:0:0:
160,184,120095,1,0,0:0:0:0:
160,184,120160,1,0,0:0:0:0:
160,184,120225,1,0,0:0:0:0:
160,184,120486,1,0,0:0:0:0:
160,184,120573,1,0,0:0:0:0:
160,184,120660,1,0,0:0:0:0:
160,184,120747,1,0,0:0:0:0:
160,184,121007,1,0,0:0:0:0:
160,184,121257,1,0,0:0:0:0:
160,184,121423,1,0,0:0:0:0:
160,184,121507,1,0,0:0:0:0:
160,184,121673,1,0,0:0:0:0:
160,184,121840,1,0,0:0:0:0:
160,184,122007,1,0,0:0:0:0:
160,184,122257,1,0,0:0:0:0:
160,184,122423,1,0,0:0:0:0:
160,184,122507,1,0,0:0:0:0:
160,184,122673,1,0,0:0:0:0:
160,184,122840,1,0,0:0:0:0:
160,184,123007,1,8,0:0:0:0:
160,184,123173,1,8,0:0:0:0:
160,184,123257,1,8,0:0:0:0:
160,184,123507,1,8,0:0:0:0:
160,184,123673,1,8,0:0:0:0:
160,184,123757,1,8,0:0:0:0:
160,184,124007,1,0,0:0:0:0:
160,184,124069,1,0,0:0:0:0:
160,184,124132,1,0,0:0:0:0:
160,184,124194,1,0,0:0:0:0:
160,184,124257,1,0,0:0:0:0:
160,184,124507,1,0,0:0:0:0:
160,184,124594,1,0,0:0:0:0:
160,184,124681,1,0,0:0:0:0:
160,184,124768,1,0,0:0:0:0:
160,184,125007,1,0,0:0:0:0:
160,184,125090,1,0,0:0:0:0:
160,184,125173,1,0,0:0:0:0:
160,184,125257,1,0,0:0:0:0:
160,184,125340,1,0,0:0:0:0:
160,184,125423,1,0,0:0:0:0:
160,184,125507,1,8,0:0:0:0:
160,184,125590,1,8,0:0:0:0:
160,184,125673,1,8,0:0:0:0:
160,184,125757,1,8,0:0:0:0:
160,184,125840,1,8,0:0:0:0:
160,184,125923,1,8,0:0:0:0:
256,192,126007,12,0,130007,0:0:0:0:
