osu file format v13

[General]
AudioFilename: Hatsune Miku no Shoushitsu -Gekijouban-.mp3
AudioLeadIn: 0
PreviewTime: 86600
Countdown: 0
SampleSet: None
StackLeniency: 0.7
Mode: 1
LetterboxInBreaks: 0
WidescreenStoryboard: 1

[Editor]
Bookmarks: 39500
DistanceSpacing: 0.8
BeatDivisor: 4
GridSize: 8
TimelineZoom: 1.8

[Metadata]
Title:Hatsune Miku no Shoushitsu ~Gekijouban~
TitleUnicode:初音ミクの消失 ~劇場版~
Artist:Hatsune Miku
ArtistUnicode:初音ミク
Creator:TaMul
Version:Futsuu
Source:Taiko no Tatsujin
Tags:
BeatmapID:454577
BeatmapSetID:190934

[Difficulty]
HPDrainRate:4
CircleSize:5
OverallDifficulty:4
ApproachRate:4
SliderMultiplier:1.4
SliderTickRate:1

[Events]
//Background and Video events
0,0,"328411-1366x768.jpg",0,120
//Break Periods
//Storyboard Layer 0 (Background)
//Storyboard Layer 1 (Fail)
//Storyboard Layer 2 (Pass)
//Storyboard Layer 3 (Foreground)
//Storyboard Sound Samples
//Background Colour Transformations
3,100,163,162,255

[TimingPoints]
1100,600,4,1,0,100,1,0
10700,300,4,1,0,100,1,0
51500,-100,4,1,0,100,0,1
61100,-100,4,1,0,100,0,0
76700,-200,4,1,0,100,0,0
86300,-100,4,1,0,100,0,0
95900,-100,4,1,0,100,0,1
105500,-100,4,1,0,100,0,0
107900,285.714285714286,4,1,0,100,1,1
112471,272.727272727273,4,1,0,100,1,1
116834,260.869565217391,4,1,0,100,1,1
121007,250,4,1,0,100,1,1
126007,-100,4,1,0,100,0,0

[Colours]
Combo1 : 0,255,255
Combo2 : 255,0,0

[HitObjects]
216,176,10700,5,4,0:0:0:0:
208,224,15500,1,4,0:0:0:0:
224,232,17900,1,4,0:0:0:0:
224,232,18500,1,4,0:0:0:0:
224,232,19100,2,4,P|144:272|240:200,1,560
208,192,22700,1,0,0:0:0:0:
208,192,23000,1,0,0:0:0:0:
208,192,23300,1,0,0:0:0:0:
208,192,23900,1,0,0:0:0:0:
208,192,24200,1,0,0:0:0:0:
208,192,24500,1,0,0:0:0:0:
208,192,25100,1,0,0:0:0:0:
208,192,25400,1,0,0:0:0:0:
208,192,25700,1,8,0:0:0:0:
208,192,26000,1,8,0:0:0:0:
208,192,26300,1,0,0:0:0:0:
208,192,26600,1,0,0:0:0:0:
208,192,26900,1,0,0:0:0:0:
208,192,27500,1,0,0:0:0:0:
208,192,27800,1,0,0:0:0:0:
208,192,28100,1,0,0:0:0:0:
208,192,28700,1,0,0:0:0:0:
208,192,29000,1,0,0:0:0:0:
208,192,29300,1,0,0:0:0:0:
208,192,29900,1,0,0:0:0:0:
208,192,30200,1,0,0:0:0:0:
208,192,30500,1,8,0:0:0:0:
208,192,30800,1,8,0:0:0:0:
208,192,31100,1,0,0:0:0:0:
208,192,31400,1,0,0:0:0:0:
208,192,31700,1,0,0:0:0:0:
208,192,32300,1,0,0:0:0:0:
208,192,32900,1,8,0:0:0:0:
208,192,33500,1,0,0:0:0:0:
208,192,34100,1,8,0:0:0:0:
208,192,34400,1,8,0:0:0:0:
208,192,34700,1,0,0:0:0:0:
208,192,35300,1,8,0:0:0:0:
208,192,35900,1,0,0:0:0:0:
208,192,36200,1,0,0:0:0:0:
224,120,36500,2,0,P|272:152|264:240,1,140
208,192,37100,1,0,0:0:0:0:
208,192,37400,1,0,0:0:0:0:
224,264,37700,2,0,P|272:232|264:144,1,140
208,192,38300,1,0,0:0:0:0:
208,192,38600,1,0,0:0:0:0:
192,120,38900,2,0,P|144:152|152:240,1,140
208,192,39500,1,0,0:0:0:0:
208,192,39800,1,0,0:0:0:0:
192,264,40100,2,0,P|144:232|152:144,1,140
208,192,40700,1,0,0:0:0:0:
208,192,41000,1,0,0:0:0:0:
208,192,41300,1,0,0:0:0:0:
208,192,41900,1,0,0:0:0:0:
208,192,42500,1,0,0:0:0:0:
208,192,43100,1,0,0:0:0:0:
208,192,43700,1,0,0:0:0:0:
208,192,44000,1,0,0:0:0:0:
208,192,44300,1,0,0:0:0:0:
200,192,44900,1,0,0:0:0:0:
200,192,45500,1,0,0:0:0:0:
200,192,46100,1,0,0:0:0:0:
200,192,46400,1,0,0:0:0:0:
200,192,46700,1,0,0:0:0:0:
200,192,47300,1,8,0:0:0:0:
200,192,47600,1,0,0:0:0:0:
200,192,47750,1,0,0:0:0:0:
200,192,47900,1,0,0:0:0:0:
200,192,48500,1,8,0:0:0:0:
200,192,48800,1,0,0:0:0:0:
200,192,48950,1,0,0:0:0:0:
200,192,49100,1,0,0:0:0:0:
200,192,49700,1,8,0:0:0:0:
200,192,50000,1,0,0:0:0:0:
200,192,50150,1,0,0:0:0:0:
256,192,50300,12,0,51200,0:0:0:0:
200,192,51500,5,0,0:0:0:0:
200,200,51800,1,0,0:0:0:0:
200,200,52100,1,0,0:0:0:0:
200,200,52250,1,0,0:0:0:0:
200,200,52400,1,0,0:0:0:0:
200,192,52700,5,0,0:0:0:0:
200,200,53000,1,0,0:0:0:0:
200,200,53300,1,0,0:0:0:0:
200,200,53450,1,0,0:0:0:0:
200,200,53600,1,0,0:0:0:0:
200,192,53900,5,0,0:0:0:0:
200,200,54200,1,0,0:0:0:0:
200,200,54500,1,0,0:0:0:0:
200,200,54650,1,0,0:0:0:0:
200,200,54800,1,0,0:0:0:0:
200,192,55100,5,0,0:0:0:0:
200,200,55400,1,0,0:0:0:0:
200,200,55700,1,0,0:0:0:0:
200,200,55850,1,0,0:0:0:0:
200,200,56000,1,0,0:0:0:0:
200,200,56300,1,0,0:0:0:0:
200,200,56450,1,0,0:0:0:0:
200,200,56600,1,0,0:0:0:0:
200,200,56900,1,0,0:0:0:0:
200,200,57050,1,0,0:0:0:0:
200,200,57200,1,0,0:0:0:0:
200,200,57500,1,0,0:0:0:0:
200,200,57650,1,0,0:0:0:0:
200,200,57800,1,0,0:0:0:0:
200,200,58100,1,0,0:0:0:0:
200,200,58250,1,0,0:0:0:0:
200,200,58400,1,0,0:0:0:0:
200,200,58700,1,0,0:0:0:0:
200,200,58850,1,0,0:0:0:0:
200,200,59000,1,0,0:0:0:0:
200,200,59150,1,0,0:0:0:0:
200,200,59300,1,0,0:0:0:0:
200,200,59450,1,0,0:0:0:0:
200,200,59600,1,0,0:0:0:0:
200,200,59900,1,0,0:0:0:0:
200,200,60050,1,0,0:0:0:0:
200,200,60200,1,0,0:0:0:0:
200,200,60350,1,0,0:0:0:0:
200,200,60500,1,0,0:0:0:0:
200,200,60650,1,0,0:0:0:0:
200,200,60800,1,0,0:0:0:0:
200,200,61100,1,0,0:0:0:0:
200,200,61400,1,8,0:0:0:0:
200,200,62000,1,8,0:0:0:0:
200,200,62300,1,0,0:0:0:0:
200,200,62600,1,0,0:0:0:0:
200,200,63200,1,0,0:0:0:0:
200,192,63500,1,0,0:0:0:0:
200,200,63800,1,8,0:0:0:0:
200,200,64400,1,8,0:0:0:0:
200,200,64700,1,0,0:0:0:0:
200,200,65300,1,0,0:0:0:0:
200,200,65450,1,0,0:0:0:0:
200,200,65600,1,0,0:0:0:0:
200,200,65900,1,8,0:0:0:0:
200,200,66200,1,8,0:0:0:0:
200,200,66500,1,0,0:0:0:0:
200,200,66650,1,0,0:0:0:0:
200,200,66800,1,0,0:0:0:0:
200,200,67100,1,8,0:0:0:0:
200,200,67400,1,8,0:0:0:0:
200,200,67700,1,0,0:0:0:0:
200,200,67850,1,0,0:0:0:0:
200,200,68000,1,0,0:0:0:0:
200,200,68300,1,0,0:0:0:0:
200,200,68450,1,0,0:0:0:0:
200,200,68600,1,0,0:0:0:0:
168,112,68900,2,0,P|264:120|256:272,1,280
208,200,70850,1,4,0:0:0:0:
208,200,71000,1,4,0:0:0:0:
208,200,71300,1,4,0:0:0:0:
208,200,71450,1,4,0:0:0:0:
208,200,71900,1,4,0:0:0:0:
128,264,73250,1,4,0:0:0:0:
128,264,73400,1,4,0:0:0:0:
128,264,73700,1,4,0:0:0:0:
128,264,73850,1,4,0:0:0:0:
128,264,74300,1,4,0:0:0:0:
128,264,74900,1,4,0:0:0:0:
256,192,75500,12,0,76400,0:0:0:0:
224,208,76700,5,0,0:0:0:0:
224,208,77000,1,0,0:0:0:0:
224,208,77300,1,8,0:0:0:0:
224,208,77900,1,0,0:0:0:0:
224,208,78500,1,8,0:0:0:0:
224,208,79100,1,0,0:0:0:0:
224,208,79400,1,0,0:0:0:0:
224,208,79700,1,8,0:0:0:0:
224,208,80300,1,8,0:0:0:0:
224,208,80900,1,8,0:0:0:0:
224,208,81500,5,0,0:0:0:0:
224,208,81800,1,0,0:0:0:0:
224,208,82100,1,8,0:0:0:0:
224,208,82700,1,0,0:0:0:0:
224,208,83300,1,8,0:0:0:0:
224,208,83900,1,0,0:0:0:0:
224,208,84200,1,0,0:0:0:0:
224,208,84500,1,8,0:0:0:0:
224,208,85100,1,8,0:0:0:0:
224,208,85700,1,8,0:0:0:0:
224,208,86300,1,0,0:0:0:0:
224,208,86600,1,8,0:0:0:0:
224,208,86900,1,0,0:0:0:0:
224,208,87050,1,0,0:0:0:0:
224,208,87200,1,8,0:0:0:0:
224,208,87500,1,0,0:0:0:0:
224,208,87800,1,8,0:0:0:0:
224,208,88100,1,0,0:0:0:0:
224,208,88250,1,0,0:0:0:0:
224,208,88400,1,8,0:0:0:0:
224,208,88700,1,0,0:0:0:0:
224,208,88850,1,0,0:0:0:0:
224,208,89000,1,8,0:0:0:0:
224,208,89300,1,0,0:0:0:0:
224,208,89450,1,0,0:0:0:0:
224,208,89600,1,8,0:0:0:0:
224,208,89900,1,0,0:0:0:0:
224,208,90200,1,0,0:0:0:0:
224,208,90350,1,0,0:0:0:0:
224,208,91100,1,0,0:0:0:0:
224,208,91400,1,8,0:0:0:0:
224,208,91700,1,0,0:0:0:0:
224,208,91850,1,0,0:0:0:0:
224,208,92000,1,8,0:0:0:0:
224,208,92300,1,0,0:0:0:0:
224,208,92600,1,8,0:0:0:0:
224,208,92900,1,0,0:0:0:0:
224,208,93050,1,0,0:0:0:0:
224,208,93200,1,8,0:0:0:0:
224,208,93500,1,0,0:0:0:0:
224,208,93650,1,0,0:0:0:0:
224,208,93800,1,8,0:0:0:0:
224,208,94100,1,0,0:0:0:0:
224,208,94250,1,0,0:0:0:0:
224,208,94400,1,8,0:0:0:0:
224,208,94700,1,4,0:0:0:0:
224,208,95000,1,4,0:0:0:0:
224,208,95300,1,4,0:0:0:0:
224,208,95600,1,4,0:0:0:0:
224,208,95900,1,0,0:0:0:0:
224,208,96200,1,0,0:0:0:0:
224,208,96500,1,0,0:0:0:0:
224,208,96800,1,0,0:0:0:0:
224,208,97100,1,0,0:0:0:0:
224,208,97400,1,0,0:0:0:0:
224,208,97700,1,0,0:0:0:0:
224,208,98000,1,0,0:0:0:0:
224,208,98300,1,0,0:0:0:0:
224,208,98450,1,0,0:0:0:0:
224,208,98600,1,0,0:0:0:0:
224,208,98900,1,0,0:0:0:0:
224,208,99050,1,0,0:0:0:0:
224,208,99200,1,0,0:0:0:0:
224,208,99500,1,0,0:0:0:0:
224,208,99650,1,0,0:0:0:0:
224,208,99800,1,0,0:0:0:0:
224,208,100100,1,0,0:0:0:0:
224,208,100250,1,0,0:0:0:0:
224,208,100400,1,0,0:0:0:0:
224,208,100700,1,0,0:0:0:0:
224,208,100850,1,0,0:0:0:0:
224,208,101000,1,0,0:0:0:0:
224,208,101150,1,0,0:0:0:0:
224,208,101300,1,0,0:0:0:0:
224,208,101450,1,0,0:0:0:0:
224,208,101600,1,0,0:0:0:0:
224,208,101900,1,0,0:0:0:0:
224,208,102050,1,0,0:0:0:0:
224,208,102200,1,0,0:0:0:0:
224,208,102350,1,0,0:0:0:0:
224,208,102500,1,0,0:0:0:0:
224,208,102650,1,0,0:0:0:0:
224,208,102800,1,0,0:0:0:0:
224,208,103100,1,0,0:0:0:0:
224,208,103250,1,0,0:0:0:0:
224,208,103400,1,0,0:0:0:0:
224,208,103550,1,0,0:0:0:0:
224,208,103700,1,0,0:0:0:0:
224,208,103850,1,0,0:0:0:0:
224,208,104000,1,0,0:0:0:0:
224,208,104150,1,0,0:0:0:0:
224,208,104300,1,0,0:0:0:0:
224,208,104450,1,0,0:0:0:0:
224,208,104600,1,0,0:0:0:0:
224,208,104750,1,0,0:0:0:0:
224,208,104900,1,0,0:0:0:0:
224,208,105050,1,0,0:0:0:0:
224,208,105200,1,0,0:0:0:0:
224,208,105350,1,0,0:0:0:0:
224,208,107900,1,0,0:0:0:0:
224,208,108185,1,0,0:0:0:0:
224,208,108471,1,0,0:0:0:0:
224,208,109042,1,0,0:0:0:0:
224,208,109327,1,0,0:0:0:0:
224,208,109613,1,0,0:0:0:0:
224,208,110185,1,0,0:0:0:0:
224,208,110471,1,0,0:0:0:0:
224,208,110757,1,8,0:0:0:0:
224,208,111042,1,8,0:0:0:0:
224,208,111328,1,0,0:0:0:0:
224,208,111471,1,0,0:0:0:0:
224,208,111614,1,0,0:0:0:0:
224,208,111900,1,0,0:0:0:0:
224,208,112471,1,0,0:0:0:0:
224,200,112743,1,0,0:0:0:0:
232,200,113016,1,0,0:0:0:0:
232,200,113561,1,0,0:0:0:0:
232,200,113834,1,0,0:0:0:0:
232,200,114107,1,0,0:0:0:0:
232,200,114652,1,0,0:0:0:0:
232,200,114925,1,0,0:0:0:0:
232,200,115198,1,8,0:0:0:0:
232,200,115471,1,8,0:0:0:0:
232,200,115743,1,0,0:0:0:0:
232,200,115880,1,0,0:0:0:0:
232,200,116016,1,0,0:0:0:0:
232,200,116289,1,0,0:0:0:0:
232,200,116834,1,0,0:0:0:0:
232,200,117094,1,0,0:0:0:0:
232,200,117355,1,0,0:0:0:0:
232,200,117877,1,0,0:0:0:0:
232,200,118138,1,0,0:0:0:0:
232,200,118399,1,0,0:0:0:0:
232,200,118920,1,0,0:0:0:0:
232,200,119181,1,0,0:0:0:0:
232,200,119442,1,8,0:0:0:0:
232,200,119703,1,8,0:0:0:0:
232,200,119964,1,0,0:0:0:0:
232,200,120094,1,0,0:0:0:0:
232,200,120225,1,0,0:0:0:0:
232,200,120486,1,0,0:0:0:0:
232,200,120616,1,0,0:0:0:0:
232,200,120747,1,0,0:0:0:0:
232,200,121007,1,0,0:0:0:0:
232,200,121257,1,0,0:0:0:0:
232,200,121507,1,0,0:0:0:0:
232,200,122007,1,0,0:0:0:0:
232,200,122257,1,0,0:0:0:0:
232,200,122507,1,0,0:0:0:0:
232,200,123007,1,0,0:0:0:0:
232,200,123257,1,0,0:0:0:0:
232,200,123507,1,8,0:0:0:0:
232,200,123757,1,8,0:0:0:0:
232,200,124007,1,0,0:0:0:0:
232,200,124132,1,0,0:0:0:0:
232,200,124257,1,0,0:0:0:0:
232,200,124507,1,0,0:0:0:0:
232,200,124632,1,0,0:0:0:0:
232,200,124757,1,0,0:0:0:0:
232,200,125007,1,0,0:0:0:0:
232,200,125257,1,0,0:0:0:0:
232,200,125507,1,8,0:0:0:0:
232,200,125757,1,8,0:0:0:0:
256,192,126007,12,8,130007,0:0:0:0:
