osu file format v9

[General]
AudioFilename: Hatsune Miku - Hatsune Miku no Shoushitsu -Dead End-.mp3
AudioLeadIn: 0
PreviewTime: 114706
Countdown: 1
SampleSet: Normal
StackLeniency: 0.7
Mode: 0
LetterboxInBreaks: 1

[Editor]
Bookmarks: 74706,82706,90706,100706,114706,122706,138706,162706,178706,185456,194706,210706,226706,234706,242706,250706,258705,266706
DistanceSpacing: 0.8
BeatDivisor: 4
GridSize: 8

[Metadata]
Title:Hatsune Miku no Shoushitsu -DEAD END- (Full Ver.)
Artist:Hatsune Miku
Creator:Miu Matsuoka
Version:Uninstall
Source:cosMo
Tags:vocaloid the disappearance of hatsune miku _Gezo_ _LRJ_

[Difficulty]
HPDrainRate:8
CircleSize:5
OverallDifficulty:8
ApproachRate:8
SliderMultiplier:1.6
SliderTickRate:0.5

[Events]
//Background and Video events
Video,0,"hatsunemikunoshoushitsu-vid.avi"
0,0,"miku11.jpg"
//Break Periods
2,138906,161956
2,226906,233956
//Storyboard Layer 0 (Background)
//Storyboard Layer 1 (Fail)
//Storyboard Layer 2 (Pass)
//Storyboard Layer 3 (Foreground)
//Storyboard Sound Samples
//Background Colour Transformations
3,100,163,162,255

[TimingPoints]
26706,250,4,1,1,100,1,0
90456,-200,4,1,1,100,0,0
90956,-100,4,1,1,100,0,0
122706,-100,4,1,1,100,0,1
138456,-200,4,2,1,0,0,1
138706,-200,4,2,1,50,0,0
162706,-200,4,1,1,81,0,0
178706,-100,4,1,1,100,0,0
194456,-200,4,1,1,100,0,0
194956,-100,4,1,1,100,0,0
226706,-100,4,1,1,100,0,1
258705,-100,4,2,1,100,0,0
262706,-100,4,1,0,100,0,0
274956,-100,4,2,1,0,0,0

[Colours]
Combo1 : 128,128,0
Combo2 : 0,128,0
Combo3 : 0,128,192
Combo4 : 128,0,128

[HitObjects]
40,192,74706,5,4
168,192,74956,1,2
168,128,75081,2,0,B|200:96|280:96|320:128,1,160
320,192,75456,1,2
384,192,75581,1,0
448,192,75706,6,0,B|448:256|408:296|344:304,1,160,0|2
288,304,76081,1,2
224,304,76206,2,0,B|56:304,1,160,0|2
64,176,76706,6,0,B|136:224|224:176,1,160,0|2
216,120,77081,2,0,B|216:312,1,160
216,216,77456,2,0,B|296:240|384:216,3,160,2|0|2|0
376,152,78331,1,0
376,88,78456,1,2
376,88,78706,6,0,B|376:272,1,160,0|2
312,248,79081,1,0
312,248,79331,1,0
248,248,79456,1,2
184,248,79581,1,0
184,184,79706,2,0,B|184:344,1,160,0|2
128,184,80206,2,0,B|128:16,1,160,0|2
128,88,80581,1,0
128,88,80706,2,0,B|64:96|24:144|24:208,1,160,0|2
128,296,81081,2,0,B|64:288|24:240|24:176,1,160
112,192,81456,1,2
240,192,81706,1,0
240,64,81956,1,2
240,64,82081,1,2
304,64,82206,2,0,B|384:64,1,80
448,64,82456,1,2
448,96,82518,1,2
448,128,82581,1,2
448,160,82643,1,2
448,192,82706,6,0,B|448:248|416:288|344:296,1,160,4|2
344,232,83081,2,0,B|176:232,1,160
184,232,83456,1,2
120,232,83581,1,2
56,232,83706,5,0
56,104,83956,1,2
56,104,84081,1,0
120,104,84206,2,0,B|120:296,1,160,0|2
248,264,84706,6,0,B|256:320|304:360|384:352,1,160,0|2
424,352,85081,2,0,B|424:192,1,160
488,192,85456,2,0,B|488:104,1,80,2|2
488,112,85706,1,0
360,112,85956,1,2
360,112,86081,1,2
360,112,86206,2,0,B|192:112,1,160,0|2
72,112,86706,6,0,B|40:128|40:248|72:264,3,160,0|2|0|2
128,264,87581,1,2
192,264,87706,2,0,B|360:264,1,160,0|2
352,200,88081,1,0
352,136,88206,1,0
480,136,88456,1,2
480,8,88706,6,0,B|312:8,1,160
256,8,89081,2,0,B|256:96|184:96|184:96|184:160,1,160,2|0
184,192,89456,1,2
184,256,89581,1,0
184,320,89706,2,0,B|160:360|88:360|88:360|88:304,1,160,0|2
88,176,90206,1,2
88,112,90456,2,0,B|96:120|96:120|96:112|96:112|104:120|104:120|104:112|104:112|112:120|112:120|112:112|112:112|120:120|120:120|120:112|120:112|128:120|128:120|128:112|128:112|136:120|136:120|136:112|136:112|144:120|144:120|144:112|144:112|152:120|152:120|152:112|152:112|160:120,1,160,0|0
288,112,91206,1,0
416,112,91456,1,2
416,48,91581,2,0,B|416:232,1,160
416,336,92081,1,0
416,336,92331,1,0
352,336,92456,1,2
288,336,92581,1,0
224,336,92706,6,0,B|224:176,2,160,0|2|0
224,272,93331,1,0
224,272,93456,1,2
160,272,93581,2,0,B|112:272|56:240|56:160,1,160
56,104,93956,1,0
56,40,94081,2,0,B|128:40|128:40|160:96|208:96,1,160
193,94,94456,1,2
320,96,94706,5,0
432,32,94956,1,2
432,96,95081,1,0
432,160,95206,2,0,B|432:240,2,80
368,160,95581,2,0,B|360:264|256:264,1,160
200,264,95956,1,2
200,200,96081,1,0
136,200,96206,2,0,B|136:368,1,160,0|2
32,192,96706,6,0,B|224:192,1,160,0|2
480,192,97206,2,0,B|288:192,1,160,0|2
72,80,97706,2,0,B|264:80,1,160,0|2
440,80,98206,2,0,B|248:80,1,160,0|2
368,168,98706,6,0,B|432:168|472:208|472:280,1,160,0|2
408,272,99081,2,0,B|344:272|304:296|304:368,1,160
240,368,99456,2,0,B|168:368|128:328|128:264,1,160,2|0
64,272,99831,2,0,B|64:112,1,160
64,112,100206,1,2
64,112,100456,1,2
192,112,100706,5,0
296,32,100956,1,10
344,72,101081,1,8
296,112,101206,1,10
344,152,101331,1,8
296,192,101456,1,10
344,232,101581,1,8
296,272,101706,1,10
344,312,101831,1,10
296,352,101956,1,10
424,352,102206,1,10
472,312,102331,1,2
424,272,102456,1,10
424,144,102706,6,0,B|240:144,1,160,4|2
200,144,103081,2,0,B|144:144|120:72|120:72|64:72,1,160
72,136,103456,1,2
72,136,103581,2,0,B|72:296,1,160
72,296,104081,1,0
184,360,104331,5,0
184,296,104456,1,0
184,232,104581,1,0
184,168,104706,1,4
312,168,104956,1,0
312,232,105081,1,4
312,360,105331,1,0
312,296,105456,1,4
440,296,105706,5,2
504,296,105831,1,2
504,232,105956,1,2
504,168,106081,1,2
440,168,106206,2,0,B|400:168,2,40,2|2|2
440,104,106456,2,0,B|400:104,2,40,2|2|2
504,104,106706,6,0,B|336:104,1,160,4|2
344,40,107081,1,0
344,40,107331,1,0
280,40,107456,1,2
216,40,107581,1,0
152,40,107706,2,0,B|96:40|56:88|56:152,1,160,0|2
56,272,108206,2,0,B|56:208|56:208|120:208|120:144,1,160,0|2
184,152,108581,2,0,B|184:216|184:216|136:240|136:304,1,160,0|2
136,360,108956,2,0,B|240:360,1,80,2|2
344,360,109331,2,0,B|256:360,1,80,0|2
264,232,109706,6,0,B|448:232,1,160,0|2
424,296,110081,1,0
424,296,110206,2,0,B|424:128,1,160,0|2
296,136,110706,6,0,B|296:72|296:72|352:72|384:24,1,160,0|2
504,32,111206,1,0
504,96,111331,1,0
504,160,111456,1,2
392,224,111706,2,0,B|224:224,1,160,0|2
232,160,112081,2,0,B|232:104|192:64|120:64,1,160
64,64,112456,1,2
64,192,112706,5,0
64,320,112956,1,2
192,320,113206,1,0
192,192,113456,1,2
256,192,113581,1,2
256,320,113831,1,0
320,320,113956,1,0
384,320,114081,1,0
448,320,114206,1,0
448,320,114456,1,0
448,288,114518,1,0
448,256,114581,1,0
448,224,114643,1,0
448,192,114706,6,0,B|448:128|448:128|384:120|376:72,1,160,4|0
376,8,115081,2,0,B|312:8|312:8|312:64|240:64,1,160,0|0
184,64,115456,1,0
120,64,115581,1,0
56,64,115706,2,0,B|56:248,1,160,0|0
56,352,116206,2,0,B|56:288|56:288|120:288|120:216,1,160,0|0
120,168,116581,1,0
120,168,116706,2,0,B|280:168,1,160
280,232,117081,2,0,B|280:56,1,160
216,72,117456,1,0
344,72,117706,6,0,B|400:72|448:112|448:176,1,160
448,296,118206,2,0,B|392:296|344:256|344:192,1,160
344,328,118706,6,0,B|184:328,1,160
56,328,119206,2,0,B|120:328|120:328|128:264|192:264,1,160
56,256,119706,2,0,B|56:96,1,160
56,160,120081,1,0
56,160,120456,1,0
184,160,120706,5,0
184,32,120956,1,8
248,48,121081,1,8
312,64,121206,1,8
312,128,121331,1,8
312,192,121456,1,8
376,208,121581,1,8
440,224,121706,1,8
440,352,121956,1,2
440,352,122206,1,2
440,352,122456,1,2
312,352,122706,6,0,B|144:352,1,160,4|2
24,352,123206,1,0
24,224,123456,1,2
88,224,123581,1,0
152,224,123706,2,0,B|152:160|88:160|88:160|88:96,1,160,0|2
216,104,124206,2,0,B|216:48|256:8|328:8,1,160,0|2
448,8,124706,6,0,B|448:168,1,160,0|2
384,168,125081,2,0,B|384:232|448:232|448:232|448:288,1,160
448,352,125456,1,2
320,352,125706,5,0
320,224,125956,1,2
192,224,126206,1,0
192,352,126456,1,2
64,352,126706,6,0,B|64:192,1,160,0|2
80,64,127206,2,0,B|144:64|192:96|192:168,1,160,0|2
320,152,127706,2,0,B|320:96|368:64|440:64,1,160,0|2
432,192,128206,2,0,B|432:248|384:280|312:280,1,160,0|2
192,280,128706,5,4
192,152,128956,1,2
320,152,129206,1,0
320,152,129331,1,0
320,152,129456,1,2
320,24,129706,1,2
192,24,129956,1,2
192,152,130206,1,2
192,280,130456,1,2
64,280,130706,5,4
64,152,130956,1,2
192,152,131206,1,0
192,24,131456,2,0,B|312:24,1,106.666666666667,2|2
344,24,131706,1,0
344,152,131956,1,2
344,152,132206,1,0
344,152,132456,1,2
456,88,132706,6,0,B|456:144|456:144|456:208|416:216|368:216,1,160,0|2
272,216,133206,2,0,B|96:216,1,160,0|2
112,304,133622,1,2
112,304,133706,2,0,B|272:304,1,160,0|2
400,304,134206,1,0
400,304,134456,1,2
400,176,134706,6,0,B|320:176|288:128|288:64,1,160,0|2
176,144,135206,2,0,B|8:144,1,160,0|2
72,208,135622,1,2
72,208,135706,2,0,B|72:280|112:320|176:320,1,160,0|2
288,320,136206,1,0
288,320,136456,1,2
416,320,136706,5,2
464,200,136956,1,2
416,80,137206,1,2
296,120,137456,1,2
176,80,137706,1,2
128,200,137956,1,2
176,320,138206,1,2
296,264,138456,2,0,B|296:344,1,80,0|0
256,344,162706,5,0
320,344,162956,2,0,B|424:344|304:256|416:256,1,160,2|2
480,256,163706,1,0
480,192,163956,1,2
416,192,164206,1,0
416,128,164456,1,2
352,128,164706,5,0
288,128,164956,2,0,B|184:128|304:40|192:40,1,160,2|2
128,40,165706,1,0
64,40,165956,1,2
64,40,166081,1,2
64,40,166206,1,0
64,104,166456,1,2
64,168,166706,6,0,B|64:336,1,160
64,264,167456,1,2
64,264,167706,2,0,B|184:264,1,120
184,264,168206,1,2
184,264,168456,1,2
184,328,168706,6,0,B|248:328|248:328|248:264|320:264,1,160
368,264,169456,1,0
368,328,169706,2,0,B|432:328|432:328|432:264|504:264,1,160
488,136,170706,6,0,B|488:64|488:64|448:64|416:16,1,160
416,80,171456,1,0
416,80,171581,1,0
416,80,171706,2,0,B|416:144|416:144|352:144|352:208,1,160
288,200,172456,1,2
288,200,172706,2,0,B|288:72,2,120,0|2|2
224,200,173706,1,0
160,200,173956,1,2
224,200,174206,1,0
160,200,174456,1,2
96,200,174706,6,0,B|40:240|40:240|40:344,1,160,0|2
168,328,175706,2,0,B|256:328|256:328|312:272,1,160,0|2
424,328,176706,2,0,B|424:240,1,80,0|8
424,184,177206,1,0
424,184,177331,1,0
424,120,177518,1,8
360,120,177831,1,0
360,120,177956,1,0
360,56,178206,1,8
104,56,178706,5,0
104,184,178956,1,2
104,120,179081,1,0
104,248,179331,1,0
104,312,179456,2,0,B|16:312,2,80,2|0|0
232,312,179956,1,2
232,312,180081,1,0
232,312,180206,2,0,B|232:240|272:208|336:208,1,160,0|2
456,208,180706,5,0
456,80,180956,1,2
392,80,181081,2,0,B|360:48|272:48|240:80,1,160
176,80,181456,1,2
48,80,181706,2,0,B|48:248,1,160,0|2
48,304,182081,1,0
48,304,182206,1,0
176,304,182456,1,2
176,368,182581,1,0
176,304,182706,2,0,B|248:304|248:304|248:248|320:248,1,160,0|2
312,312,183081,1,0
376,312,183206,2,0,B|448:312|448:312|448:360|520:360,1,160,0|2
512,296,183581,1,0
512,232,183706,2,0,B|512:72,1,160,0|2
400,136,184206,2,0,B|232:136,1,160,0|2
240,72,184581,1,0
240,8,184706,6,0,B|176:16|176:72|176:72|96:72,1,160,0|2
56,72,185081,2,0,B|56:240,1,160
56,296,185456,1,2
56,296,185706,1,0
168,360,185956,2,0,B|280:360,1,80,2|2
248,296,186206,1,0
312,296,186331,1,0
312,360,186456,1,2
344,360,186518,1,2
376,360,186581,1,2
408,360,186643,1,2
440,360,186706,1,4
440,232,186956,5,2
504,232,187081,1,0
440,120,187331,1,0
376,120,187456,2,0,B|360:112|312:112|296:120,2,80,2|2|0
248,120,187956,1,2
248,120,188081,1,0
248,120,188206,2,0,B|248:288,1,160,0|2
128,232,188706,2,0,B|48:232|16:184|16:128,1,160,0|2
16,80,189081,2,0,B|80:80|80:144|80:144|160:144,1,160
136,80,189456,1,2
264,80,189706,5,0
264,208,189956,1,2
392,208,190206,1,0
392,144,190331,1,0
392,80,190456,1,2
392,80,190706,6,0,B|456:80|456:152|456:152|456:208,1,160,0|2
456,264,191081,2,0,B|448:328|408:360|336:360,1,160
280,360,191456,1,2
280,360,191581,1,0
216,360,191706,2,0,B|40:360,1,160,0|2
56,296,192081,2,0,B|56:128,2,160,0|0|2
120,296,192706,5,0
248,296,192956,1,2
248,296,193081,1,2
248,296,193206,1,2
280,168,193456,1,2
280,168,193581,1,2
280,168,193706,1,2
408,168,193956,1,2
408,168,194081,1,2
408,168,194206,1,2
408,104,194456,2,0,B|400:112|400:112|400:104|400:104|392:112|392:112|392:104|392:104|384:112|384:112|384:104|384:104|376:112|376:112|376:104|376:104|368:112|368:112|368:104|368:104|360:112|360:112|360:104|360:104|352:112|352:112|352:104|352:104|344:112|344:112|344:104|344:104|336:112,1,160
232,40,195206,5,0
104,40,195456,1,2
40,40,195581,2,0,B|40:104|104:104|104:104|104:176,1,160
40,160,195956,1,0
40,160,196081,2,0,B|40:224|104:224|104:224|104:296,1,160
104,344,196456,2,0,B|168:344|168:280|168:280|240:280,1,160,2|0
352,280,196956,5,2
352,152,197206,2,0,B|544:152,1,160
512,216,197581,2,0,B|512:48,1,160
448,56,197956,1,2
384,56,198081,2,0,B|320:56|272:96|272:160,1,160
272,216,198456,1,2
272,216,198706,5,0
144,216,198956,1,2
144,88,199206,1,0
208,88,199331,1,0
144,88,199456,1,2
144,216,199706,6,0,B|144:288|192:320|272:320,1,160,0|2
368,312,200206,1,0
368,312,200456,1,2
496,312,200706,5,0
496,312,200956,1,2
440,200,201206,1,0
440,200,201456,1,2
376,88,201706,1,0
376,88,201956,1,2
248,88,202206,1,0
248,88,202456,1,2
184,88,202581,1,2
120,88,202706,6,0,B|56:88|56:160|56:160|0:160,1,160,0|2
8,224,203081,2,0,B|8:288|56:320|120:320,1,160
112,256,203456,2,0,B|176:256|176:320|176:320|240:320,1,160,2|0
296,320,203831,2,0,B|456:320,1,160
456,256,204206,1,2
456,256,204456,1,2
456,128,204706,5,4
328,128,204956,1,8
272,96,205081,1,8
216,64,205206,1,8
160,96,205331,1,8
104,128,205456,1,8
160,160,205581,1,8
216,192,205706,1,8
272,168,205831,1,8
328,128,205956,1,8
328,256,206206,1,2
328,320,206331,1,2
264,320,206456,1,2
136,320,206706,6,0,B|136:264|64:264|64:264|64:200,1,160,0|2
64,144,207081,1,0
64,144,207331,1,0
192,144,207581,2,0,B|192:88|240:48|304:48,1,160
424,48,208081,1,0
424,48,208331,1,0
424,112,208456,1,0
424,176,208581,1,0
424,240,208706,1,4
424,240,208956,5,0
424,304,209081,1,4
424,304,209331,1,0
360,304,209456,1,4
360,304,209706,1,2
296,304,209831,1,2
232,304,209956,1,2
168,304,210081,1,2
104,304,210206,2,0,B|64:304,2,40,2|2|2
104,240,210456,2,0,B|64:240,2,40,2|2|2
168,240,210706,6,0,B|168:176|104:176|104:176|104:104,1,160,0|2
104,56,211081,1,0
168,56,211206,1,0
168,120,211331,1,0
232,120,211456,2,0,B|320:120,1,80,2|0
312,56,211706,6,0,B|376:56|376:120|376:120|448:120,3,160,0|2|0|2
496,120,212581,1,2
496,184,212706,1,4
496,312,212956,1,0
496,248,213081,1,0
384,312,213331,1,0
384,248,213456,1,2
272,312,213706,6,0,B|272:256|208:248|208:248|208:184,1,160,0|2
208,312,214206,2,0,B|48:312,1,160,0|2
48,248,214581,1,2
48,184,214706,2,0,B|120:184|120:248|120:248|200:248,1,160,0|2
176,120,215206,2,0,B|104:120|104:56|104:56|24:56,1,160,0|2
48,184,215706,2,0,B|208:184,1,160,0|2
272,184,216081,2,0,B|272:128|320:88|384:88,1,160
440,88,216456,1,2
440,216,216706,6,0,B|440:384,1,160,0|2
312,384,217206,2,0,B|152:384,1,160,0|2
152,320,217581,1,0
280,320,217831,1,0
344,320,217956,1,2
344,256,218081,1,2
280,256,218206,2,0,B|280:216,2,40,2|2|2
280,192,218456,2,0,B|280:152,2,40,2|2|2
216,192,218706,5,4
216,64,218956,1,2
216,128,219081,1,0
104,64,219331,1,0
104,128,219456,1,2
104,192,219581,1,0
104,256,219706,6,0,B|168:256|168:192|168:192|232:192,1,160,0|2
352,192,220206,2,0,B|416:192|416:256|416:256|480:256,1,160,0|2
472,192,220581,1,2
472,128,220706,6,0,B|472:64|432:32|368:32,1,160,0|2
304,32,221081,2,0,B|304:192,1,160
304,256,221456,1,2
176,256,221706,5,0
48,256,221956,1,2
48,128,222206,1,0
112,128,222331,1,0
176,128,222456,1,2
176,0,222706,6,0,B|240:0|288:40|288:104,1,160,0|2
288,224,223206,2,0,B|352:224|400:184|400:128,1,160,0|2
400,8,223706,1,0
400,136,223956,1,0
400,136,224081,2,0,B|400:264|400:264|400:312|360:328|320:328,1,240,0|2
192,328,224706,5,0
64,328,224956,1,2
64,200,225206,1,2
192,200,225456,1,2
192,200,225581,1,2
384,200,225956,1,0
384,72,226206,1,0
256,72,226456,1,0
256,200,226706,1,4
395,324,234706,6,0,B|344:336,2,53.3333333333333,4|0|0
343,336,234956,2,0,B|288:336,2,53.3333333333333
290,336,235206,2,0,B|232:352,2,53.3333333333333
239,350,235456,2,0,B|168:344,2,53.3333333333333
185,345,235706,2,0,B|112:352,2,53.3333333333333
132,350,235956,2,0,B|64:344,2,53.3333333333333
79,345,236206,2,0,B|48:304,2,53.3333333333333
47,303,236456,2,0,B|56:248,2,53.3333333333333
55,250,236706,6,0,B|32:192,2,53.3333333333333
35,200,236956,2,0,B|32:128,2,53.3333333333333
32,147,237206,2,0,B|24:88,2,53.3333333333333
25,94,237456,2,0,B|48:48,2,53.3333333333333
48,47,237706,2,0,B|112:56,2,53.3333333333333
104,56,237956,2,0,B|160:32,2,53.3333333333333
153,34,238206,2,0,B|224:32,2,53.3333333333333
206,32,238456,2,0,B|264:48,2,53.3333333333333
257,46,238706,6,0,B|320:32,2,53.3333333333333
309,34,238956,2,0,B|368:48,2,53.3333333333333
361,46,239206,2,0,B|432:64,2,53.3333333333333
412,59,239456,2,0,B|464:32,2,53.3333333333333
459,34,239706,2,0,B|512:80,2,53.3333333333333
499,69,239956,2,0,B|504:136,2,53.3333333333333
503,122,240206,2,0,B|496:192,2,53.3333333333333
497,175,240456,2,0,B|504:248,2,53.3333333333333
502,228,240706,6,0,B|496:296,2,53.3333333333333
464,240,240956,2,0,B|440:288,2,53.3333333333333
424,232,241206,2,0,B|400:184,2,53.3333333333333
384,240,241456,2,0,B|384:184,2,53.3333333333333
344,248,241706,2,0,B|320:296,2,53.3333333333333
304,232,241956,2,0,B|280:184,2,53.3333333333333
264,232,242206,2,0,B|280:288,2,53.3333333333333
224,248,242456,2,0,B|224:176,2,53.3333333333333
184,264,242706,6,0,B|144:320,1,53.3333333333333,4|0
152,304,242872,2,0,B|87:325,1,53.3333333333333
104,320,243039,2,0,B|50:309,1,53.3333333333333
48,312,243206,2,0,B|22:256,1,53.3333333333333
24,264,243372,2,0,B|61:224,1,53.3333333333333
64,224,243539,2,0,B|57:160,1,53.3333333333333
56,168,243706,6,0,B|31:117,1,53.3333333333333
32,120,243872,2,0,B|39:69,1,53.3333333333333
40,64,244039,2,0,B|80:26,1,53.3333333333333
80,32,244206,2,0,B|138:7,1,53.3333333333333
128,8,244372,2,0,B|177:69,1,53.3333333333333
160,48,244539,2,0,B|176:107,1,53.3333333333333
176,96,244706,6,0,B|218:140,1,53.3333333333333
208,136,244872,2,0,B|189:189,1,53.3333333333333
192,192,245039,2,0,B|158:235,1,53.3333333333333
160,240,245206,2,0,B|199:280,1,53.3333333333333
200,280,245372,2,0,B|266:290,1,53.3333333333333
256,288,245539,2,0,B|301:250,1,53.3333333333333
296,256,245706,6,0,B|308:204,1,53.3333333333333
312,208,245872,2,0,B|303:152,1,53.3333333333333
304,152,246039,2,0,B|287:100,1,53.3333333333333
288,104,246206,2,0,B|311:47,1,53.3333333333333
312,56,246372,2,0,B|352:16,1,53.3333333333333
352,16,246539,2,0,B|408:32,1,53.3333333333333
408,32,246706,6,0,B|464:0,1,53.3333333333333
456,8,246872,2,0,B|511:26,1,53.3333333333333
512,24,247039,2,0,B|496:88,1,53.3333333333333
496,72,247205,2,0,B|492:126,1,53.3333333333333
496,128,247372,2,0,B|512:184,1,53.3333333333333
512,176,247539,2,0,B|471:222,1,53.3333333333333
480,216,247705,6,0,B|490:270,1,53.3333333333333
488,272,247872,2,0,B|488:354,1,53.3333333333333
488,328,248039,2,0,B|408:340,1,53.3333333333333
432,336,248205,2,0,B|396:292,1,53.3333333333333
400,296,248372,2,0,B|342:325,1,53.3333333333333
352,320,248539,2,0,B|285:333,1,53.3333333333333
296,328,248705,6,0,B|233:314,1,53.3333333333333
240,320,248872,2,0,B|182:341,1,53.3333333333333
192,336,249039,2,0,B|135:355,1,53.3333333333333
136,352,249206,2,0,B|82:337,1,53.3333333333333
80,336,249372,2,0,B|54:287,1,53.3333333333333
56,288,249539,2,0,B|87:222,1,53.3333333333333
80,240,249705,6,0,B|40:190,1,53.3333333333333
48,200,249872,2,0,B|49:120,1,53.3333333333333
48,144,250039,2,0,B|16:77,1,53.3333333333333
24,96,250205,2,0,B|71:37,1,53.3333333333333
64,56,250372,2,0,B|125:71,1,53.3333333333333
112,72,250539,2,0,B|153:26,1,53.3333333333333
168,32,250706,5,4
192,40,250789,1,0
216,48,250872,1,0
232,40,250956,1,0
256,48,251039,1,0
280,56,251122,1,0
304,48,251206,1,4
328,56,251289,1,0
352,64,251372,1,0
376,56,251456,1,0
400,64,251539,1,0
424,72,251622,1,0
432,88,251706,5,4
440,112,251789,1,0
448,136,251872,1,0
448,160,251956,1,0
440,184,252039,1,0
440,208,252122,1,0
448,232,252206,1,4
456,256,252289,1,0
464,280,252372,1,0
464,304,252456,1,0
448,320,252539,1,0
432,336,252622,1,0
416,352,252706,5,4
392,360,252789,1,0
368,352,252872,1,0
344,344,252956,1,0
320,344,253039,1,0
296,344,253122,1,0
272,344,253206,1,4
248,352,253289,1,0
224,344,253372,1,0
200,344,253456,1,0
176,336,253539,1,0
152,328,253622,1,0
136,336,253706,5,4
112,328,253789,1,0
88,320,253872,1,0
80,304,253956,1,0
72,288,254039,1,0
64,272,254122,1,0
48,264,254206,1,4
40,240,254289,1,0
32,216,254372,1,0
40,200,254456,1,0
48,184,254539,1,0
56,168,254622,1,0
48,152,254706,5,4
40,136,254789,1,0
42,114,254872,1,0
58,100,254956,1,0
74,87,255039,1,0
90,74,255122,1,0
107,61,255206,1,4
128,58,255289,1,0
149,56,255372,1,0
170,56,255456,1,0
191,55,255539,1,0
212,54,255622,1,0
233,54,255706,5,4
252,62,255789,1,0
271,70,255872,1,0
290,79,255956,1,0
309,87,256039,1,0
328,96,256122,1,0
346,85,256205,1,4
365,75,256289,1,0
383,65,256372,1,0
399,78,256455,1,0
419,83,256539,1,0
439,87,256622,1,0
445,107,256705,5,4
452,127,256789,1,0
459,147,256872,1,0
465,167,256955,1,0
460,188,257039,1,0
455,208,257122,1,0
450,228,257205,1,4
445,249,257289,1,0
441,269,257372,1,0
420,275,257455,1,0
399,281,257539,1,0
378,287,257622,1,0
357,293,257705,5,4
335,290,257789,1,0
313,287,257872,1,0
291,284,257955,1,0
269,281,258039,1,0
247,278,258122,1,0
226,283,258205,1,0
205,289,258289,1,0
184,294,258372,1,0
163,300,258455,1,0
142,306,258539,1,0
121,312,258622,1,0
96,312,258705,5,4
48,192,258956,1,0
96,72,259206,2,0,B|280:72,1,160,10|0
312,192,259706,1,0
440,192,259956,1,0
400,312,260206,1,10
336,312,260331,1,2
272,312,260456,1,2
208,312,260581,1,2
144,312,260706,6,0,B|80:312|40:272|40:216,1,160,4|0
168,216,261206,1,10
296,216,261456,1,0
296,88,261706,2,0,B|136:88,2,160,0|0|10
424,88,262456,2,2,B|424:48,3,40
424,48,262706,5,0
424,176,262956,1,8
424,304,263206,1,0
296,304,263456,1,8
296,176,263706,1,0
168,176,263956,1,8
168,304,264206,1,0
40,304,264456,1,8
40,176,264706,1,0
168,176,264956,1,8
168,48,265206,1,0
296,48,265456,1,8
296,176,265706,2,0,B|296:264,1,80,8|0
352,176,265956,2,0,B|352:264,1,80,8|0
400,176,266206,2,2,B|400:224,7,40
400,248,266706,6,0,B|360:336|160:336|120:248,3,320,4|0|4|0
400,136,268706,6,0,B|360:48|160:48|120:136,3,320,4|0|4|0
336,232,270706,6,0,B|256:280|160:224,7,160,4|0|4|0|4|0|4|0
296,184,272706,6,0,B|256:160|216:184,16,80,4|0|4|0|4|0|4|0|4|0|4|0|4|0|4|0|4
256,192,274956,12,0,278956
256,192,279206,5,0
