osu file format v11

[General]
AudioFilename: Shoushitsu160.mp3
AudioLeadIn: 3000
PreviewTime: 120338
Countdown: 0
SampleSet: Normal
StackLeniency: 0.7
Mode: 0
LetterboxInBreaks: 1

[Editor]
DistanceSpacing: 1.5
BeatDivisor: 4
GridSize: 8

[Metadata]
Title:Hatsune Miku no Shoushitsu (Hommarju Remix)
TitleUnicode:Hatsune Miku no Shoushitsu (Hommarju Remix)
Artist:Hatsune Miku
ArtistUnicode:Hatsune Miku
Creator:JappyBabes
Version:Extra AR10.86 +DT +HR
Source:Vocaloid
Tags:chocopikel
BeatmapID:202952
BeatmapSetID:68740

[Difficulty]
HPDrainRate:8
CircleSize:3
OverallDifficulty:5
ApproachRate:7
SliderMultiplier:1.6
SliderTickRate:0.5

[Events]
//Background and Video events
0,0,"BG.jpg"
//Break Periods
2,12163,17438
//Storyboard Layer 0 (Background)
//Storyboard Layer 1 (Fail)
//Storyboard Layer 2 (Pass)
//Storyboard Layer 3 (Foreground)
//Storyboard Sound Samples
//Background Colour Transformations
3,100,163,162,255

[TimingPoints]
338,375,4,1,0,50,1,0
95869,-200,4,1,0,50,0,0
96244,-100,4,1,0,50,0,0
98869,-200,4,1,0,50,0,0
99244,-100,4,1,0,50,0,0
105338,-50,4,1,0,50,0,0
108338,-100,4,1,0,50,0,0
118838,4000,4,1,0,50,1,0
120338,375,4,1,0,50,1,0
120338,-200,4,1,0,50,0,0
124650,-133.333333333333,4,1,0,50,0,0
126150,-200,4,1,0,50,0,0
126338,-100,4,1,0,50,0,1
132338,-100,4,1,0,50,0,0
138338,-100,4,1,0,50,0,1
168338,-100,4,1,0,50,0,0
174244,-100,4,2,0,5,0,0
174431,-100,4,1,0,70,0,0

[Colours]
Combo1 : 255,128,0
Combo2 : 255,0,0
Combo3 : 0,0,255

[HitObjects]
256,192,431,1,0,0:0:0
128,272,900,1,0,0:0:0
128,120,1463,1,0,0:0:0
256,192,1838,5,0,0:0:0
384,272,2400,1,0,0:0:0
384,120,2963,1,0,0:0:0
256,192,3338,5,0,0:0:0
176,320,3900,1,0,0:0:0
328,320,4463,1,0,0:0:0
256,192,4838,5,0,0:0:0
176,64,5400,1,0,0:0:0
328,64,5963,1,0,0:0:0
392,144,6338,6,0,B|456:232,1,80
328,176,6713,2,0,B|328:280,1,80
264,144,7088,2,0,B|200:232,1,80
248,80,7463,2,0,B|160:120,1,80
120,240,7838,6,0,B|56:152,1,80
184,208,8213,2,0,B|184:104,1,80
248,240,8588,2,0,B|312:152,1,80
264,304,8963,2,0,B|352:264,1,80
416,256,9338,5,0,0:0:0
368,104,9713,1,0,0:0:0
320,256,10088,1,0,0:0:0
272,104,10463,1,0,0:0:0
224,256,10838,1,0,0:0:0
176,104,11213,1,0,0:0:0
128,256,11588,1,0,0:0:0
80,104,11963,1,0,0:0:0
256,192,18338,12,0,19463,0:0:0
256,192,19838,12,0,20963,0:0:0
256,192,21338,12,0,23963,0:0:0
80,320,24338,6,0,B|88:232|176:176,1,160
240,176,24900,1,0,0:0:0
320,192,25088,1,0,0:0:0
400,168,25275,1,0,0:0:0
432,96,25463,1,0,0:0:0
376,40,25650,1,0,0:0:0
296,40,25838,6,0,B|216:40,1,80
64,96,26213,2,0,B|144:96,1,80
296,152,26588,2,0,B|208:152,1,80
64,208,26963,2,0,B|160:208,1,80
296,264,27338,6,0,B|216:264,1,80
144,240,27713,1,0,0:0:0
80,192,27900,1,0,0:0:0
72,112,28088,1,0,0:0:0
136,64,28275,1,0,0:0:0
216,56,28463,1,0,0:0:0
296,56,28650,1,0,0:0:0
296,56,28838,5,0,0:0:0
336,208,29025,1,0,0:0:0
400,64,29213,1,0,0:0:0
256,136,29400,1,0,0:0:0
416,152,29588,5,0,0:0:0
415,172,29681,1,0,0:0:0
412,193,29775,1,0,0:0:0
405,212,29869,1,0,0:0:0
397,231,29963,1,0,0:0:0
388,249,30056,1,0,0:0:0
376,266,30150,1,0,0:0:0
361,280,30244,1,0,0:0:0
344,293,30338,6,0,B|314:318|267:335,1,80
128,264,30713,2,0,B|158:239|205:222,1,80,0|0,0:0|0:0,0:0:0
328,128,31088,2,0,B|298:103|251:86,1,80,0|0,0:0|0:0,0:0:0
96,80,31463,2,0,B|64:104|40:144,1,80
48,296,31838,5,0,0:0:0
168,192,32025,1,0,0:0:0
288,296,32213,1,0,0:0:0
400,184,32400,1,0,0:0:0
400,344,32588,5,0,0:0:0
280,240,32775,1,0,0:0:0
160,344,32963,1,0,0:0:0
48,232,33150,1,0,0:0:0
168,128,33338,5,0,0:0:0
328,128,33525,1,0,0:0:0
168,192,33713,1,0,0:0:0
328,192,33900,1,0,0:0:0
168,256,34088,1,0,0:0:0
328,256,34275,1,0,0:0:0
168,320,34463,1,0,0:0:0
328,320,34650,1,0,0:0:0
456,224,34838,6,0,B|456:144,1,80
48,144,35213,2,0,B|48:224,1,80
256,336,35588,1,0,0:0:0
257,317,35681,1,0,0:0:0
259,298,35775,1,0,0:0:0
265,280,35869,1,0,0:0:0
274,263,35963,1,0,0:0:0
284,247,36056,1,0,0:0:0
296,231,36150,1,0,0:0:0
309,217,36244,1,0,0:0:0
324,205,36338,6,0,B|350:178|392:156,1,80
232,104,36713,2,0,B|258:77|300:55,1,80
376,48,37088,1,0,0:0:0
448,88,37275,1,0,0:0:0
464,168,37463,1,0,0:0:0
432,240,37650,1,0,0:0:0
376,296,37838,6,0,B|336:320|304:352,1,80
136,296,38213,2,0,B|176:320|208:352,1,80
376,208,38588,2,0,B|336:232|304:264,1,80
136,208,38963,2,0,B|176:232|208:264,1,80
264,304,39338,6,0,B|264:232|240:128,1,160
104,64,40088,2,0,B|104:136|128:240,1,160,0|0,0:0|0:0,0:0:0
264,304,40838,6,0,B|264:232|288:128,1,160
424,64,41588,2,0,B|424:136|400:240,1,160,0|0,0:0|0:0,0:0:0
256,192,42338,5,0,0:0:0
104,240,42525,1,0,0:0:0
256,296,42713,1,0,0:0:0
408,240,42900,1,0,0:0:0
256,192,43088,5,0,0:0:0
176,48,43275,1,0,0:0:0
256,192,43463,5,0,0:0:0
336,48,43650,1,0,0:0:0
256,192,43838,5,0,0:0:0
96,192,44025,1,0,0:0:0
256,256,44213,1,0,0:0:0
416,320,44400,1,0,0:0:0
256,320,44588,1,0,0:0:0
96,320,44775,5,0,0:0:0
416,64,44963,1,0,0:0:0
416,320,45150,1,0,0:0:0
96,64,45338,5,0,0:0:0
416,64,45525,1,0,0:0:0
96,152,45713,1,0,0:0:0
416,152,45900,1,0,0:0:0
96,240,46088,1,0,0:0:0
416,240,46275,1,0,0:0:0
96,328,46463,1,0,0:0:0
416,328,46650,1,0,0:0:0
472,176,46838,6,0,B|472:136,1,40
400,96,47025,2,0,B|400:136,1,40,0|0,0:0|0:0,0:0:0
328,176,47213,2,0,B|328:136,1,40
256,96,47400,2,0,B|256:136,1,40,0|0,0:0|0:0,0:0:0
256,160,47588,1,0,0:0:0
254,180,47681,1,0,0:0:0
249,200,47775,1,0,0:0:0
242,219,47869,1,0,0:0:0
231,237,47963,1,0,0:0:0
216,251,48056,1,0,0:0:0
198,261,48150,1,0,0:0:0
178,267,48244,1,0,0:0:0
152,272,48338,6,0,B|72:271,1,80
344,272,48713,2,0,B|424:271,1,80
152,152,49088,2,0,B|72:151,1,80
344,152,49463,2,0,B|424:151,1,80
256,352,49838,6,0,B|176:312,1,80
256,32,50213,2,0,B|336:72,1,80
416,192,50588,2,0,B|375:272,1,80
96,193,50963,2,0,B|136:112,1,80
336,112,51338,5,0,0:0:0
336,272,51525,1,0,0:0:0
176,272,51713,1,0,0:0:0
176,112,51900,1,0,0:0:0
256,79,52088,5,0,0:0:0
369,192,52275,1,0,0:0:0
256,306,52463,1,0,0:0:0
142,192,52650,1,0,0:0:0
56,56,52838,5,0,0:0:0
456,56,53025,1,0,0:0:0
56,56,53213,1,0,0:0:0
456,56,53400,1,0,0:0:0
56,328,53588,5,0,0:0:0
456,328,53775,1,0,0:0:0
56,328,53963,1,0,0:0:0
456,328,54150,1,0,0:0:0
456,152,54338,6,0,B|456:232,1,80
56,232,54713,2,0,B|56:152,1,80
384,152,55088,2,0,B|384:232,1,80
128,232,55463,2,0,B|128:152,1,80
216,40,55838,6,0,B|296:40,1,80
296,344,56213,2,0,B|216:344,1,80
216,112,56588,2,0,B|296:112,1,80
296,272,56963,2,0,B|216:272,1,80
216,184,57338,6,0,B|256:192,3,40
288,144,57713,2,0,B|336:128,3,40
368,176,58088,2,0,B|408:200,3,40
448,240,58463,2,0,B|440:280,3,40
392,312,58838,1,0,0:0:0
332,312,58931,1,0,0:0:0
272,302,59025,1,0,0:0:0
226,264,59119,1,0,0:0:0
205,208,59213,1,0,0:0:0
197,149,59306,1,0,0:0:0
209,90,59400,1,0,0:0:0
255,53,59494,1,0,0:0:0
315,53,59588,1,0,0:0:0
373,65,59681,1,0,0:0:0
397,121,59775,1,0,0:0:0
384,180,59869,1,0,0:0:0
329,207,59963,1,0,0:0:0
269,203,60056,1,0,0:0:0
219,168,60150,1,0,0:0:0
169,136,60244,1,0,0:0:0
135,149,60338,6,0,B|96:168|67:197,1,80
377,149,60713,2,0,B|416:168|445:197,1,80
192,272,61088,2,0,B|184:232|192:192,1,80
320,272,61463,2,0,B|328:232|320:192,1,80
256,40,61838,5,0,0:0:0
112,112,62025,1,0,0:0:0
256,40,62213,5,0,0:0:0
400,112,62400,1,0,0:0:0
256,112,62588,5,0,0:0:0
112,184,62775,1,0,0:0:0
256,112,62963,5,0,0:0:0
400,184,63150,1,0,0:0:0
40,264,63338,5,0,0:0:0
40,104,63525,1,0,0:0:0
472,104,63713,5,0,0:0:0
472,264,63900,1,0,0:0:0
40,184,64088,5,0,0:0:0
472,184,64275,1,0,0:0:0
40,184,64463,1,0,0:0:0
472,184,64650,1,0,0:0:0
472,104,64838,5,0,0:0:0
472,264,65025,1,0,0:0:0
40,264,65213,5,0,0:0:0
40,104,65400,1,0,0:0:0
472,184,65588,5,0,0:0:0
40,184,65775,1,0,0:0:0
472,184,65963,1,0,0:0:0
40,184,66150,1,0,0:0:0
256,352,66338,5,0,0:0:0
96,192,66525,1,0,0:0:0
256,32,66713,1,0,0:0:0
416,192,66900,1,0,0:0:0
256,288,67088,5,0,0:0:0
160,192,67275,1,0,0:0:0
256,96,67463,1,0,0:0:0
352,192,67650,1,0,0:0:0
256,224,67838,5,0,0:0:0
224,192,68025,1,0,0:0:0
256,160,68213,1,0,0:0:0
288,192,68400,1,0,0:0:0
256,200,68588,5,0,0:0:0
248,192,68775,1,0,0:0:0
256,184,68963,1,0,0:0:0
264,192,69150,1,0,0:0:0
256,192,69338,5,0,0:0:0
256,192,69525,12,0,71213,0:0:0
416,304,71588,5,0,0:0:0
396,302,71681,1,0,0:0:0
376,296,71775,1,0,0:0:0
359,286,71869,1,0,0:0:0
343,273,71963,1,0,0:0:0
331,257,72056,1,0,0:0:0
316,243,72150,1,0,0:0:0
299,233,72244,1,0,0:0:0
279,229,72338,6,0,B|237:223|196:228,1,80
120,216,72713,1,0,0:0:0
72,152,72900,1,0,0:0:0
80,72,73088,1,0,0:0:0
152,40,73275,1,0,0:0:0
232,32,73463,1,0,0:0:0
312,40,73650,1,0,0:0:0
392,48,73838,6,0,B|480:72,1,80
368,128,74213,2,0,B|456:152,1,80,0|0,0:0|0:0,0:0:0
344,208,74588,2,0,B|432:232,1,80
320,288,74963,2,0,B|408:312,1,80,0|0,0:0|0:0,0:0:0
120,48,75338,6,0,B|32:72,1,80
144,128,75713,2,0,B|56:152,1,80,0|0,0:0|0:0,0:0:0
168,208,76088,2,0,B|80:232,1,80
192,288,76463,2,0,B|104:312,1,80,0|0,0:0|0:0,0:0:0
256,48,76838,5,0,0:0:0
256,336,77025,1,0,0:0:0
112,192,77213,1,0,0:0:0
400,192,77400,1,0,0:0:0
256,112,77588,1,0,0:0:0
199,132,77681,1,0,0:0:0
168,185,77775,1,0,0:0:0
172,245,77869,1,0,0:0:0
204,297,77963,1,0,0:0:0
258,322,78056,1,0,0:0:0
318,323,78150,1,0,0:0:0
374,306,78244,1,0,0:0:0
416,272,78338,6,0,B|416:192,1,80
320,64,78713,2,0,B|240:64,1,80
96,136,79088,2,0,B|96:216,1,80
192,344,79463,2,0,B|272:344,1,80
256,184,79838,5,0,0:0:0
96,184,80025,1,0,0:0:0
256,184,80213,1,0,0:0:0
416,184,80400,1,0,0:0:0
256,184,80588,1,0,0:0:0
256,344,80775,5,0,0:0:0
256,184,80963,1,0,0:0:0
256,24,81150,1,0,0:0:0
256,184,81338,6,0,B|192:240,1,80
256,184,81713,2,0,B|320:240,1,80
256,184,82088,2,0,B|192:128,1,80
256,184,82463,2,0,B|320:128,1,80
88,304,82838,6,0,B|24:360,1,80
424,304,83213,2,0,B|488:360,1,80
88,80,83588,2,0,B|24:24,1,80
424,80,83963,2,0,B|488:24,1,80
440,184,84338,6,0,B|400:256|320:304,1,160
248,312,84900,1,0,0:0:0
168,312,85088,1,0,0:0:0
96,288,85275,2,0,B|56:280|16:256,1,80
16,176,85650,1,0,0:0:0
72,112,85838,2,0,B|56:72|32:40,2,80
112,184,86400,2,0,B|144:200|192:216,2,80
152,112,86963,1,0,0:0:0
224,72,87150,1,0,0:0:0
304,56,87338,6,0,B|296:96|304:144,1,80
304,296,87713,2,0,B|296:256|304:208,1,80
384,56,88088,2,0,B|376:96|384:144,1,80
384,296,88463,2,0,B|376:256|384:208,1,80
456,56,88838,2,0,B|464:96|456:144,1,80
448,216,89213,1,0,0:0:0
400,280,89400,1,0,0:0:0
336,320,89588,1,0,0:0:0
256,328,89775,1,0,0:0:0
176,328,89963,1,0,0:0:0
104,304,90150,1,0,0:0:0
56,240,90338,5,0,0:0:0
56,136,90525,1,0,0:0:0
160,136,90713,1,0,0:0:0
160,240,90900,1,0,0:0:0
320,240,91088,5,0,0:0:0
320,136,91275,1,0,0:0:0
216,136,91463,1,0,0:0:0
216,240,91650,1,0,0:0:0
104,128,91838,5,0,0:0:0
104,24,92025,1,0,0:0:0
208,24,92213,1,0,0:0:0
208,128,92400,1,0,0:0:0
368,128,92588,5,0,0:0:0
368,24,92775,1,0,0:0:0
264,24,92963,1,0,0:0:0
264,128,93150,1,0,0:0:0
240,288,93338,6,0,B|152:288,1,80
240,152,93713,2,0,B|320:152,1,80
240,272,94088,2,0,B|160:272,1,80
240,168,94463,2,0,B|320:168,1,80
240,256,94838,2,0,B|160:256,1,80
240,184,95213,2,0,B|320:184,1,80
240,240,95588,2,0,B|160:240,1,80
240,200,95963,2,0,B|256:192|264:208|272:192|280:208|288:192|296:208|304:192|320:200,1,80
432,304,96713,6,0,B|440:232|416:144,1,160
384,72,97275,1,0,0:0:0
304,48,97463,1,0,0:0:0
224,48,97650,1,0,0:0:0
144,56,97838,2,0,B|56:56,1,80
144,128,98213,2,0,B|56:128,1,80
144,200,98588,2,0,B|56:200,1,80
64,272,98963,2,0,B|104:304|152:264,1,80
432,280,99713,5,0,0:0:0
432,120,99900,1,0,0:0:0
360,280,100088,1,0,0:0:0
360,120,100275,1,0,0:0:0
80,280,100463,5,0,0:0:0
80,120,100650,1,0,0:0:0
152,280,100838,1,0,0:0:0
152,120,101025,1,0,0:0:0
392,200,101213,5,0,0:0:0
120,200,101400,1,0,0:0:0
248,328,101588,1,0,0:0:0
248,56,101775,1,0,0:0:0
248,200,101963,2,0,B|232:208|224:232|240:256|264:272|288:256|304:232|296:208|280:200|256:192|240:200,1,160
392,328,102713,5,0,0:0:0
120,56,102900,1,0,0:0:0
120,328,103088,5,0,0:0:0
392,56,103275,1,0,0:0:0
392,280,103463,5,0,0:0:0
120,104,103650,1,0,0:0:0
120,280,103838,5,0,0:0:0
392,104,104025,1,0,0:0:0
392,232,104213,5,0,0:0:0
120,152,104400,1,0,0:0:0
120,232,104588,5,0,0:0:0
392,152,104775,1,0,0:0:0
392,192,104963,5,0,0:0:0
120,192,105150,1,0,0:0:0
152,296,105338,6,0,B|376:56,3,320
360,296,106838,2,0,B|136:56,3,320
96,272,108338,6,0,B|96:352,1,80
200,272,108713,2,0,B|200:352,1,80
304,272,109088,2,0,B|304:368,1,80
408,272,109463,2,0,B|408:360,1,80
408,112,109838,6,0,B|408:32,1,80
304,112,110213,2,0,B|304:32,1,80
200,112,110588,2,0,B|200:16,1,80
96,112,110963,2,0,B|96:24,1,80
32,192,111338,5,0,0:0:0
480,192,111525,1,0,0:0:0
96,192,111713,5,0,0:0:0
416,192,111900,1,0,0:0:0
160,192,112088,5,0,0:0:0
352,192,112275,1,0,0:0:0
224,192,112463,5,0,0:0:0
288,192,112650,1,0,0:0:0
224,192,112838,5,0,0:0:0
288,192,113025,1,0,0:0:0
160,192,113213,5,0,0:0:0
352,192,113400,1,0,0:0:0
96,192,113588,5,0,0:0:0
416,192,113775,1,0,0:0:0
32,192,113963,5,0,0:0:0
480,192,114150,1,0,0:0:0
40,344,114338,6,0,B|88:304,3,40
472,344,114713,2,0,B|424:304,3,40
472,40,115088,2,0,B|424:80,3,40
40,40,115463,2,0,B|88:80,3,40
128,272,115838,6,0,B|176:232,1,40
384,272,116025,2,0,B|336:232,1,40
384,112,116213,2,0,B|336:152,1,40
128,112,116400,2,0,B|176:152,1,40
216,208,116588,5,0,0:0:0
296,208,116681,1,0,0:0:0
296,176,116775,1,0,0:0:0
216,176,116869,1,0,0:0:0
240,192,116963,5,0,0:0:0
272,192,117056,1,0,0:0:0
272,184,117150,1,0,0:0:0
240,184,117244,1,0,0:0:0
256,192,117338,5,0,0:0:0
256,192,117431,12,0,118463,0:0:0
256,208,118838,6,0,B|256:176,1,30
104,288,120338,6,0,B|160:296|224:288,2,120
408,96,121838,2,0,B|344:88|288:96,2,120
408,288,123338,2,0,B|352:296|288:288,2,120
104,96,124838,2,0,B|168:88|224:96,3,120
392,248,126338,6,0,B|392:328,1,80
304,248,126713,2,0,B|304:336,1,80
216,248,127088,1,0,0:0:0
216,352,127275,1,0,0:0:0
112,352,127463,1,0,0:0:0
112,248,127650,1,0,0:0:0
112,144,127838,6,0,B|112:64,1,80
200,144,128213,2,0,B|200:56,1,80
288,144,128588,1,0,0:0:0
288,24,128775,1,0,0:0:0
408,24,128963,1,0,0:0:0
408,144,129150,1,0,0:0:0
288,224,129338,5,0,0:0:0
224,160,129525,1,0,0:0:0
336,264,129713,1,0,0:0:0
176,120,129900,1,0,0:0:0
384,304,130088,1,0,0:0:0
128,80,130275,1,0,0:0:0
432,344,130463,1,0,0:0:0
80,40,130650,1,0,0:0:0
224,224,130838,5,0,0:0:0
288,160,131025,1,0,0:0:0
176,264,131213,1,0,0:0:0
336,120,131400,1,0,0:0:0
128,304,131588,1,0,0:0:0
384,80,131775,1,0,0:0:0
80,344,131963,1,0,0:0:0
432,40,132150,1,0,0:0:0
432,40,132338,6,0,B|344:40,1,80
336,136,132713,2,0,B|232:136,1,80
240,232,133088,2,0,B|152:232,1,80
144,328,133463,2,0,B|40:328,1,80
80,40,133838,6,0,B|168:40,1,80
176,136,134213,2,0,B|280:136,1,80
272,232,134588,2,0,B|360:232,1,80
368,328,134963,2,0,B|472:328,1,80
144,280,135338,5,0,0:0:0
144,104,135713,1,0,0:0:0
368,104,136088,1,0,0:0:0
368,280,136463,1,0,0:0:0
256,328,136838,5,0,0:0:0
120,192,137025,1,0,0:0:0
256,56,137213,1,0,0:0:0
392,192,137400,1,0,0:0:0
256,328,137588,5,0,0:0:0
256,312,137681,1,0,0:0:0
256,296,137775,1,0,0:0:0
256,280,137869,1,0,0:0:0
256,264,137963,1,0,0:0:0
256,248,138056,1,0,0:0:0
256,232,138150,1,0,0:0:0
256,216,138244,1,0,0:0:0
256,200,138338,6,0,B|256:120,1,80
112,200,138713,2,0,B|112:96,1,80
112,280,139088,1,0,0:0:0
256,280,139275,1,0,0:0:0
112,280,139463,1,0,0:0:0
256,280,139650,1,0,0:0:0
256,200,139838,6,0,B|256:120,1,80
400,200,140213,2,0,B|400:96,1,80
400,280,140588,1,0,0:0:0
256,280,140775,1,0,0:0:0
400,280,140963,1,0,0:0:0
256,280,141150,1,0,0:0:0
112,280,141338,5,0,0:0:0
112,120,141525,1,0,0:0:0
400,280,141713,5,0,0:0:0
400,120,141900,1,0,0:0:0
160,280,142088,5,0,0:0:0
160,120,142275,1,0,0:0:0
352,280,142463,5,0,0:0:0
352,120,142650,1,0,0:0:0
208,280,142838,5,0,0:0:0
208,120,143025,1,0,0:0:0
304,280,143213,5,0,0:0:0
304,120,143400,1,0,0:0:0
256,280,143588,5,0,0:0:0
256,120,143775,1,0,0:0:0
256,280,143963,1,0,0:0:0
256,120,144150,1,0,0:0:0
136,328,144338,6,0,B|48:328,1,80
136,240,144713,2,0,B|56:240,1,80
136,152,145088,2,0,B|56:152,1,80
136,64,145463,2,0,B|40:64,1,80
376,328,145838,6,0,B|464:328,1,80
376,240,146213,2,0,B|456:240,1,80
376,152,146588,2,0,B|456:152,1,80
376,64,146963,2,0,B|472:64,1,80
96,272,147338,6,0,B|96:352,1,80
200,272,147713,2,0,B|200:352,1,80
304,272,148088,2,0,B|304:368,1,80
408,272,148463,2,0,B|408:360,1,80
408,112,148838,6,0,B|408:32,1,80
304,112,149213,2,0,B|304:32,1,80
200,112,149588,2,0,B|200:16,1,80
96,112,149963,2,0,B|96:24,1,80
96,328,150338,5,0,0:0:0
416,288,150525,1,0,0:0:0
96,248,150713,1,0,0:0:0
416,208,150900,1,0,0:0:0
96,168,151088,1,0,0:0:0
416,128,151275,1,0,0:0:0
96,88,151463,1,0,0:0:0
416,48,151650,1,0,0:0:0
96,48,151838,5,0,0:0:0
416,88,152025,1,0,0:0:0
96,128,152213,1,0,0:0:0
416,168,152400,1,0,0:0:0
96,208,152588,1,0,0:0:0
416,248,152775,1,0,0:0:0
96,288,152963,1,0,0:0:0
416,328,153150,1,0,0:0:0
200,120,153338,5,0,0:0:0
256,264,153525,1,0,0:0:0
312,120,153713,1,0,0:0:0
176,200,153900,1,0,0:0:0
336,200,154088,5,0,0:0:0
392,344,154275,1,0,0:0:0
448,200,154463,1,0,0:0:0
312,280,154650,1,0,0:0:0
472,280,154838,5,0,0:0:0
469,261,154931,1,0,0:0:0
462,242,155025,1,0,0:0:0
453,224,155119,1,0,0:0:0
446,205,155213,1,0,0:0:0
435,189,155306,1,0,0:0:0
423,173,155400,1,0,0:0:0
411,158,155494,1,0,0:0:0
396,145,155588,1,0,0:0:0
382,131,155681,1,0,0:0:0
364,121,155775,1,0,0:0:0
345,114,155869,1,0,0:0:0
325,108,155963,1,0,0:0:0
305,106,156056,1,0,0:0:0
284,105,156150,1,0,0:0:0
264,105,156244,1,0,0:0:0
243,105,156338,6,0,B|201:101|152:104,1,80
32,200,156713,2,0,B|73:205|123:201,1,80,0|0,0:0|0:0,0:0:0
240,200,157088,1,0,0:0:0
32,104,157275,1,0,0:0:0
240,200,157463,1,0,0:0:0
32,104,157650,1,0,0:0:0
269,279,157838,6,0,B|310:284|360:280,1,80
480,184,158213,2,0,B|438:180|389:183,1,80,0|0,0:0|0:0,0:0:0
272,184,158588,1,0,0:0:0
480,280,158775,1,0,0:0:0
272,184,158963,1,0,0:0:0
480,280,159150,1,0,0:0:0
32,232,159338,6,0,B|32:144,1,80
480,152,159713,2,0,B|480:240,1,80
256,352,160088,1,0,0:0:0
256,32,160275,1,0,0:0:0
256,352,160463,1,0,0:0:0
256,32,160650,1,0,0:0:0
296,352,160838,6,0,B|208:352,1,80
216,32,161213,2,0,B|304:32,1,80
480,192,161588,1,0,0:0:0
32,192,161775,1,0,0:0:0
480,192,161963,1,0,0:0:0
32,192,162150,1,0,0:0:0
416,312,162338,6,0,B|448:288,1,40
384,264,162525,2,0,B|416:224,1,40
344,224,162713,2,0,B|360:176,1,40
288,200,162900,2,0,B|288:152,1,40
224,200,163088,2,0,B|224:152,1,40
168,224,163275,2,0,B|152:176,1,40
128,264,163463,2,0,B|96:224,1,40
96,312,163650,2,0,B|64:288,1,40
96,72,163838,6,0,B|64:96,1,40
128,120,164025,2,0,B|96:160,1,40
168,160,164213,2,0,B|152:208,1,40
224,184,164400,2,0,B|224:232,1,40
288,184,164588,2,0,B|288:232,1,40
344,160,164775,2,0,B|360:208,1,40
384,120,164963,2,0,B|416:160,1,40
416,72,165150,2,0,B|448:96,1,40
512,192,165338,5,0,0:0:0
496,192,165431,1,0,0:0:0
480,192,165525,1,0,0:0:0
464,192,165619,1,0,0:0:0
448,192,165713,1,0,0:0:0
432,192,165806,1,0,0:0:0
416,192,165900,1,0,0:0:0
400,192,165994,1,0,0:0:0
384,192,166088,1,0,0:0:0
368,192,166181,1,0,0:0:0
352,192,166275,1,0,0:0:0
336,192,166369,1,0,0:0:0
320,192,166463,1,0,0:0:0
304,192,166556,1,0,0:0:0
288,192,166650,1,0,0:0:0
272,192,166744,1,0,0:0:0
256,192,166838,1,0,0:0:0
240,192,166931,1,0,0:0:0
224,192,167025,1,0,0:0:0
208,192,167119,1,0,0:0:0
192,192,167213,1,0,0:0:0
176,192,167306,1,0,0:0:0
160,192,167400,1,0,0:0:0
144,192,167494,1,0,0:0:0
128,192,167588,1,0,0:0:0
112,192,167681,1,0,0:0:0
96,192,167775,1,0,0:0:0
80,192,167869,1,0,0:0:0
64,192,167963,1,0,0:0:0
48,192,168056,1,0,0:0:0
32,192,168150,1,0,0:0:0
16,192,168244,1,0,0:0:0
0,192,168338,1,0,0:0:0
256,192,168431,12,0,174338,0:0:0
