osu file format v10

[General]
AudioFilename: Shoushitsu240.mp3
AudioLeadIn: 3000
PreviewTime: 80250
Countdown: 0
SampleSet: Normal
StackLeniency: 0.7
Mode: 0
LetterboxInBreaks: 1

[Editor]
DistanceSpacing: 1.5
BeatDivisor: 4
GridSize: 8

[Metadata]
Title:Hatsune Miku no Shoushitsu (Hommarju Remix)
TitleUnicode:Hatsune Miku no Shoushitsu (Hommarju Remix)
Artist:Hatsune Miku
ArtistUnicode:Hatsune Miku
Creator:JappyBabes
Version:Extra AR10
Source:Vocaloid
Tags:chocopikel
BeatmapID:199314
BeatmapSetID:68740

[Difficulty]
HPDrainRate:8
CircleSize:4
OverallDifficulty:8
ApproachRate:10
SliderMultiplier:1.6
SliderTickRate:0.5

[Events]
//Background and Video events
0,0,"BG.jpg"
//Break Periods
2,8200,11800
//Storyboard Layer 0 (Background)
//Storyboard Layer 1 (Fail)
//Storyboard Layer 2 (Pass)
//Storyboard Layer 3 (Foreground)
//Storyboard Sound Samples
//Background Colour Transformations
3,100,163,162,255

[TimingPoints]
250,250,4,1,0,50,1,0
63937,-200,4,1,0,50,0,0
64312,-100,4,1,0,50,0,0
65937,-200,4,1,0,50,0,0
66312,-100,4,1,0,50,0,0
70250,125,4,1,0,50,1,0
72250,250,4,1,0,50,1,0
79250,4000,4,1,0,50,1,0
80250,500,4,1,0,50,1,0
83125,-66.6666666666667,4,1,0,50,0,0
84125,-100,4,1,0,50,0,0
84250,250,4,1,0,50,1,1
88250,-100,4,1,0,50,0,0
92250,-100,4,1,0,50,0,1
112250,-100,4,1,0,50,0,0
116187,-100,4,2,0,5,0,0
116312,-100,4,1,0,70,0,0

[Colours]
Combo1 : 255,128,0
Combo2 : 255,0,0
Combo3 : 0,0,255

[HitObjects]
256,192,312,1,0,0:0:0
128,112,625,1,0,0:0:0
128,264,1000,1,0,0:0:0
256,192,1250,5,0,0:0:0
384,112,1625,1,0,0:0:0
384,264,2000,1,0,0:0:0
256,192,2250,5,0,0:0:0
176,64,2625,1,0,0:0:0
328,64,3000,1,0,0:0:0
256,192,3250,5,0,0:0:0
176,320,3625,1,0,0:0:0
328,320,4000,1,0,0:0:0
392,240,4250,6,0,B|456:152,1,80
328,208,4500,2,0,B|328:104,1,80
264,240,4750,2,0,B|200:152,1,80
248,304,5000,2,0,B|160:264,1,80
120,144,5250,6,0,B|56:232,1,80
184,176,5500,2,0,B|184:280,1,80
248,144,5750,2,0,B|312:232,1,80
264,80,6000,2,0,B|352:120,1,80
416,128,6250,5,0,0:0:0
368,280,6500,1,0,0:0:0
320,128,6750,1,0,0:0:0
272,280,7000,1,0,0:0:0
224,128,7250,1,0,0:0:0
176,280,7500,1,0,0:0:0
128,128,7750,1,0,0:0:0
80,280,8000,1,0,0:0:0
256,192,12250,12,0,13000,0:0:0
256,192,13250,12,0,14000,0:0:0
256,192,14250,12,0,16000,0:0:0
80,64,16250,6,0,B|88:152|176:208,1,160
240,208,16625,1,0,0:0:0
320,192,16750,1,0,0:0:0
400,216,16875,1,0,0:0:0
432,288,17000,1,0,0:0:0
376,344,17125,1,0,0:0:0
296,344,17250,6,0,B|216:344,1,80
64,288,17500,2,0,B|144:288,1,80
296,232,17750,2,0,B|208:232,1,80
64,176,18000,2,0,B|160:176,1,80
296,120,18250,6,0,B|216:120,1,80
144,144,18500,1,0,0:0:0
80,192,18625,1,0,0:0:0
72,272,18750,1,0,0:0:0
136,320,18875,1,0,0:0:0
216,328,19000,1,0,0:0:0
296,328,19125,1,0,0:0:0
296,328,19250,5,0,0:0:0
336,176,19375,1,0,0:0:0
400,320,19500,1,0,0:0:0
256,248,19625,1,0,0:0:0
416,232,19750,5,0,0:0:0
415,212,19812,1,0,0:0:0
412,191,19875,1,0,0:0:0
405,172,19937,1,0,0:0:0
397,153,20000,1,0,0:0:0
388,135,20062,1,0,0:0:0
376,118,20125,1,0,0:0:0
361,104,20187,1,0,0:0:0
344,91,20250,6,0,B|314:66|267:49,1,80
128,120,20500,2,0,B|158:145|205:162,1,80,0|0,0:0|0:0,0:0:0
328,256,20750,2,0,B|298:281|251:298,1,80,0|0,0:0|0:0,0:0:0
96,304,21000,2,0,B|64:280|40:240,1,80
48,88,21250,5,0,0:0:0
168,192,21375,1,0,0:0:0
288,88,21500,1,0,0:0:0
400,200,21625,1,0,0:0:0
400,40,21750,5,0,0:0:0
280,144,21875,1,0,0:0:0
160,40,22000,1,0,0:0:0
48,152,22125,1,0,0:0:0
168,256,22250,5,0,0:0:0
328,256,22375,1,0,0:0:0
168,192,22500,1,0,0:0:0
328,192,22625,1,0,0:0:0
168,128,22750,1,0,0:0:0
328,128,22875,1,0,0:0:0
168,64,23000,1,0,0:0:0
328,64,23125,1,0,0:0:0
456,160,23250,6,0,B|456:240,1,80
48,240,23500,2,0,B|48:160,1,80
256,48,23750,1,0,0:0:0
257,67,23812,1,0,0:0:0
259,86,23875,1,0,0:0:0
265,104,23937,1,0,0:0:0
274,121,24000,1,0,0:0:0
284,137,24062,1,0,0:0:0
296,153,24125,1,0,0:0:0
309,167,24187,1,0,0:0:0
324,179,24250,6,0,B|350:206|392:228,1,80
232,280,24500,2,0,B|258:307|300:329,1,80
376,336,24750,1,0,0:0:0
448,296,24875,1,0,0:0:0
464,216,25000,1,0,0:0:0
432,144,25125,1,0,0:0:0
376,88,25250,6,0,B|336:64|304:32,1,80
136,88,25500,2,0,B|176:64|208:32,1,80
376,176,25750,2,0,B|336:152|304:120,1,80
136,176,26000,2,0,B|176:152|208:120,1,80
264,80,26250,6,0,B|264:152|240:256,1,160
104,320,26750,2,0,B|104:248|128:144,1,160,0|0,0:0|0:0,0:0:0
264,80,27250,6,0,B|264:152|288:256,1,160
424,320,27750,2,0,B|424:248|400:144,1,160,0|0,0:0|0:0,0:0:0
256,192,28250,5,0,0:0:0
104,144,28375,1,0,0:0:0
256,88,28500,1,0,0:0:0
408,144,28625,1,0,0:0:0
256,192,28750,5,0,0:0:0
176,336,28875,1,0,0:0:0
256,192,29000,5,0,0:0:0
336,336,29125,1,0,0:0:0
256,192,29250,5,0,0:0:0
96,192,29375,1,0,0:0:0
256,128,29500,1,0,0:0:0
416,64,29625,1,0,0:0:0
256,64,29750,1,0,0:0:0
96,64,29875,5,0,0:0:0
416,320,30000,1,0,0:0:0
416,64,30125,1,0,0:0:0
96,320,30250,5,0,0:0:0
416,320,30375,1,0,0:0:0
96,232,30500,1,0,0:0:0
416,232,30625,1,0,0:0:0
96,144,30750,1,0,0:0:0
416,144,30875,1,0,0:0:0
96,56,31000,1,0,0:0:0
416,56,31125,1,0,0:0:0
472,208,31250,6,0,B|472:248,1,40
400,288,31375,2,0,B|400:248,1,40,0|0,0:0|0:0,0:0:0
328,208,31500,2,0,B|328:248,1,40
256,288,31625,2,0,B|256:248,1,40,0|0,0:0|0:0,0:0:0
256,224,31750,1,0,0:0:0
254,204,31812,1,0,0:0:0
249,184,31875,1,0,0:0:0
242,165,31937,1,0,0:0:0
231,147,32000,1,0,0:0:0
216,133,32062,1,0,0:0:0
198,123,32125,1,0,0:0:0
178,117,32187,1,0,0:0:0
152,112,32250,6,0,B|72:113,1,80
344,112,32500,2,0,B|424:113,1,80
152,232,32750,2,0,B|72:233,1,80
344,232,33000,2,0,B|424:233,1,80
256,32,33250,6,0,B|176:72,1,80
256,352,33500,2,0,B|336:312,1,80
416,192,33750,2,0,B|375:112,1,80
96,191,34000,2,0,B|136:272,1,80
336,272,34250,5,0,0:0:0
336,112,34375,1,0,0:0:0
176,112,34500,1,0,0:0:0
176,272,34625,1,0,0:0:0
256,305,34750,5,0,0:0:0
369,192,34875,1,0,0:0:0
256,78,35000,1,0,0:0:0
142,192,35125,1,0,0:0:0
56,328,35250,5,0,0:0:0
456,328,35375,1,0,0:0:0
56,328,35500,1,0,0:0:0
456,328,35625,1,0,0:0:0
56,56,35750,5,0,0:0:0
456,56,35875,1,0,0:0:0
56,56,36000,1,0,0:0:0
456,56,36125,1,0,0:0:0
456,232,36250,6,0,B|456:152,1,80
56,152,36500,2,0,B|56:232,1,80
384,232,36750,2,0,B|384:152,1,80
128,152,37000,2,0,B|128:232,1,80
216,344,37250,6,0,B|296:344,1,80
296,40,37500,2,0,B|216:40,1,80
216,272,37750,2,0,B|296:272,1,80
296,112,38000,2,0,B|216:112,1,80
216,200,38250,6,0,B|256:192,3,40
288,240,38500,2,0,B|336:256,3,40
368,208,38750,2,0,B|408:184,3,40
448,144,39000,2,0,B|440:104,3,40
392,72,39250,1,0,0:0:0
332,72,39312,1,0,0:0:0
272,82,39375,1,0,0:0:0
226,120,39437,1,0,0:0:0
205,176,39500,1,0,0:0:0
197,235,39562,1,0,0:0:0
209,294,39625,1,0,0:0:0
255,331,39687,1,0,0:0:0
315,331,39750,1,0,0:0:0
373,319,39812,1,0,0:0:0
397,263,39875,1,0,0:0:0
384,204,39937,1,0,0:0:0
329,177,40000,1,0,0:0:0
269,181,40062,1,0,0:0:0
219,216,40125,1,0,0:0:0
169,248,40187,1,0,0:0:0
135,235,40250,6,0,B|96:216|67:187,1,80
377,235,40500,2,0,B|416:216|445:187,1,80
192,112,40750,2,0,B|184:152|192:192,1,80
320,112,41000,2,0,B|328:152|320:192,1,80
256,344,41250,5,0,0:0:0
112,272,41375,1,0,0:0:0
256,344,41500,5,0,0:0:0
400,272,41625,1,0,0:0:0
256,272,41750,5,0,0:0:0
112,200,41875,1,0,0:0:0
256,272,42000,5,0,0:0:0
400,200,42125,1,0,0:0:0
40,120,42250,5,0,0:0:0
40,280,42375,1,0,0:0:0
472,280,42500,5,0,0:0:0
472,120,42625,1,0,0:0:0
40,200,42750,5,0,0:0:0
472,200,42875,1,0,0:0:0
40,200,43000,1,0,0:0:0
472,200,43125,1,0,0:0:0
472,280,43250,5,0,0:0:0
472,120,43375,1,0,0:0:0
40,120,43500,5,0,0:0:0
40,280,43625,1,0,0:0:0
472,200,43750,5,0,0:0:0
40,200,43875,1,0,0:0:0
472,200,44000,1,0,0:0:0
40,200,44125,1,0,0:0:0
256,32,44250,5,0,0:0:0
96,192,44375,1,0,0:0:0
256,352,44500,1,0,0:0:0
416,192,44625,1,0,0:0:0
256,96,44750,5,0,0:0:0
160,192,44875,1,0,0:0:0
256,288,45000,1,0,0:0:0
352,192,45125,1,0,0:0:0
256,160,45250,5,0,0:0:0
224,192,45375,1,0,0:0:0
256,224,45500,1,0,0:0:0
288,192,45625,1,0,0:0:0
256,184,45750,5,0,0:0:0
248,192,45875,1,0,0:0:0
256,200,46000,1,0,0:0:0
264,192,46125,1,0,0:0:0
256,192,46250,5,0,0:0:0
256,192,46375,12,0,47500,0:0:0
416,80,47750,5,0,0:0:0
396,82,47812,1,0,0:0:0
376,88,47875,1,0,0:0:0
359,98,47937,1,0,0:0:0
343,111,48000,1,0,0:0:0
331,127,48062,1,0,0:0:0
316,141,48125,1,0,0:0:0
299,151,48187,1,0,0:0:0
279,155,48250,6,0,B|237:161|196:156,1,80
120,168,48500,1,0,0:0:0
72,232,48625,1,0,0:0:0
80,312,48750,1,0,0:0:0
152,344,48875,1,0,0:0:0
232,352,49000,1,0,0:0:0
312,344,49125,1,0,0:0:0
392,336,49250,6,0,B|480:312,1,80
368,256,49500,2,0,B|456:232,1,80,0|0,0:0|0:0,0:0:0
344,176,49750,2,0,B|432:152,1,80
320,96,50000,2,0,B|408:72,1,80,0|0,0:0|0:0,0:0:0
120,336,50250,6,0,B|32:312,1,80
144,256,50500,2,0,B|56:232,1,80,0|0,0:0|0:0,0:0:0
168,176,50750,2,0,B|80:152,1,80
192,96,51000,2,0,B|104:72,1,80,0|0,0:0|0:0,0:0:0
256,336,51250,5,0,0:0:0
256,48,51375,1,0,0:0:0
112,192,51500,1,0,0:0:0
400,192,51625,1,0,0:0:0
256,272,51750,1,0,0:0:0
199,252,51812,1,0,0:0:0
168,199,51875,1,0,0:0:0
172,139,51937,1,0,0:0:0
204,87,52000,1,0,0:0:0
258,62,52062,1,0,0:0:0
318,61,52125,1,0,0:0:0
374,78,52187,1,0,0:0:0
416,112,52250,6,0,B|416:192,1,80
320,320,52500,2,0,B|240:320,1,80
96,248,52750,2,0,B|96:168,1,80
192,40,53000,2,0,B|272:40,1,80
256,200,53250,5,0,0:0:0
96,200,53375,1,0,0:0:0
256,200,53500,1,0,0:0:0
416,200,53625,1,0,0:0:0
256,200,53750,1,0,0:0:0
256,40,53875,5,0,0:0:0
256,200,54000,1,0,0:0:0
256,360,54125,1,0,0:0:0
256,200,54250,6,0,B|192:144,1,80
256,200,54500,2,0,B|320:144,1,80
256,200,54750,2,0,B|192:256,1,80
256,200,55000,2,0,B|320:256,1,80
88,80,55250,6,0,B|24:24,1,80
424,80,55500,2,0,B|488:24,1,80
88,304,55750,2,0,B|24:360,1,80
424,304,56000,2,0,B|488:360,1,80
440,200,56250,6,0,B|400:128|320:80,1,160
248,72,56625,1,0,0:0:0
168,72,56750,1,0,0:0:0
96,96,56875,2,0,B|56:104|16:128,1,80
16,208,57125,1,0,0:0:0
72,272,57250,2,0,B|56:312|32:344,2,80
112,200,57625,2,0,B|144:184|192:168,2,80
152,272,58000,1,0,0:0:0
224,312,58125,1,0,0:0:0
304,328,58250,6,0,B|296:288|304:240,1,80
304,88,58500,2,0,B|296:128|304:176,1,80
384,328,58750,2,0,B|376:288|384:240,1,80
384,88,59000,2,0,B|376:128|384:176,1,80
456,328,59250,2,0,B|464:288|456:240,1,80
448,168,59500,1,0,0:0:0
400,104,59625,1,0,0:0:0
336,64,59750,1,0,0:0:0
256,56,59875,1,0,0:0:0
176,56,60000,1,0,0:0:0
104,80,60125,1,0,0:0:0
56,144,60250,5,0,0:0:0
56,248,60375,1,0,0:0:0
160,248,60500,1,0,0:0:0
160,144,60625,1,0,0:0:0
320,144,60750,5,0,0:0:0
320,248,60875,1,0,0:0:0
216,248,61000,1,0,0:0:0
216,144,61125,1,0,0:0:0
104,256,61250,5,0,0:0:0
104,360,61375,1,0,0:0:0
208,360,61500,1,0,0:0:0
208,256,61625,1,0,0:0:0
368,256,61750,5,0,0:0:0
368,360,61875,1,0,0:0:0
264,360,62000,1,0,0:0:0
264,256,62125,1,0,0:0:0
240,96,62250,6,0,B|152:96,1,80
240,232,62500,2,0,B|320:232,1,80
240,112,62750,2,0,B|160:112,1,80
240,216,63000,2,0,B|320:216,1,80
240,128,63250,2,0,B|160:128,1,80
240,200,63500,2,0,B|320:200,1,80
240,144,63750,2,0,B|160:144,1,80
240,184,64000,2,0,B|256:192|264:176|272:192|280:176|288:192|296:176|304:192|320:184,1,80
432,80,64500,6,0,B|440:152|416:240,1,160
384,312,64875,1,0,0:0:0
304,336,65000,1,0,0:0:0
224,336,65125,1,0,0:0:0
144,328,65250,2,0,B|56:328,1,80
144,256,65500,2,0,B|56:256,1,80
144,184,65750,2,0,B|56:184,1,80
64,112,66000,2,0,B|104:80|152:120,1,80
432,104,66500,5,0,0:0:0
432,264,66625,1,0,0:0:0
360,104,66750,1,0,0:0:0
360,264,66875,1,0,0:0:0
80,104,67000,5,0,0:0:0
80,264,67125,1,0,0:0:0
152,104,67250,1,0,0:0:0
152,264,67375,1,0,0:0:0
392,184,67500,5,0,0:0:0
120,184,67625,1,0,0:0:0
248,56,67750,1,0,0:0:0
248,328,67875,1,0,0:0:0
248,184,68000,2,0,B|232:176|224:152|240:128|264:112|288:128|304:152|296:176|280:184|256:192|240:184,1,160
392,56,68500,5,0,0:0:0
120,328,68625,1,0,0:0:0
120,56,68750,5,0,0:0:0
392,328,68875,1,0,0:0:0
392,104,69000,5,0,0:0:0
120,280,69125,1,0,0:0:0
120,104,69250,5,0,0:0:0
392,280,69375,1,0,0:0:0
392,152,69500,5,0,0:0:0
120,232,69625,1,0,0:0:0
120,152,69750,5,0,0:0:0
392,232,69875,1,0,0:0:0
392,192,70000,5,0,0:0:0
120,192,70125,1,0,0:0:0
152,88,70250,6,0,B|376:328,3,320
360,88,71250,2,0,B|136:328,3,320
96,112,72250,6,0,B|96:32,1,80
200,112,72500,2,0,B|200:32,1,80
304,112,72750,2,0,B|304:16,1,80
408,112,73000,2,0,B|408:24,1,80
408,272,73250,6,0,B|408:352,1,80
304,272,73500,2,0,B|304:352,1,80
200,272,73750,2,0,B|200:368,1,80
96,272,74000,2,0,B|96:360,1,80
32,192,74250,5,0,0:0:0
480,192,74375,1,0,0:0:0
96,192,74500,5,0,0:0:0
416,192,74625,1,0,0:0:0
160,192,74750,5,0,0:0:0
352,192,74875,1,0,0:0:0
224,192,75000,5,0,0:0:0
288,192,75125,1,0,0:0:0
224,192,75250,5,0,0:0:0
288,192,75375,1,0,0:0:0
160,192,75500,5,0,0:0:0
352,192,75625,1,0,0:0:0
96,192,75750,5,0,0:0:0
416,192,75875,1,0,0:0:0
32,192,76000,5,0,0:0:0
480,192,76125,1,0,0:0:0
40,40,76250,6,0,B|88:80,3,40
472,40,76500,2,0,B|424:80,3,40
472,344,76750,2,0,B|424:304,3,40
40,344,77000,2,0,B|88:304,3,40
128,112,77250,6,0,B|176:152,1,40
384,112,77375,2,0,B|336:152,1,40
384,272,77500,2,0,B|336:232,1,40
128,272,77625,2,0,B|176:232,1,40
216,176,77750,5,0,0:0:0
296,176,77812,1,0,0:0:0
296,208,77875,1,0,0:0:0
216,208,77937,1,0,0:0:0
240,192,78000,5,0,0:0:0
272,192,78062,1,0,0:0:0
272,200,78125,1,0,0:0:0
240,200,78187,1,0,0:0:0
256,192,78250,5,0,0:0:0
256,192,78312,12,0,79000,0:0:0
256,176,79250,6,0,B|256:208,1,20
104,96,80250,6,0,B|160:88|224:96,2,120
408,288,81250,2,0,B|344:296|288:288,2,120
408,96,82250,2,0,B|352:88|288:96,2,120
104,288,83250,2,0,B|168:296|224:288,3,120
392,136,84250,6,0,B|392:56,1,80
304,136,84500,2,0,B|304:48,1,80
216,136,84750,1,0,0:0:0
216,32,84875,1,0,0:0:0
112,32,85000,1,0,0:0:0
112,136,85125,1,0,0:0:0
112,240,85250,6,0,B|112:320,1,80
200,240,85500,2,0,B|200:328,1,80
288,240,85750,1,0,0:0:0
288,360,85875,1,0,0:0:0
408,360,86000,1,0,0:0:0
408,240,86125,1,0,0:0:0
288,160,86250,5,0,0:0:0
224,224,86375,1,0,0:0:0
336,120,86500,1,0,0:0:0
176,264,86625,1,0,0:0:0
384,80,86750,1,0,0:0:0
128,304,86875,1,0,0:0:0
432,40,87000,1,0,0:0:0
80,344,87125,1,0,0:0:0
224,160,87250,5,0,0:0:0
288,224,87375,1,0,0:0:0
176,120,87500,1,0,0:0:0
336,264,87625,1,0,0:0:0
128,80,87750,1,0,0:0:0
384,304,87875,1,0,0:0:0
80,40,88000,1,0,0:0:0
432,344,88125,1,0,0:0:0
432,344,88250,6,0,B|344:344,1,80
336,248,88500,2,0,B|232:248,1,80
240,152,88750,2,0,B|152:152,1,80
144,56,89000,2,0,B|40:56,1,80
80,344,89250,6,0,B|168:344,1,80
176,248,89500,2,0,B|280:248,1,80
272,152,89750,2,0,B|360:152,1,80
368,56,90000,2,0,B|472:56,1,80
144,104,90250,5,0,0:0:0
144,280,90500,1,0,0:0:0
368,280,90750,1,0,0:0:0
368,104,91000,1,0,0:0:0
256,56,91250,5,0,0:0:0
120,192,91375,1,0,0:0:0
256,328,91500,1,0,0:0:0
392,192,91625,1,0,0:0:0
256,56,91750,5,0,0:0:0
256,72,91812,1,0,0:0:0
256,88,91875,1,0,0:0:0
256,104,91937,1,0,0:0:0
256,120,92000,1,0,0:0:0
256,136,92062,1,0,0:0:0
256,152,92125,1,0,0:0:0
256,168,92187,1,0,0:0:0
256,184,92250,6,0,B|256:264,1,80
112,184,92500,2,0,B|112:288,1,80
112,104,92750,1,0,0:0:0
256,104,92875,1,0,0:0:0
112,104,93000,1,0,0:0:0
256,104,93125,1,0,0:0:0
256,184,93250,6,0,B|256:264,1,80
400,184,93500,2,0,B|400:288,1,80
400,104,93750,1,0,0:0:0
256,104,93875,1,0,0:0:0
400,104,94000,1,0,0:0:0
256,104,94125,1,0,0:0:0
112,104,94250,5,0,0:0:0
112,264,94375,1,0,0:0:0
400,104,94500,5,0,0:0:0
400,264,94625,1,0,0:0:0
160,104,94750,5,0,0:0:0
160,264,94875,1,0,0:0:0
352,104,95000,5,0,0:0:0
352,264,95125,1,0,0:0:0
208,104,95250,5,0,0:0:0
208,264,95375,1,0,0:0:0
304,104,95500,5,0,0:0:0
304,264,95625,1,0,0:0:0
256,104,95750,5,0,0:0:0
256,264,95875,1,0,0:0:0
256,104,96000,1,0,0:0:0
256,264,96125,1,0,0:0:0
136,56,96250,6,0,B|48:56,1,80
136,144,96500,2,0,B|56:144,1,80
136,232,96750,2,0,B|56:232,1,80
136,320,97000,2,0,B|40:320,1,80
376,56,97250,6,0,B|464:56,1,80
376,144,97500,2,0,B|456:144,1,80
376,232,97750,2,0,B|456:232,1,80
376,320,98000,2,0,B|472:320,1,80
96,112,98250,6,0,B|96:32,1,80
200,112,98500,2,0,B|200:32,1,80
304,112,98750,2,0,B|304:16,1,80
408,112,99000,2,0,B|408:24,1,80
408,272,99250,6,0,B|408:352,1,80
304,272,99500,2,0,B|304:352,1,80
200,272,99750,2,0,B|200:368,1,80
96,272,100000,2,0,B|96:360,1,80
96,56,100250,5,0,0:0:0
416,96,100375,1,0,0:0:0
96,136,100500,1,0,0:0:0
416,176,100625,1,0,0:0:0
96,216,100750,1,0,0:0:0
416,256,100875,1,0,0:0:0
96,296,101000,1,0,0:0:0
416,336,101125,1,0,0:0:0
96,336,101250,5,0,0:0:0
416,296,101375,1,0,0:0:0
96,256,101500,1,0,0:0:0
416,216,101625,1,0,0:0:0
96,176,101750,1,0,0:0:0
416,136,101875,1,0,0:0:0
96,96,102000,1,0,0:0:0
416,56,102125,1,0,0:0:0
200,264,102250,5,0,0:0:0
256,120,102375,1,0,0:0:0
312,264,102500,1,0,0:0:0
176,184,102625,1,0,0:0:0
336,184,102750,5,0,0:0:0
392,40,102875,1,0,0:0:0
448,184,103000,1,0,0:0:0
312,104,103125,1,0,0:0:0
472,104,103250,5,0,0:0:0
469,123,103312,1,0,0:0:0
462,142,103375,1,0,0:0:0
453,160,103437,1,0,0:0:0
446,179,103500,1,0,0:0:0
435,195,103562,1,0,0:0:0
423,211,103625,1,0,0:0:0
411,226,103687,1,0,0:0:0
396,239,103750,1,0,0:0:0
382,253,103812,1,0,0:0:0
364,263,103875,1,0,0:0:0
345,270,103937,1,0,0:0:0
325,276,104000,1,0,0:0:0
305,278,104062,1,0,0:0:0
284,279,104125,1,0,0:0:0
264,279,104187,1,0,0:0:0
243,279,104250,6,0,B|201:283|152:280,1,80
32,184,104500,2,0,B|73:179|123:183,1,80,0|0,0:0|0:0,0:0:0
240,184,104750,1,0,0:0:0
32,280,104875,1,0,0:0:0
240,184,105000,1,0,0:0:0
32,280,105125,1,0,0:0:0
269,105,105250,6,0,B|310:100|360:104,1,80
480,200,105500,2,0,B|438:204|389:201,1,80,0|0,0:0|0:0,0:0:0
272,200,105750,1,0,0:0:0
480,104,105875,1,0,0:0:0
272,200,106000,1,0,0:0:0
480,104,106125,1,0,0:0:0
32,152,106250,6,0,B|32:240,1,80
480,232,106500,2,0,B|480:144,1,80
256,32,106750,1,0,0:0:0
256,352,106875,1,0,0:0:0
256,32,107000,1,0,0:0:0
256,352,107125,1,0,0:0:0
296,32,107250,6,0,B|208:32,1,80
216,352,107500,2,0,B|304:352,1,80
480,192,107750,1,0,0:0:0
32,192,107875,1,0,0:0:0
480,192,108000,1,0,0:0:0
32,192,108125,1,0,0:0:0
416,72,108250,6,0,B|448:96,1,40
384,120,108375,2,0,B|416:160,1,40
344,160,108500,2,0,B|360:208,1,40
288,184,108625,2,0,B|288:232,1,40
224,184,108750,2,0,B|224:232,1,40
168,160,108875,2,0,B|152:208,1,40
128,120,109000,2,0,B|96:160,1,40
96,72,109125,2,0,B|64:96,1,40
96,312,109250,6,0,B|64:288,1,40
128,264,109375,2,0,B|96:224,1,40
168,224,109500,2,0,B|152:176,1,40
224,200,109625,2,0,B|224:152,1,40
288,200,109750,2,0,B|288:152,1,40
344,224,109875,2,0,B|360:176,1,40
384,264,110000,2,0,B|416:224,1,40
416,312,110125,2,0,B|448:288,1,40
512,192,110250,5,0,0:0:0
496,192,110312,1,0,0:0:0
480,192,110375,1,0,0:0:0
464,192,110437,1,0,0:0:0
448,192,110500,1,0,0:0:0
432,192,110562,1,0,0:0:0
416,192,110625,1,0,0:0:0
400,192,110687,1,0,0:0:0
384,192,110750,1,0,0:0:0
368,192,110812,1,0,0:0:0
352,192,110875,1,0,0:0:0
336,192,110937,1,0,0:0:0
320,192,111000,1,0,0:0:0
304,192,111062,1,0,0:0:0
288,192,111125,1,0,0:0:0
272,192,111187,1,0,0:0:0
256,192,111250,1,0,0:0:0
240,192,111312,1,0,0:0:0
224,192,111375,1,0,0:0:0
208,192,111437,1,0,0:0:0
192,192,111500,1,0,0:0:0
176,192,111562,1,0,0:0:0
160,192,111625,1,0,0:0:0
144,192,111687,1,0,0:0:0
128,192,111750,1,0,0:0:0
112,192,111812,1,0,0:0:0
96,192,111875,1,0,0:0:0
80,192,111937,1,0,0:0:0
64,192,112000,1,0,0:0:0
48,192,112062,1,0,0:0:0
32,192,112125,1,0,0:0:0
16,192,112187,1,0,0:0:0
0,192,112250,1,0,0:0:0
256,192,112312,12,0,116250,0:0:0
