osu file format v9

[General]
AudioFilename: HatsuneMiku no BunretuHakai.mp3
AudioLeadIn: 0
PreviewTime: 76508
Countdown: 0
SampleSet: Soft
StackLeniency: 0.2
Mode: 0
LetterboxInBreaks: 0
EpilepsyWarning: 1

[Editor]
DistanceSpacing: 1
BeatDivisor: 3
GridSize: 4

[Metadata]
Title:Hatsune Miku no Bunretsu -> Hakai
Artist:Hatsune Miku
Creator:Amethyst Wolf
Version:Level 6
Source:VOCALOID
Tags:cosMo Saturio

[Difficulty]
HPDrainRate:8
CircleSize:4
OverallDifficulty:9
ApproachRate:9
SliderMultiplier:2.4
SliderTickRate:1

[Events]
//Background and Video events
0,0,"BG.jpg"
//Break Periods
2,32451,34408
2,138977,148555
2,190869,205150
2,215680,216013
2,258328,269201
//Storyboard Layer 0 (Background)
Sprite,Background,Centre,"e-BG\BG-r.jpg",320,240 F,0,34832,34994,0,1 S,0,34994,,0.8 F,0,34994,76508,1,0.9969136
Sprite,Background,Centre,"e-BG\BG-o.jpg",320,240 S,0,76183,,0.8 F,0,76183,76508,0,1 F,0,76508,112832,1 F,2,112832,115426,1 M,0,115426,,320,240 F,2,115426,117372,1,0 F,0,117372,118346,0
Sprite,Background,Centre,"e-BG\BG-wb.jpg",320,240 S,0,137156,,0.8000001 F,2,137156,138778,0,1 F,0,138778,203319,1,0.9938443
Sprite,Background,Centre,"e-BG\BG-b.jpg",320,240 S,0,169913,,0.8 F,0,169913,170075,0,1 F,0,170075,190670,1,0.9876543 F,0,190670,190832,0.9876543,0
Sprite,Background,Centre,"e-BG\BG-wbg.jpg",320,240 S,0,203319,203400,1
Sprite,Background,Centre,"e-BG\BG-p.jpg",320,240 S,0,216289,,0.8 F,2,216289,216613,0,1 F,1,216613,216938,1,0 F,2,216938,217100,0,1 F,0,217100,217586,1,0 F,0,217586,217911,0,1 F,2,217911,237370,1 F,0,237370,238668,1,0
Sprite,Background,Centre,"e-BG\BG-pi.jpg",320,240 S,0,237371,,0.8 F,0,237371,238669,0,1 F,0,238669,258128,1,0.9114022
Sprite,Background,Centre,"sb\white.png",320,240 F,0,256830,257397,0.332,0 F,0,257478,258046,0.6166844,0 F,1,258127,259424,1,0
Sprite,Background,Centre,"e-BG\BG-g.jpg",320,240 S,0,269803,277505,0.8 F,0,269803,279532,1 S,0,277505,277586,0.8,0.808 S,0,277586,277668,0.808,0.8 S,0,277668,277830,0.8 S,0,277830,277911,0.8,0.808 S,0,277911,277992,0.808,0.8 S,0,277992,278154,0.8 S,0,278154,278235,0.8,0.808 S,0,278235,278316,0.808,0.8 S,0,278316,278478,0.8 S,0,278478,278559,0.8,0.8079999 S,0,278559,278640,0.8079999,0.8 S,0,278640,278803,0.8,0.8002963 S,0,278803,278884,0.8002963,0.8082963 S,0,278884,278965,0.8082963,0.8002963 S,0,278965,279046,0.8002963,0.8082963 S,0,279046,279127,0.8082963,0.8002963 S,0,279127,279208,0.8002963,0.8082963 S,0,279208,279289,0.8082963,0.8002963 S,0,279289,279370,0.8002963,0.8082963 S,0,279370,279451,0.8082963,0.8002963 S,0,279451,279532,0.8002963,0.8082963 S,0,279532,279613,0.8082963,0.8002963 F,2,279532,280181,1,0 S,0,279613,279695,0.8002963 S,0,279695,279735,0.8002963,0.8082963 S,0,279735,279776,0.8082963,0.8002963 S,0,279776,279816,0.8002963,0.8082963 S,0,279816,279857,0.8082963,0.8002963 M,0,279857,,320,240 S,0,279857,279897,0.8002963,0.8082963 S,0,279897,279938,0.8082963,0.8002963 S,0,279938,279978,0.8002963,0.8082963 S,0,279978,280019,0.8082963,0.8002963 S,0,280019,280059,0.8002963,0.8082963 S,0,280059,280100,0.8082963,0.8002963 S,0,280100,280140,0.8002963,0.8082963 S,0,280140,280181,0.8082963,0.8002963
Sprite,Background,Centre,"e-BG\BG-bl.jpg",320,240 F,2,279530,280179,0,1 S,0,279532,279613,0.808,0.8 S,0,279613,279695,0.8 S,0,279695,279735,0.8,0.808 S,0,279735,279776,0.808,0.8 S,0,279776,279816,0.8,0.808 S,0,279816,279857,0.808,0.8 S,0,279857,279897,0.8,0.808 S,0,279897,279938,0.808,0.8 S,0,279938,279978,0.8,0.808 S,0,279978,280019,0.808,0.8 S,0,280019,280059,0.8,0.808 S,0,280059,280100,0.808,0.8 S,0,280100,280140,0.8,0.808 S,0,280140,280181,0.808,0.8 S,0,280181,321695,0.8
Sprite,Background,Centre,"sb\white.png",320,240 S,0,316505,,1 F,0,316505,320397,0,1 F,0,320397,321695,1 F,0,321695,321857,1,0
//Storyboard Layer 1 (Fail)
//Storyboard Layer 2 (Pass)
//Storyboard Layer 3 (Foreground)
//Storyboard Sound Samples
//Background Colour Transformations
3,100,163,162,255

[TimingPoints]
24630,324.324324324324,4,2,2,71,1,0
25116,-200,4,2,2,71,0,0
26413,-100,4,2,2,71,0,0
34994,-200,4,2,2,71,0,0
36778,-100,4,2,2,71,0,0
38237,-200,4,2,2,71,0,0
40508,-100,4,2,2,71,0,0
50562,-200,4,2,1,71,0,0
55751,-100,4,2,2,71,0,0
73913,-200,4,2,2,71,0,0
85765,-200,4,2,2,86,0,0
86413,-200,4,2,2,100,0,0
86575,-200,4,2,2,71,0,0
96697,-100,4,2,2,71,0,0
101643,-200,4,2,2,71,0,0
101967,-100,4,2,2,71,0,0
105048,-200,4,2,2,71,0,0
106346,-100,4,2,2,71,0,0
112846,-200,4,2,2,71,0,0
117372,324.324324324324,4,2,1,71,1,0
119804,-200,4,2,1,71,0,0
121588,-100,4,2,1,71,0,0
133263,-100,4,2,1,41,0,0
133344,-100,4,2,1,52,0,0
133426,-100,4,2,1,61,0,0
133507,-100,4,2,1,71,0,0
138615,-100,4,2,1,49,0,0
148831,-200,4,2,1,51,0,0
150615,-200,4,2,1,18,0,0
150899,-200,4,2,1,51,0,0
150939,-200,4,2,1,21,0,0
151101,-200,4,2,1,51,0,0
153290,-200,4,2,1,20,0,0
153493,-200,4,2,1,51,0,0
153534,-200,4,2,1,21,0,0
153696,-200,4,2,1,51,0,0
155804,-200,4,2,1,20,0,0
156088,-200,4,2,1,51,0,0
156128,-200,4,2,1,19,0,0
156290,-200,4,2,1,51,0,0
170074,-100,4,2,1,51,0,0
205588,-100,4,2,1,70,0,0
221803,-200,4,2,1,51,0,0
223100,-100,4,2,1,51,0,0
231370,-200,4,2,1,51,0,0
231857,-100,4,2,1,51,0,0
237370,-200,4,2,2,51,0,0
258774,-100,4,2,1,51,0,0
277422,-100,4,2,2,81,0,0
280179,-100,4,2,2,81,0,1
321692,-100,4,2,2,81,0,0

[Colours]
Combo1 : 53,221,34
Combo2 : 233,12,17
Combo3 : 225,117,19
Combo4 : 16,90,228
Combo5 : 170,28,217

[HitObjects]
256,192,24305,1,4
440,40,24629,2,0,B|440:104|392:152|392:152,1,120,2|0
312,64,24954,1,0
192,64,25116,2,0,B|104:88|120:176|120:176,4,120,2|0|2|0|2
200,184,26575,2,0,B|88:296|88:296,1,120,2|0
232,264,26900,2,0,B|320:176|320:176,1,120
312,296,27224,5,2
400,216,27386,2,0,B|424:176|416:104|368:80|368:80,1,120
272,112,27711,2,0,B|160:24|160:24,2,120,2|2|0
272,112,28359,1,2
272,112,28684,1,0
272,112,29008,1,2
184,192,29170,2,0,B|72:96|72:96,1,120,2|0
344,192,29494,2,0,B|456:288|456:288,1,120
72,328,29819,6,0,B|208:272|208:272,2,120,2|0|2
88,208,30305,1,2
168,112,30629,1,0
168,112,30954,1,2
168,112,31278,1,0
168,112,31602,1,2
432,168,31765,6,0,B|376:48|376:48,1,120,2|0
320,160,32089,2,0,B|232:56|232:56,1,120
264,64,35008,6,0,B|344:72|376:112|376:112,1,120,0|8
320,216,35494,1,0
200,224,35657,2,0,L|192:200|192:200|208:136|192:104|192:104,3,120,0|8|0|8
80,152,36792,1,8
193,341,36954,2,0,B|120:376|32:328|53:246|53:246,1,180,2|0
184,152,37440,2,0,L|136:280|136:280,1,120,0|8
384,248,37927,2,0,L|432:128,1,120,8|0
312,144,38251,2,0,L|264:272|264:272,2,120,0|8|0
184,152,39062,6,0,L|136:280|136:280,1,120,8|8
64,320,39548,2,0,B|24:264|64:192|64:192,2,120,8|8|0
304,288,40521,1,8
304,288,40684,2,0,B|368:160|368:160,1,120,8|0
293,92,41008,2,0,B|304:72|240:200,1,120,8|0
242,194,41332,1,8
40,56,41657,6,0,B|104:104|80:176|80:176,1,120,0|8
83,161,41981,1,8
83,161,42143,1,8
96,224,42224,1,8
128,272,42305,1,0
184,296,42386,1,0
240,288,42467,1,8
296,272,42548,1,8
352,280,42629,1,8
464,240,42792,6,0,B|480:88|344:40|344:40,1,240,8|8
296,144,43278,2,8,B|184:80|184:80,2,120
184,184,43765,2,0,B|72:120|72:120,2,120,8|8|0
232,216,44170,5,8
256,272,44251,1,8
312,304,44332,1,8
368,320,44413,1,0
424,304,44494,1,0
480,280,44575,1,0
488,224,44657,1,0
488,168,44738,1,8
472,112,44819,1,8
440,56,44900,2,0,B|360:32,5,60,0|0|8|8|8|8
328,56,45386,6,0,B|232:160|88:128|88:128,1,240,0|8
88,248,45873,1,0
192,312,46035,2,0,B|256:184|256:184,1,120
328,288,46359,1,8
448,272,46521,2,0,B|392:144|392:144,1,120
288,128,46846,2,0,B|384:32|384:32,1,120,0|8
184,88,47170,2,0,B|195:76|99:172,1,120
144,280,47494,2,0,B|240:184|240:184,1,120,0|8
352,208,47819,1,0
56,328,47981,6,0,B|0:192|64:80|64:80,1,240,0|8
176,88,48467,1,0
232,72,48548,1,0
288,88,48629,1,0
408,80,48792,1,0
320,248,48954,2,0,B|440:144|440:144,1,120,8|0
184,248,49278,2,0,B|304:144|304:144,1,120
152,168,49602,1,8
48,232,49765,2,0,B|56:312|152:336|152:336,3,120,0|0|0|8
376,304,50575,6,0,B|360:224|432:176|432:176,1,120,0|8
288,200,51062,2,0,B|304:120|389:104|389:104,2,120,0|0|8
208,112,51873,2,0,B|160:184|216:248|216:248,1,120,0|8
80,216,52359,2,0,B|86:302|170:318|170:318,2,120,0|0|8
80,160,53170,5,0
104,128,53278,1,0
144,112,53386,1,0
176,96,53494,1,0
216,104,53602,1,0
240,136,53711,1,0
272,144,53819,1,0
312,160,53927,1,0
352,160,54035,1,0
384,184,54143,2,0,B|448:168|448:168,2,40
392,224,54467,5,0
408,264,54575,1,0
392,296,54684,1,0
360,320,54792,1,0
328,304,54900,1,0
296,328,55008,1,0
256,336,55116,1,0
216,320,55224,1,0
168,296,55332,1,0
144,280,55440,1,0
128,256,55521,1,0
112,232,55602,1,0
104,200,55684,1,0
160,176,55765,6,0,B|152:96|208:48|208:48,3,120,0|8|0|8
248,88,56332,1,0
304,64,56413,1,0
384,152,56575,2,0,B|264:192|264:192,1,120,8|0
360,272,56900,1,8
248,312,57062,2,0,B|232:232|128:248|128:248,1,120,0|8
152,368,57386,2,0,B|79:376|55:304,1,120,0|8
117,84,57711,2,0,B|48:208|48:208,2,120,0|8|0
200,168,58197,6,0,B|312:80|312:80,1,120,8|0
320,208,58521,2,0,B|440:168|440:168,1,120,8|0
408,288,58846,1,8
288,312,59008,1,0
168,320,59170,2,0,B|152:256|72:208|72:208,1,120,8|0
200,168,59494,2,0,B|152:104|62:114|62:114,2,120,8|0|8
272,72,59981,1,0
344,168,60143,1,8
168,320,60305,6,0,B|288:280|288:280,1,120,0|8
344,168,60629,1,0
440,240,60792,1,8
448,120,60954,2,0,B|432:48|368:32|368:32,1,120,0|8
272,72,61278,2,0,B|152:128|152:128,1,120,0|8
240,216,61602,2,0,B|104:280,1,120,0|8
232,336,61927,1,0
344,304,62089,2,0,B|376:232|304:160|304:160,1,120,8|0
152,216,62413,1,8
232,56,62575,5,0
352,88,62738,2,0,B|464:152|464:152,1,120,8|0
352,208,63062,1,8
248,272,63224,2,0,B|208:216|248:152,1,120,0|8
136,96,63548,1,0
40,168,63711,1,8
152,216,63873,2,0,B|185:275|152:336,2,120,0|8|0
256,152,64359,1,8
352,216,64521,1,0
440,288,64684,5,8
472,240,64765,1,0
440,192,64846,1,0
376,88,65008,2,0,B|328:48|256:64|256:64,3,120,8|0|8|0
160,128,65657,2,0,B|208:168|280:152|280:152,3,120,8|0|8|0
192,240,66305,1,8
208,360,66467,2,0,B|288:248|288:248,1,120,0|8
360,344,66792,2,0,B|440:232|440:232,1,120,0|8
248,88,67116,6,0,B|312:128|304:216|304:216,1,120,0|8
384,96,67440,1,0
216,168,67602,1,8
104,120,67765,1,0
112,240,67927,1,8
224,280,68089,2,0,B|304:280|336:192|336:192,1,120,0|8
424,160,68413,2,0,B|480:224|424:296|424:296,2,120,0|8|0
312,128,68900,2,0,B|224:32|224:32,1,120,8|0
296,232,69224,2,0,B|208:136|208:136,1,120,8|0
72,288,69548,6,0,B|112:216|56:144|56:144,2,120,8|0|8
192,304,70035,1,0
224,192,70197,2,0,B|296:56|296:56,1,120,8|0
160,112,70521,1,8
392,72,70684,1,0
408,248,70846,2,0,B|336:112|336:112,1,120,8|0
312,256,71170,1,8
472,176,71332,2,0,B|512:112|456:24|456:24,1,120,0|8
264,56,71657,2,0,B|232:120|272:184,1,120,0|8
144,160,71981,6,0,B|184:224|142:275,1,120,0|8
48,208,72305,1,0
120,40,72467,1,8
248,168,72629,1,0
264,288,72792,2,0,B|136:272|136:272,2,120,8|0|8
376,328,73278,1,0
464,248,73440,1,8
344,232,73602,2,0,B|424:136|424:136,1,120,0|8
312,88,73927,6,0,B|248:56|184:96,3,120,0|8|0|8
196,88,75062,1,0
176,104,75143,1,0
160,128,75224,2,0,B|128:192|168:256,2,120,0|8|0
224,192,76116,2,0,B|248:240|224:280|224:280,1,90,8|0
344,288,76521,6,0,B|424:288|424:200|424:200,1,120,0|8
312,176,77008,1,0
424,144,77170,2,0,B|424:64|352:64|352:64,1,120,0|8
312,176,77657,1,0
312,176,77819,2,0,L|272:176|248:152|192:152|192:152,3,120,0|8|0|8
168,328,79116,2,0,L|168:288|192:264|192:216|192:216,1,120,0|8
184,128,79602,2,0,L|144:96,2,30
264,168,79927,6,0,B|288:144|328:144|328:144,2,60,0|8|0
272,256,80413,2,0,B|336:256|320:208|400:208|400:208,1,120,0|8
200,200,81062,2,0,B|160:256|208:336,1,120,0|8
196,313,81467,1,0
196,313,81548,1,0
312,112,81711,6,0,L|280:80|200:80|200:80,1,120,0|0
205,80,82197,1,8
144,144,82359,2,0,L|112:136|80:112,2,60,8|0|8
232,168,82846,1,0
296,232,83008,2,0,L|312:312|288:352|288:352,2,120,0|8|0
128,296,83981,2,0,L|88:224|88:224,1,60,8|8
24,200,84305,6,0,B|72:152|144:176,1,120
224,152,84792,2,0,B|256:112,2,30,8|8|0
128,296,85116,1,8
296,296,85278,2,0,B|320:264|320:216,1,60,0|0
408,256,85602,2,0,B|440:200|416:128,1,120,0|8
304,160,86251,2,0,B|311:95|261:39,1,120,0|8
216,128,86900,6,0,L|128:128|96:152,1,120,0|8
168,208,87386,2,0,L|200:224,2,30
168,296,87711,1,0
256,280,87873,2,0,B|288:224|248:152,3,120,8|0|8|0
320,104,89008,1,0
392,152,89170,1,8
208,152,89494,6,0,B|176:96|216:24,1,120,0|8
272,104,89981,1,0
288,136,90062,1,0
288,168,90143,1,0
104,152,90467,6,0,B|136:176|120:224,1,60,8|0
120,264,90792,1,0
136,288,90873,1,0
160,304,90954,1,0
192,312,91035,1,0
224,312,91116,1,8
248,304,91197,1,0
272,288,91278,1,0
304,288,91359,1,0
336,296,91440,1,0
360,312,91521,1,0
392,320,91602,1,0
424,312,91684,1,0
456,296,91765,2,0,B|504:320,3,30,8|8|8|8
456,296,92089,6,0,B|496:240|448:168,1,120,0|8
376,136,92575,2,0,B|392:88,2,30,0|0|0
336,184,92900,2,0,B|280:192|256:144,1,60,0|8
160,184,93386,2,0,B|112:144|112:144,1,60
88,200,93711,2,0,B|48:248|48:248,1,60,8|8
104,264,94035,2,0,B|152:304|152:304,1,60
176,248,94359,2,0,B|216:200|216:200,1,60,8|8
456,336,94684,6,0,L|384:312|280:312,1,120,0|8
280,312,95170,2,0,L|240:352,2,30,0|0|8
320,264,95494,2,0,L|336:240|376:224,2,60,8|8|8
264,256,95981,5,0
232,256,96062,1,0
200,264,96143,1,0
168,272,96224,1,0
136,272,96305,1,0
104,264,96386,1,0
80,248,96467,1,0
56,224,96548,1,0
40,200,96629,1,0
32,168,96711,6,0,L|0:112,4,60,0|0|8|0|8
80,128,97116,1,0
128,88,97197,1,0
176,128,97278,2,0,B|240:80|296:80,1,120
280,200,97602,2,0,B|344:200|400:144,1,120,8|8
352,40,97927,1,0
456,96,98089,2,0,B|496:152|464:216,1,120,0|8
368,280,98413,2,0,B|504:320,2,120,8|0|0
72,328,98900,6,8,B|120:256|48:192,1,120
64,96,99224,1,0
168,152,99386,1,0
240,56,99548,2,8,B|304:88|296:176,1,120
264,272,99873,2,0,B|128:224,2,120,0|0|8
360,200,100359,1,8
352,80,100521,1,0
456,136,100684,6,0,B|480:224|424:296,1,120,0|8
216,200,101008,1,8
304,312,101170,1,0
160,336,101332,1,0
72,216,101494,1,8
216,112,101657,2,0,B|288:136|296:208,1,120,8|2
336,80,102143,5,8
384,192,102305,2,0,B|368:264|296:288,1,120,0|8
32,232,102954,2,0,B|120:240|136:328,1,120,0|8
128,296,103602,1,8
360,240,103765,1,8
360,240,104251,1,10
200,64,104413,1,2
384,88,104738,5,0
389,104,104819,1,0
389,121,104900,1,0
385,138,104981,1,0
376,152,105062,2,0,B|336:208|264:176,3,120,2|0|2|0
80,328,106359,2,0,B|80:200,1,120,2|0
176,280,106684,2,0,B|240:136,1,120,8|8
408,328,107170,5,0
352,344,107251,1,0
312,304,107332,1,8
376,200,107494,1,8
376,200,107657,6,0,B|376:64,1,120
288,160,107981,2,8,B|184:64,1,120
192,200,108305,2,0,B|64:200,1,120
112,88,108629,1,8
344,48,108792,1,8
280,280,108954,2,0,B|232:344|136:344,1,120
112,240,109278,1,8
40,336,109440,1,8
416,176,109602,6,0,B|280:176|280:176,1,120
248,64,109927,2,0,B|168:72|160:176,1,120,8|8
248,224,110251,2,0,B|120:224,2,120,0|0|8
304,328,110738,1,8
360,224,110900,1,0
304,120,111062,1,0
424,128,111224,2,0,B|424:48|496:16,1,120,8|8
456,264,111548,1,0
216,304,111711,1,0
96,328,111873,5,8
112,208,112035,1,8
208,24,112359,2,8,B|128:40|112:136,1,120,0|8
24,176,112684,1,0
216,112,112846,6,0,B|296:88|360:96,1,120,0|8
264,328,113495,1,0
369,271,113657,1,0
271,206,113819,1,8
96,256,114062,1,0
88,200,114143,2,0,B|104:136|168:96|168:96,1,120,0|8
156,104,114954,2,0,B|176:136|216:152|216:152,2,60,0|8|0
272,80,115440,6,0,B|352:64|352:64,1,60
360,184,115765,2,0,B|432:176|432:176,1,60,8|0
360,280,116089,1,0
328,328,116251,1,0
248,240,116413,1,8
240,184,116575,1,0
128,136,116738,2,0,B|120:96|136:72|136:72,2,60,0|0|8
168,248,117224,1,0
60,232,117372,1,0
60,232,117534,1,0
60,243,117615,1,0
60,254,117696,1,4
296,176,118020,6,0,B|192:96,1,120
200,102,118344,2,0,B|144:128|120:200,1,120,8|0
123,190,118831,1,0
163,299,118993,1,8
123,190,119317,2,0,B|72:248|80:320,2,120,0|0|8
232,248,119804,6,0,B|152:312|56:296,1,180,0|8
160,80,120615,1,0
120,192,120777,1,0
240,168,120939,1,8
160,80,121101,2,0,B|256:56|344:88,1,180,0|8
160,80,121912,5,0
120,192,122074,2,0,B|184:200|248:168,2,120,0|8|0
160,80,122561,2,0,B|232:56|328:80,1,120
278,70,122885,1,8
448,240,123209,6,0,B|368:352,1,120
320,232,123534,1,8
225,306,123696,1,0
225,306,124020,1,0
320,232,124182,1,8
88,304,124507,6,0,B|88:232|144:184,1,120
424,80,124831,2,0,B|424:152|368:200,1,120,8|0
256,192,125480,1,8
256,192,125804,1,0
370,149,125966,1,0
460,231,126128,1,8
345,274,126290,1,0
256,192,126777,1,8
256,192,127101,5,0
196,89,127263,1,0
196,89,127344,1,0
196,89,127426,1,0
125,181,127588,1,0
125,181,127669,1,0
125,181,127750,1,0
189,283,127912,1,0
189,283,127993,1,0
189,283,128074,1,0
104,64,128399,5,2
40,168,128561,1,0
104,272,128723,1,0
168,168,128885,2,0,B|312:168,2,120
240,264,129371,2,0,B|392:264,1,120
432,168,129696,5,2
376,64,129858,2,0,B|232:64,1,120,0|0
336,152,130182,2,0,B|211:223,1,120,0|0
344,248,130507,2,8,B|272:372,1,120,0|0
400,328,130831,1,0
152,304,130993,1,2
56,240,131155,5,0
152,168,131317,1,0
32,160,131480,2,0,B|64:96|144:96,1,120
152,168,131804,1,0
272,176,131966,2,0,B|240:240|160:240,1,120
264,320,132290,5,2
384,344,132453,2,0,B|472:216|472:216,1,120,2|0
336,232,132777,2,0,B|424:104|424:104,1,120,2|0
296,88,133101,1,2
224,184,133263,2,8,B|184:208,8,30,8|8|8|8|8|8|8|8|12
40,192,133912,5,0
40,192,134561,1,0
40,192,134885,1,8
472,192,135209,1,0
472,192,135858,1,0
472,192,135939,1,0
472,192,136020,1,0
472,192,136101,1,0
472,192,136182,1,8
256,352,136507,5,0
256,352,137155,1,0
256,352,137480,1,8
256,32,137804,1,0
256,32,138453,1,0
256,32,138777,1,0
64,96,149155,5,0
48,216,149480,1,0
160,168,149804,1,2
48,216,150453,1,0
160,168,150777,2,0,B|176:160,5,15
424,296,151750,6,0,B|424:232|384:168,2,120,0|0|2
304,272,153047,1,0
304,272,153372,2,0,B|320:264,5,15
56,144,154344,5,0
56,144,154669,2,0,B|168:96,1,120,0|2
166,96,155642,1,0
176,216,155966,2,0,B|192:208,2,15
184,200,156047,2,0,B|200:192,2,15
448,312,156939,5,0
328,312,157263,1,0
208,296,157588,1,2
208,296,158236,1,0
208,176,158399,1,8
200,208,158480,1,8
192,240,158561,1,0
72,248,158885,1,8
64,280,158966,1,8
56,312,159047,5,0
56,312,159209,1,0
56,312,159371,1,0
56,312,159534,5,0
232,336,160020,2,0,B|208:304|200:264,1,60,0|2
344,88,160831,1,0
384,136,160993,2,0,B|440:112,2,60
336,176,161480,1,2
96,144,162128,2,0,B|48:96,2,60
152,168,162615,1,0
136,224,162777,1,2
360,336,163101,6,0,B|328:296|328:264,1,60,2|0
312,224,163426,2,0,B|312:176|328:136,1,60
344,112,163750,2,0,B|408:56,2,60,0|0|2
224,112,164399,2,0,B|184:64,1,60,2|0
168,120,164723,2,0,B|144:176|168:248,2,120,0|0|2
104,288,165858,5,0
72,240,166020,2,0,B|92:178|68:122,2,120,0|0|2
312,280,167317,1,0
408,208,167642,1,0
296,160,167966,1,2
168,288,168453,5,0
112,280,168615,2,0,B|64:256|48:224,1,60
32,192,168939,1,0
168,120,169101,1,0
200,168,169263,2,0,B|240:168|264:128,1,60,2|0
232,88,169588,2,0,B|264:64|312:72,1,60
320,72,169831,1,0
352,80,169912,1,0
400,192,170074,5,0
368,304,170236,2,0,B|240:328,1,120,8|0
320,232,170561,2,0,B|192:256,1,120
112,336,170885,1,8
40,240,171047,2,0,B|16:168|56:88,2,120,8|0|0
128,160,171534,2,0,B|200:48|200:48,1,120,8|0
240,168,171858,1,0
416,320,172020,1,0
368,288,172101,1,0
336,240,172182,5,8
344,120,172344,2,0,B|392:64|464:40,2,120
240,160,172831,1,8
144,232,172993,2,8,B|208:272|216:344,1,120,0|8
160,344,173236,1,0
112,312,173317,2,0,B|56:264|56:192,1,120,8|0
96,96,173642,1,0
200,64,173804,2,0,B|272:56|328:104,1,120
416,160,174128,1,8
312,216,174290,6,0,B|376:280|448:272,1,120
352,336,174615,1,0
296,344,174696,1,0
248,312,174777,1,8
128,312,174939,2,0,L|96:280|96:248|64:208,1,120
192,224,175263,1,0
136,120,175426,2,0,B|200:80|280:136,1,120,8|0
312,216,175750,2,0,B|368:256|426:214,1,120,8|0
336,136,176074,6,0,B|352:96|400:80|400:80|432:56,2,120,0|0|8
216,168,176561,2,0,B|200:208|152:224|152:224|120:248,2,120,0|8|0
96,160,177047,2,0,B|32:192|24:272,1,120,0|0
192,304,177372,1,8
176,112,177534,1,8
296,104,177696,2,0,B|440:104,1,120,0|8
336,192,178020,2,0,B|488:192,1,120,8|0
400,296,178344,2,8,B|272:296,3,120
96,160,178993,5,8
48,272,179155,1,0
168,256,179317,2,8,B|240:296,2,60
232,152,179642,1,8
312,240,179804,2,0,B|368:200|368:112,1,120,0|8
272,64,180128,2,0,B|208:32|128:80,1,120,0|8
96,160,180453,2,0,B|40:112|48:32,2,120,0|0|8
336,136,180939,1,0
240,352,181101,1,0
360,344,181263,6,0,B|384:272|488:272,1,120,8|0
328,288,181588,2,0,B|304:216|200:216,1,120,8|0
360,208,181912,2,0,B|496:208|504:208,2,120,0|0|8
240,208,182399,2,0,B|96:208,1,120,0|0
192,112,182723,2,0,B|80:40,1,120,0|8
40,152,183047,2,0,B|0:216|56:296,1,120
329,266,183372,2,0,B|368:216|328:152,1,120,0|8
216,208,183696,2,0,B|177:157|217:93,2,120,8|0|0
136,296,184182,6,0,B|160:296|160:296|200:312|232:296|232:296|256:296,1,120,8|0
368,328,184507,1,8
368,328,184588,1,0
368,328,184669,1,0
464,256,184831,2,0,B|464:232|464:232|480:216|464:200|480:184|464:160|464:160|464:128,1,120
344,160,185155,2,0,B|328:88|248:64,1,120,8|0
216,184,185480,1,0
144,88,185642,1,0
88,192,185804,2,0,B|112:272|208:304,3,120,8|0|8|0
264,344,186453,5,0
264,344,186534,1,0
264,344,186615,1,0
368,288,186777,2,0,B|440:256|432:160,1,120,8|0
312,208,187101,2,0,B|360:152|313:64,1,120,8|0
216,144,187426,1,0
112,200,187588,1,0
216,264,187750,2,0,B|176:320|96:320|96:320,2,120,8|0|8
312,112,188236,6,0,B|384:128|400:200,1,120,0|8
352,296,188561,1,0
272,208,188723,1,0
464,88,188885,1,0
488,208,189047,2,0,B|480:280|424:312,1,120
312,312,189372,2,0,L|264:312|248:296|176:296,1,120
120,208,189696,6,0,B|72:152|128:80,1,120
232,128,190020,1,0
304,32,190182,1,0
424,32,190344,1,0
496,128,190507,1,0
362,129,190669,1,0
368,88,205750,6,0,B|400:96|424:112|424:112|440:144|408:200,2,120,0|8|0
200,80,206236,2,0,B|136:128|96:192,1,120
56,272,206561,2,0,B|152:272|192:240,1,120,8|0
256,168,206885,2,0,B|328:192|384:192|384:192|416:232|480:280|480:280,1,240,0|8
344,280,207371,1,0
344,280,207453,1,0
344,280,207534,2,0,B|224:264|112:176,2,240,0|8|0
288,176,208344,1,0
224,72,208507,6,0,B|344:88|456:176,2,240,8|0|8
104,104,209317,2,0,B|48:144|40:208|40:208,2,120,0|0|0
168,208,209804,1,8
264,280,209966,2,0,B|288:304|328:320|328:320,2,60
360,208,210290,2,0,B|384:208|408:200|408:200,4,30,0|0|0|0|8
416,104,210615,2,0,B|352:80|272:96|272:96,1,120
176,104,210939,2,0,B|152:104|128:112|128:112,4,30,0|0|0|0|8
176,104,211263,1,0
296,96,211426,6,0,B|408:160|424:312|424:312,2,240,0|8|0
420,292,212399,1,8
304,288,212561,1,0
248,296,212642,1,0
192,288,212723,1,0
192,288,213047,1,8
344,104,213371,1,0
344,104,213696,1,8
104,88,214020,5,2
48,240,214236,1,0
176,344,214453,1,0
408,88,214669,1,2
464,240,214885,1,0
336,344,215102,1,2
256,192,215317,5,8
256,192,215480,1,8
104,104,216613,5,0
104,104,217100,1,0
384,336,217586,2,0,B|448:304|448:216,1,120
328,248,217911,2,0,B|312:144,8,60
240,328,218722,2,0,B|200:272|208:168,1,120
128,304,219046,1,0
120,184,219208,2,2,B|160:112|248:112,1,120
213,115,219532,1,0
213,115,219857,6,0,B|160:72|80:80,1,120
101,78,220343,2,0,B|128:136|120:208,1,120
16,144,220668,1,0
32,264,220830,2,0,B|96:304|160:296,1,120
256,336,221154,2,0,B|368:232,1,120
432,336,221478,2,2,B|456:192,1,120
432,96,221803,2,0,B|368:168|288:200,1,180,0|0
296,144,222451,2,0,B|384:232|432:344,1,240,2|0
430,340,223181,5,0
376,320,223262,1,0
320,328,223343,1,0
264,312,223424,1,2
480,256,223749,2,0,B|376:208|224:200,1,240
48,64,224397,6,8,B|192:56,1,120
464,64,224722,2,0,B|320:56,1,120
144,152,225046,2,8,B|104:216|16:256,1,120
368,152,225370,2,0,B|408:216|496:256,1,120
224,312,225695,1,8
256,72,225857,1,8
40,168,226019,1,0
224,312,226181,1,0
448,224,226343,2,8,B|448:152|472:104,1,120
64,224,226668,2,0,B|64:152|40:104,1,120
272,184,226992,6,0,B|336:144,6,60
168,128,227641,6,0,B|240:192,6,60
128,168,228208,6,0,B|152:248,3,60
192,256,228532,6,0,B|264:304,1,60
288,248,228695,2,0,B|368:264,1,60
400,280,228857,2,0,B|424:200,1,60
360,200,229019,2,0,B|432:152,1,60
360,136,229181,2,0,B|400:72,1,60
328,88,229343,2,0,B|328:8,1,60
272,56,229505,2,0,B|232:8,1,60
216,80,229668,6,0,B|152:64,6,60
96,64,230316,2,0,B|104:112|136:128,7,60,0|0|0|0|0|0|0|2
96,64,231370,2,0,B|40:144|48:256,1,180
80,288,231938,1,0
136,296,232019,1,0
192,288,232100,1,0
248,296,232181,1,0
488,272,232505,2,0,B|376:216|272:88,1,240
272,72,232911,5,0
224,104,232992,1,0
168,104,233073,1,0
120,144,233154,1,0
120,200,233235,1,0
168,232,233316,1,0
224,224,233397,2,0,B|304:240,3,60
280,296,233722,2,0,B|392:280,1,60
384,248,233884,5,0
432,216,233965,1,0
440,160,234046,1,0
424,104,234127,1,0
368,72,234208,1,0
312,96,234289,1,0
264,128,234370,1,0
216,120,234451,1,0
176,80,234532,2,0,B|104:48,3,60
120,120,234857,6,0,B|64:160,2,60
128,176,235100,2,0,B|88:248,2,60
160,224,235343,2,0,B|168:312,2,60
216,256,235586,2,0,B|264:320,2,60
280,256,235830,2,0,B|360:296,2,60
336,232,236073,2,0,B|400:232,2,60
368,176,236316,2,0,B|448:144,2,60
376,120,236559,2,0,B|416:32,2,60
308,72,236831,6,0,B|276:96|236:152,2,80
228,60,237155,2,0,B|180:68|140:108,1,80
256,192,237371,12,0,238669
88,280,238991,6,0,B|144:320|216:304,2,120
168,192,239964,2,0,B|256:168|352:200,1,180
288,184,240615,2,0,B|378:194|455:260,1,180
416,208,241263,2,0,B|368:120|272:96|272:96,1,180
232,160,241910,2,0,B|184:120|184:48,1,120
264,96,242399,1,0
264,96,242480,1,0
264,96,242561,1,0
320,200,242885,5,0
320,200,243047,2,0,B|288:288|184:312|184:312,1,180
128,312,243696,1,0
152,256,243858,2,0,B|176:192|128:128|128:128|80:136|16:96|16:96,1,240
136,48,244831,1,0
240,112,245155,2,0,B|288:216|232:296|232:296,2,180
240,111,246453,2,0,B|161:195|66:173|66:173,2,180
112,232,247747,6,0,B|112:144|176:96,1,120
160,176,248396,2,0,B|211:104|291:103,1,120
240,168,249044,2,0,B|368:168,2,120
208,256,250017,1,0
320,304,250342,1,0
440,320,250666,2,0,B|424:256|384:192,1,120
136,296,251639,2,0,B|80:240|64:176,1,120
192,200,252288,1,0
400,80,252936,6,0,B|368:208,1,120
304,96,253585,2,0,B|240:200,1,120
120,224,254234,2,0,B|200:328|344:336,1,240
256,192,255534,12,0,256831
256,192,257477,5,0
256,192,258128,1,4
256,192,269801,5,0
256,192,270773,2,0,B|224:96|120:64,1,180
144,128,271098,2,0,B|160:264|328:336,1,240
368,256,271746,2,0,B|352:120|184:48,2,240
88,72,273368,6,0,B|40:280,1,180
40,304,273692,2,0,B|184:328|312:240,2,240
240,176,274665,2,0,B|336:112|472:136,1,240
104,112,275963,5,0
160,280,276206,1,0
216,304,276287,1,0
456,280,276611,1,0
232,200,276936,1,0
416,40,277260,1,0
176,56,277584,5,8
176,56,277909,1,8
176,56,278233,1,8
176,56,278557,1,8
176,56,278882,1,8
176,56,279044,1,8
176,56,279206,1,8
176,56,279368,1,8
72,112,279530,6,8,B|32:168,1,60
96,176,279692,2,0,B|80:248,1,60
144,224,279855,2,0,B|184:288,2,60,8|8|0
200,216,280098,1,0
192,160,280179,6,0,B|304:80,1,120,0|8
360,192,280503,2,0,B|496:104,1,120,0|8
440,248,280828,2,0,B|328:328,1,120,0|8
280,216,281152,2,0,B|288:144|336:96,1,120,0|8
216,64,281476,2,0,B|168:112|80:104,1,120,0|8
24,192,281801,2,0,B|104:216|184:200,1,120,0|8
240,144,282125,2,0,B|286:216|216:288,1,120,0|8
448,144,282449,2,0,B|402:216|472:288,1,120,0|8
352,328,282773,1,0
352,328,282855,1,0
352,328,282936,5,8
232,320,283098,2,0,B|336:224,1,120,0|8
312,120,283422,1,0
232,208,283584,2,0,B|96:224,1,120,8|0
184,128,283909,2,0,B|280:24,1,120,8|0
144,40,284233,1,8
64,136,284395,2,0,B|88:200|152:240,1,120,0|8
48,312,284719,1,0
168,336,284882,1,8
168,336,285044,2,0,B|240:352,2,60,0|0|8
264,256,285368,6,0,B|352:216,2,60,0|0|8
304,144,285692,2,0,B|392:152|416:240,1,120,0|8
360,88,286017,2,0,B|306:56|245:84,1,120,0|8
128,80,286341,1,0
56,312,286503,1,8
88,192,286665,2,0,B|176:240|176:312,1,120,0|8
240,176,286990,2,0,B|288:240|248:328,1,120,0|8
352,208,287314,2,0,B|360:288|312:368,1,120,0|8
440,272,287638,2,0,B|416:344|376:384,1,120,0|8
440,272,287963,6,0,B|416:184|448:80,2,180,0|0|8
328,240,288611,2,0,B|265:173|244:66,2,180,0|0|8
208,224,289260,2,0,B|112:128,1,120,0|8
104,256,289584,2,0,B|224:360,1,120,0|8
304,280,289909,2,0,B|312:208|272:136,1,120,0|8
344,56,290233,1,0
344,56,290314,1,0
344,56,290395,1,0
344,56,290476,1,0
344,56,290557,1,0
224,48,290719,5,8
128,120,290882,1,0
128,120,290963,1,0
128,120,291044,1,8
208,208,291206,1,0
208,208,291287,1,0
208,208,291368,1,8
96,240,291530,1,0
96,240,291611,1,0
96,240,291692,1,8
192,320,291855,5,0
204,332,291936,1,0
219,341,292017,1,8
236,345,292098,1,0
253,348,292179,1,0
360,296,292341,1,8
317,184,292503,5,0
305,172,292584,1,0
290,163,292665,1,8
273,159,292746,1,0
256,156,292828,1,0
149,208,292990,1,8
94,100,293152,5,0
94,100,293233,1,0
94,100,293314,1,8
209,66,293476,2,0,B|280:55|336:83,1,120,0|8
425,148,293801,2,0,B|464:234|408:311,1,120,0|8
318,228,294125,1,0
311,244,294206,1,0
299,257,294287,1,8
188,303,294449,5,0
168,304,294530,1,0
152,304,294611,1,8
136,304,294692,1,0
120,304,294773,1,0
120,304,294936,1,8
96,272,295098,5,0
116,271,295179,1,0
132,271,295260,1,8
148,271,295341,1,0
164,271,295422,1,0
164,271,295584,1,8
216,168,295746,6,0,B|248:112,2,60,0|0|8
144,72,296071,2,0,B|200:16|272:16,1,120,0|8
344,88,296395,1,0
368,208,296557,1,8
320,320,296719,1,0
320,320,296801,1,0
320,320,296882,1,8
200,320,297044,5,0
88,280,297206,1,8
88,280,297368,2,0,B|112:208|88:144,1,120,0|8
93,161,297692,2,0,B|168:144|216:80,1,120,0|8
176,224,298017,2,0,B|243:190|272:127,1,120,0|8
320,248,298341,5,0
360,72,298584,1,0
192,136,298828,1,8
192,136,298990,1,0
152,312,299233,1,0
320,248,299476,1,8
432,288,299638,2,0,B|440:216|400:160,3,120,0|8|0|8
288,160,300287,2,0,B|256:96,4,60,0|0|8|8|0
288,160,300773,1,8
168,168,300936,6,0,B|104:136,1,60
165,183,301098,2,0,B|96:163,1,60,8|0
165,199,301260,2,0,B|94:191,1,60
167,215,301422,2,0,B|96:219,1,60,8|0
173,230,301584,2,0,B|103:246,1,60
181,243,301746,2,0,B|115:272,1,60,8|0
191,256,301909,2,0,B|131:295,1,60
203,266,302071,2,0,B|151:315,1,60,8|0
203,267,302233,6,0,B|185:336,1,60
218,266,302395,2,0,B|212:337,1,60,8|0
233,263,302557,2,0,B|239:334,1,60
249,258,302719,2,0,B|267:326,1,60,8|0
262,249,302882,2,0,B|292:314,1,60
273,238,303044,2,0,B|315:296,1,60,8|0
284,226,303206,2,0,B|334:276,1,60
291,212,303368,2,0,B|349:252,1,60,8|0
368,192,303530,6,0,B|440:184,1,60
424,184,303692,2,0,B|364:177,1,60,8|0
366,180,303855,2,0,B|438:172,1,60
422,172,304017,2,0,B|362:165,1,60,8|0
361,164,304179,2,0,B|433:156,1,60
417,156,304341,2,0,B|357:149,1,60,8|0
359,152,304503,2,0,B|431:144,1,60
415,144,304665,2,0,B|355:137,1,60,8|0
328,88,304828,6,0,B|256:48,1,60
256,112,304990,2,0,B|192:160,1,60,8|0
208,88,305152,2,0,B|136:48,1,60
136,112,305314,2,0,B|72:160,1,60,8|0
88,148,305476,2,8,B|64:144|48:112,6,40,0|0|0|0|0|0|8
192,208,306125,5,0
305,165,306449,1,0
263,52,306773,1,0
151,94,307098,1,8
192,208,307422,1,0
263,52,308071,1,8
480,344,308557,5,0
480,344,308638,1,0
480,344,308719,1,8
392,264,308882,5,0
408,208,308963,1,8
312,280,309125,5,0
328,224,309206,1,8
120,120,309368,5,0
104,176,309449,1,8
200,104,309611,5,0
184,160,309692,1,8
304,136,309855,6,0,B|368:88,10,60,0|0|0|0|0|0|0|0|0|0|8
152,312,311152,5,0
152,312,311233,1,0
152,312,311314,2,0,B|104:256|88:200,1,120,8|0
144,240,311557,6,0,B|122:169|131:111,1,120,8|0
168,80,311801,6,0,B|146:150|155:208,1,120,8|0
200,240,312044,6,0,B|178:169|187:111,1,120,8|0
232,88,312287,6,0,B|210:158|219:216,1,120,8|0
264,168,312530,2,0,B|328:128,9,60,0|0|0|0|0|0|0|0|0|8
456,336,313584,6,0,B|424:272|424:192,1,120
312,256,313909,1,0
295,262,313990,1,0
279,270,314071,1,0
262,277,314152,1,0
245,283,314233,1,0
227,287,314314,1,0
209,290,314395,1,0
191,292,314476,1,0
173,292,314557,1,0
155,291,314638,1,0
137,289,314719,1,0
119,285,314801,1,0
101,279,314882,1,0
84,272,314963,1,0
67,265,315044,1,0
50,257,315125,1,0
67,255,315206,5,0
84,253,315287,1,0
101,249,315368,1,0
118,244,315449,1,0
135,239,315530,1,0
152,233,315611,1,0
168,226,315692,1,0
183,217,315773,1,0
198,208,315855,1,0
213,198,315936,1,0
227,188,316017,1,0
239,174,316098,1,0
250,160,316179,1,0
261,146,316260,1,0
271,131,316341,1,0
280,116,316422,1,0
224,136,316503,6,0,B|200:112|192:64,2,60,0|0|2
128,208,316828,6,0,B|112:136|136:80,1,120,0|2
120,248,317152,2,0,B|128:328|177:362,2,120,0|2|0
216,272,317638,1,2
296,184,317801,1,0
296,184,317882,1,0
296,184,317963,1,2
384,264,318125,6,0,B|416:208|400:128,1,120,0|2
296,96,318449,1,0
296,96,318530,1,0
296,96,318611,1,2
184,144,318773,1,0
184,144,318855,1,0
184,144,318936,1,2
280,224,319098,1,0
280,224,319179,1,0
280,224,319260,6,0,B|248:280|168:304,2,120,2|0|2
187,297,319746,2,0,B|128:280|64:288,1,120,0|2
80,168,320071,2,0,B|139:185|203:177,1,120,0|2
144,72,320395,5,0
144,80,320476,1,0
144,88,320557,1,2
144,96,320638,1,2
144,104,320719,1,0
144,112,320801,1,0
144,120,320882,1,2
144,128,320963,1,2
208,168,321044,5,0
208,160,321125,1,0
208,152,321206,1,2
208,144,321287,1,2
208,136,321368,1,0
208,128,321449,1,0
208,120,321530,1,2
208,112,321611,1,2
208,104,321692,1,0
272,96,321804,6,0,B|320:144|320:240,2,80,0|2|0
224,160,322128,1,0
264,232,322236,1,0
240,304,322341,1,0
264,232,322453,2,0,B|320:240|368:224,2,80,2|0|0
264,232,322777,2,0,B|216:224|160:240,2,80,0|0|4
