osu file format v13

[General]
AudioFilename: Hatsune Miku 5th Anniversary Medley.mp3
AudioLeadIn: 2000
PreviewTime: 478355
Countdown: 0
SampleSet: Normal
StackLeniency: 0.7
Mode: 0
LetterboxInBreaks: 1
WidescreenStoryboard: 0

[Editor]
DistanceSpacing: 0.8
BeatDivisor: 4
GridSize: 4
TimelineZoom: 1

[Metadata]
Title:Hatsune Miku 5th Anniversary Medley
TitleUnicode:Hatsune Miku 5th Anniversary Medley
Artist:Hatsune Miku
ArtistUnicode:Hatsune Miku
Creator:Betsuto
Version:Marathon
Source:Birth day medley song for Miku
Tags:
BeatmapID:544927
BeatmapSetID:235056

[Difficulty]
HPDrainRate:7
CircleSize:4
OverallDifficulty:7
ApproachRate:7
SliderMultiplier:1.8
SliderTickRate:1

[Events]
//Background and Video events
0,0,"5th BD.jpg",0,0
//Break Periods
2,14687,94987
2,102856,156119
2,173372,212387
2,228968,252314
2,266323,288495
2,304478,322132
2,338736,386669
2,396774,416615
2,424475,477460
2,486254,516518
2,523150,546050
2,555539,572518
2,581618,641412
2,655662,685693
2,694105,786943
//Storyboard Layer 0 (Background)
//Storyboard Layer 1 (Fail)
//Storyboard Layer 2 (Pass)
//Storyboard Layer 3 (Foreground)
//Storyboard Sound Samples
//Background Colour Transformations
3,100,163,162,255

[TimingPoints]
1687,400,4,2,0,60,1,0
95929,363.636363636364,4,2,0,70,1,0
158430,342.857142857143,4,2,0,100,1,0
216063,352.941176470588,4,2,0,100,1,0
253033,363.636363636364,4,2,0,70,1,0
289395,465.116279069767,4,2,0,70,1,0
323032,504.201680672269,4,2,0,100,1,0
387574,500,4,2,0,100,1,0
417515,422.535211267606,4,2,0,100,1,0
480016,389.61038961039,4,2,1,100,1,0
517412,307.692307692308,4,2,0,100,1,0
546918,263.157894736842,4,2,0,100,1,0
573418,250,4,1,0,100,1,0
642312,410.958904109589,4,2,0,100,1,0
686593,375,4,2,0,100,1,0
787808,600,4,2,0,100,1,0

[Colours]
Combo1 : 98,255,255
Combo2 : 255,128,64
Combo3 : 255,128,255
Combo4 : 0,215,107

[HitObjects]
256,192,1681,5,0,0:0:0:0:
256,192,2087,1,0,0:0:0:0:
256,192,2487,1,0,0:0:0:0:
256,192,2887,1,0,0:0:0:0:
256,192,3287,1,0,0:0:0:0:
256,192,3687,1,0,0:0:0:0:
256,192,4087,1,0,0:0:0:0:
256,192,4487,1,0,0:0:0:0:
256,192,4887,1,0,0:0:0:0:
256,192,5287,1,0,0:0:0:0:
256,192,5687,1,0,0:0:0:0:
256,192,6087,1,0,0:0:0:0:
256,192,6487,1,0,0:0:0:0:
256,192,6887,1,0,0:0:0:0:
256,192,7287,1,0,0:0:0:0:
256,192,7687,1,0,0:0:0:0:
256,192,8087,1,0,0:0:0:0:
256,192,8487,1,0,0:0:0:0:
256,192,8887,1,0,0:0:0:0:
256,192,9287,1,0,0:0:0:0:
256,192,9687,1,0,0:0:0:0:
256,192,10087,1,0,0:0:0:0:
256,192,10487,1,0,0:0:0:0:
256,192,10887,1,0,0:0:0:0:
256,192,11287,1,0,0:0:0:0:
256,192,11687,1,0,0:0:0:0:
256,192,12087,1,0,0:0:0:0:
256,192,12487,1,0,0:0:0:0:
256,192,12887,1,0,0:0:0:0:
256,192,13287,1,0,0:0:0:0:
256,192,13687,1,0,0:0:0:0:
256,192,14087,1,0,0:0:0:0:
256,192,14487,1,0,0:0:0:0:
256,192,95887,6,0,L|256:96,2,90,0|0|0,0:0|0:0|0:0,0:0:0:0:
260,272,96474,1,0,0:0:0:0:
260,272,96656,1,0,0:0:0:0:
260,272,97019,1,0,0:0:0:0:
260,272,97201,1,0,0:0:0:0:
260,272,97565,1,0,0:0:0:0:
260,272,97747,1,0,0:0:0:0:
260,272,98110,1,0,0:0:0:0:
260,272,98474,1,0,0:0:0:0:
260,272,98838,1,0,0:0:0:0:
260,272,99019,1,0,0:0:0:0:
260,272,99201,1,0,0:0:0:0:
260,272,99383,1,0,0:0:0:0:
260,272,99929,1,0,0:0:0:0:
260,272,100292,1,0,0:0:0:0:
260,272,100474,1,0,0:0:0:0:
260,272,100656,1,0,0:0:0:0:
260,272,100838,1,0,0:0:0:0:
260,272,101201,1,0,0:0:0:0:
260,272,101565,1,0,0:0:0:0:
260,272,101747,1,0,0:0:0:0:
260,272,102110,1,0,0:0:0:0:
260,272,102474,1,0,0:0:0:0:
260,272,102656,1,0,0:0:0:0:
256,192,157019,5,4,0:0:0:0:
256,192,158430,1,0,1:0:0:0:
256,192,158601,1,0,0:0:0:0:
256,192,158687,1,0,1:0:0:0:
256,192,158772,1,8,0:0:0:0:
256,192,158944,1,0,0:0:0:0:
256,192,159115,1,2,0:0:0:0:
256,192,159201,1,0,0:0:0:0:
256,192,159287,1,0,1:0:0:0:
256,192,159458,1,8,0:0:0:0:
256,192,159630,1,2,0:0:0:0:
256,192,159801,1,4,1:2:0:0:
340,192,160144,1,0,0:0:0:0:
340,192,160487,1,0,0:0:0:0:
340,192,160658,1,0,0:0:0:0:
340,192,161001,1,0,0:0:0:0:
340,192,161344,1,0,0:0:0:0:
340,192,161515,1,0,0:0:0:0:
340,192,161858,1,0,0:0:0:0:
340,192,162201,1,0,0:0:0:0:
340,192,162544,1,0,0:0:0:0:
340,192,163058,1,0,0:0:0:0:
340,192,163401,1,0,0:0:0:0:
340,192,163744,1,0,0:0:0:0:
340,192,164087,1,0,0:0:0:0:
340,192,164258,1,0,0:0:0:0:
340,192,164601,1,0,0:0:0:0:
340,192,164944,1,0,0:0:0:0:
340,192,165287,1,0,0:0:0:0:
340,192,165630,1,0,0:0:0:0:
340,192,165972,1,0,0:0:0:0:
340,192,166144,1,0,0:0:0:0:
340,192,166487,1,0,0:0:0:0:
340,192,166830,1,0,0:0:0:0:
340,192,167001,1,0,0:0:0:0:
340,192,167344,1,0,0:0:0:0:
340,192,167687,1,0,0:0:0:0:
340,192,168030,1,0,0:0:0:0:
340,192,168544,1,0,0:0:0:0:
340,192,168887,1,0,0:0:0:0:
340,192,169230,1,0,0:0:0:0:
340,192,169572,1,0,0:0:0:0:
340,192,169744,1,0,0:0:0:0:
340,192,170087,1,0,0:0:0:0:
340,192,170430,1,0,0:0:0:0:
340,192,170772,1,0,0:0:0:0:
340,192,171115,1,0,0:0:0:0:
340,192,171458,1,0,0:0:0:0:
340,192,171630,1,0,0:0:0:0:
340,192,171972,1,0,0:0:0:0:
340,192,172315,1,0,0:0:0:0:
340,192,172487,1,0,0:0:0:0:
340,192,172830,1,0,0:0:0:0:
340,192,173172,1,0,0:0:0:0:
256,192,213287,5,0,0:0:0:0:
256,192,213372,1,0,0:0:0:0:
256,192,213458,1,0,0:0:0:0:
256,116,213630,1,0,1:0:0:0:
256,192,213972,1,0,0:0:0:0:
256,192,214058,1,0,0:0:0:0:
256,192,214144,1,0,0:0:0:0:
256,116,214315,1,0,1:0:0:0:
332,192,214658,1,8,0:0:0:0:
256,116,214830,1,0,1:0:0:0:
332,192,215001,1,8,0:0:0:0:
256,192,215172,1,0,0:0:0:0:
256,192,215344,1,0,3:0:0:0:
256,192,215515,1,0,3:0:0:0:
256,192,215687,1,0,3:0:0:0:
256,192,215858,1,0,3:0:0:0:
256,264,216063,5,0,1:0:0:0:
256,264,216768,1,0,1:0:0:0:
256,264,216945,1,8,0:0:0:0:
256,264,217033,1,8,0:0:0:0:
256,264,217121,1,8,0:0:0:0:
256,264,217298,1,0,1:0:0:0:
256,264,217474,1,4,0:0:0:0:
336,260,217827,1,8,0:0:0:0:
336,260,218180,1,0,0:0:0:0:
336,260,218357,1,0,0:0:0:0:
336,260,218533,1,8,0:0:0:0:
336,260,218710,1,0,0:0:0:0:
336,260,219063,1,0,0:0:0:0:
336,260,219239,1,8,0:0:0:0:
336,260,219415,1,0,0:0:0:0:
336,260,219768,1,0,0:0:0:0:
336,260,219945,1,8,0:0:0:0:
336,260,220121,1,0,0:0:0:0:
336,260,220298,1,0,0:0:0:0:
336,260,220651,1,8,0:0:0:0:
336,260,220827,1,0,0:0:0:0:
336,260,221180,1,0,0:0:0:0:
336,260,221357,1,8,0:0:0:0:
336,260,221533,1,0,0:0:0:0:
336,260,221710,1,0,0:0:0:0:
336,260,222063,1,8,0:0:0:0:
336,260,222239,1,0,0:0:0:0:
336,260,222592,1,0,0:0:0:0:
336,260,222945,1,0,0:0:0:0:
336,260,223121,1,0,0:0:0:0:
336,260,223474,1,8,0:0:0:0:
336,260,223651,1,0,0:0:0:0:
336,260,224003,1,0,0:0:0:0:
336,260,224092,1,0,0:0:0:0:
336,260,224180,1,8,0:0:0:0:
336,260,224357,1,0,0:0:0:0:
336,260,224533,1,0,0:0:0:0:
336,260,224710,1,0,0:0:0:0:
336,260,224886,1,8,0:0:0:0:
336,260,225063,1,0,0:0:0:0:
336,260,225415,1,8,0:0:0:0:
336,260,225592,1,8,0:0:0:0:
336,260,225768,1,0,0:0:0:0:
336,260,225945,1,0,0:0:0:0:
336,260,226121,1,0,0:0:0:0:
336,260,226474,1,0,0:0:0:0:
336,260,226827,1,0,0:0:0:0:
336,260,226915,1,0,0:0:0:0:
336,260,227004,1,8,0:0:0:0:
336,260,227180,1,0,0:0:0:0:
336,260,227357,1,0,0:0:0:0:
336,260,227710,1,8,0:0:0:0:
336,260,227886,1,0,0:0:0:0:
336,260,228239,1,0,0:0:0:0:
336,260,228592,1,0,0:0:0:0:
336,260,228768,1,4,0:0:0:0:
196,188,253214,6,0,L|192:96,1,90
264,92,253577,2,0,L|268:184,1,90
340,180,253941,2,0,L|336:88,1,90
408,80,254305,1,0,0:0:0:0:
428,160,254487,5,0,0:0:0:0:
428,160,254669,1,0,0:0:0:0:
428,160,254851,1,0,0:0:0:0:
428,160,255033,1,0,0:0:0:0:
428,160,255214,1,0,0:0:0:0:
428,160,255396,1,0,0:0:0:0:
428,160,255578,1,0,0:0:0:0:
428,160,255760,1,0,0:0:0:0:
428,160,255942,1,0,0:0:0:0:
428,160,256123,1,0,0:0:0:0:
428,160,256487,1,0,0:0:0:0:
428,160,256851,1,0,0:0:0:0:
428,160,257033,1,0,0:0:0:0:
428,160,257214,1,0,0:0:0:0:
428,160,257396,1,0,0:0:0:0:
428,160,257669,1,0,0:0:0:0:
428,160,257942,1,0,0:0:0:0:
428,160,258123,1,0,0:0:0:0:
428,160,258396,1,0,0:0:0:0:
428,160,258669,1,0,0:0:0:0:
428,160,258851,1,0,0:0:0:0:
428,160,259033,1,0,0:0:0:0:
428,160,259214,1,0,0:0:0:0:
428,160,259396,1,0,0:0:0:0:
428,160,259760,1,4,0:0:0:0:
428,160,260123,1,0,0:0:0:0:
428,160,260487,1,0,0:0:0:0:
428,160,260669,1,0,0:0:0:0:
428,160,260851,1,0,0:0:0:0:
428,160,261033,1,0,0:0:0:0:
428,160,261214,1,0,0:0:0:0:
428,160,261396,1,0,0:0:0:0:
428,160,261578,1,0,0:0:0:0:
428,160,261760,1,0,0:0:0:0:
428,160,261942,1,0,0:0:0:0:
428,160,262305,1,0,0:0:0:0:
428,160,262669,1,0,0:0:0:0:
428,160,262851,1,0,0:0:0:0:
428,160,263033,1,0,0:0:0:0:
428,160,263214,1,0,0:0:0:0:
428,160,263578,1,0,0:0:0:0:
428,160,263942,1,0,0:0:0:0:
428,160,264305,1,0,0:0:0:0:
428,160,264487,1,0,0:0:0:0:
428,160,264669,1,0,0:0:0:0:
428,160,265396,1,0,0:0:0:0:
428,160,265578,1,0,0:0:0:0:
428,160,265760,1,0,0:0:0:0:
428,160,265942,1,0,0:0:0:0:
428,160,266123,1,0,0:0:0:0:
256,192,289395,5,0,0:0:0:0:
256,192,289628,1,2,0:0:0:0:
256,192,290093,1,2,0:0:0:0:
256,192,290558,1,2,0:0:0:0:
256,192,291023,1,2,0:0:0:0:
256,192,291488,1,2,0:0:0:0:
256,192,291953,1,2,0:0:0:0:
256,192,292418,1,2,0:0:0:0:
256,192,292884,1,2,0:0:0:0:
256,192,293349,1,2,0:0:0:0:
256,192,293814,1,2,0:0:0:0:
256,192,294279,1,2,0:0:0:0:
256,192,294744,1,2,0:0:0:0:
256,192,295209,1,2,0:0:0:0:
256,192,295674,1,2,0:0:0:0:
256,192,296139,1,4,0:0:0:0:
256,192,296371,1,0,0:0:0:0:
256,192,296604,1,4,0:0:0:0:
256,192,296836,1,0,0:0:0:0:
256,192,297185,1,0,0:0:0:0:
256,192,297534,1,0,0:0:0:0:
256,192,297883,1,0,0:0:0:0:
256,192,298232,1,0,0:0:0:0:
256,192,298697,1,0,0:0:0:0:
256,192,299046,1,0,0:0:0:0:
256,192,299395,1,0,0:0:0:0:
256,192,299743,1,0,0:0:0:0:
256,192,300092,1,0,0:0:0:0:
256,192,300557,1,0,0:0:0:0:
256,192,300906,1,0,0:0:0:0:
256,192,301255,1,0,0:0:0:0:
256,192,301604,1,0,0:0:0:0:
256,192,301953,1,0,0:0:0:0:
256,192,302418,1,0,0:0:0:0:
256,192,302767,1,0,0:0:0:0:
256,192,303115,1,0,0:0:0:0:
256,192,303348,1,0,0:0:0:0:
256,192,303697,1,0,0:0:0:0:
256,192,304046,1,0,0:0:0:0:
256,192,304278,1,0,0:0:0:0:
256,192,323032,5,0,0:0:0:0:
256,192,323284,1,0,0:0:0:0:
256,192,323536,1,0,0:0:0:0:
256,192,323914,1,0,0:0:0:0:
256,192,324040,1,0,0:0:0:0:
256,192,324166,1,0,0:0:0:0:
256,192,324292,1,0,0:0:0:0:
256,192,324418,1,0,0:0:0:0:
256,192,324544,1,0,0:0:0:0:
256,192,324796,1,0,0:0:0:0:
256,192,325048,1,0,0:0:0:0:
256,192,325300,1,0,0:0:0:0:
256,192,325553,1,0,0:0:0:0:
256,192,325805,1,0,0:0:0:0:
256,192,326057,1,0,0:0:0:0:
256,192,326309,1,0,0:0:0:0:
256,192,326561,1,0,0:0:0:0:
256,192,326813,1,0,0:0:0:0:
256,192,326939,1,0,0:0:0:0:
256,192,327065,1,0,0:0:0:0:
256,192,327317,1,0,0:0:0:0:
256,192,327569,1,0,0:0:0:0:
336,192,328074,1,0,0:0:0:0:
336,192,328452,1,0,0:0:0:0:
336,192,328830,1,0,0:0:0:0:
336,192,329082,1,0,0:0:0:0:
336,192,329208,1,0,0:0:0:0:
336,192,329334,1,0,0:0:0:0:
336,192,329460,1,0,0:0:0:0:
336,192,329586,1,0,0:0:0:0:
336,192,329838,1,0,0:0:0:0:
336,192,330090,1,0,0:0:0:0:
336,192,330342,1,0,0:0:0:0:
336,192,330595,1,0,0:0:0:0:
336,192,330847,1,0,0:0:0:0:
336,192,330973,1,0,0:0:0:0:
336,192,331099,1,0,0:0:0:0:
336,192,331351,1,0,0:0:0:0:
336,192,331603,1,0,0:0:0:0:
340,196,331855,1,0,0:0:0:0:
340,196,332107,1,0,0:0:0:0:
340,196,332485,1,0,0:0:0:0:
340,200,332863,1,0,0:0:0:0:
340,200,333116,1,0,0:0:0:0:
340,196,333368,1,0,0:0:0:0:
340,196,333620,1,0,0:0:0:0:
340,196,333872,1,0,0:0:0:0:
340,196,334124,1,0,0:0:0:0:
340,200,334502,1,0,0:0:0:0:
340,196,335132,1,0,0:0:0:0:
340,196,335384,1,0,0:0:0:0:
340,196,335637,1,0,0:0:0:0:
340,200,335889,1,0,0:0:0:0:
340,200,336141,1,0,0:0:0:0:
340,196,336393,1,0,0:0:0:0:
340,196,336645,1,0,0:0:0:0:
340,196,336897,1,0,0:0:0:0:
340,196,337023,1,0,0:0:0:0:
340,196,337149,1,0,0:0:0:0:
340,196,337275,1,0,0:0:0:0:
340,200,337401,1,0,0:0:0:0:
340,200,337527,1,0,0:0:0:0:
340,200,337653,1,0,0:0:0:0:
340,196,337905,1,0,0:0:0:0:
340,196,338158,1,0,0:0:0:0:
340,196,338536,1,0,0:0:0:0:
256,192,387569,5,0,0:0:0:0:
256,192,388074,1,0,0:0:0:0:
256,192,388574,1,0,0:0:0:0:
256,192,389074,1,0,0:0:0:0:
256,192,389574,1,0,0:0:0:0:
256,192,390074,1,0,0:0:0:0:
256,192,390324,1,0,0:0:0:0:
256,192,390574,1,0,0:0:0:0:
256,192,391074,1,0,0:0:0:0:
256,192,391324,1,0,0:0:0:0:
256,192,391574,1,0,0:0:0:0:
256,192,392074,1,0,0:0:0:0:
256,192,392574,1,0,0:0:0:0:
256,192,393074,1,0,0:0:0:0:
256,192,393574,1,0,0:0:0:0:
256,192,394074,1,0,0:0:0:0:
256,192,394324,1,0,0:0:0:0:
256,192,394574,1,0,0:0:0:0:
256,192,395074,1,0,0:0:0:0:
256,192,395574,1,0,0:0:0:0:
256,192,396074,1,0,0:0:0:0:
256,192,396324,1,0,0:0:0:0:
256,192,396574,1,0,0:0:0:0:
260,192,417515,6,0,L|244:8,3,180,0|0|0|0,0:0|0:0|0:0|0:0,0:0:0:0:
256,192,419205,1,0,0:0:0:0:
256,192,419416,1,0,0:0:0:0:
256,192,419627,1,0,0:0:0:0:
256,192,419733,1,0,0:0:0:0:
256,192,419944,1,0,0:0:0:0:
256,192,420050,1,0,0:0:0:0:
256,192,420155,1,0,0:0:0:0:
256,192,420261,1,0,0:0:0:0:
256,192,420472,1,0,0:0:0:0:
256,192,420684,1,0,0:0:0:0:
256,192,420895,1,0,0:0:0:0:
256,192,421106,1,0,0:0:0:0:
256,192,421212,1,0,0:0:0:0:
256,192,421317,1,0,0:0:0:0:
256,192,421423,1,0,0:0:0:0:
256,192,421529,1,0,0:0:0:0:
256,192,421634,1,0,0:0:0:0:
256,192,421740,1,0,0:0:0:0:
256,192,421845,1,0,0:0:0:0:
256,192,421951,1,0,0:0:0:0:
256,192,422057,1,0,0:0:0:0:
256,192,422162,1,0,0:0:0:0:
256,192,422268,1,0,0:0:0:0:
256,192,422374,1,0,0:0:0:0:
256,192,422479,1,0,0:0:0:0:
256,192,422585,1,0,0:0:0:0:
256,192,422796,1,0,0:0:0:0:
256,192,423007,1,0,0:0:0:0:
256,192,423113,1,0,0:0:0:0:
256,192,423219,1,0,0:0:0:0:
256,192,423324,1,0,0:0:0:0:
256,192,423430,1,0,0:0:0:0:
256,192,423536,1,0,0:0:0:0:
256,192,423641,1,0,0:0:0:0:
256,192,423747,1,0,0:0:0:0:
256,192,423853,1,0,0:0:0:0:
256,192,423958,1,0,0:0:0:0:
256,192,424064,1,0,0:0:0:0:
256,192,424169,1,0,0:0:0:0:
256,192,424275,1,0,0:0:0:0:
256,192,478360,5,0,0:0:0:0:
256,192,478782,1,0,0:0:0:0:
256,192,478993,1,0,0:0:0:0:
256,192,479205,1,0,0:0:0:0:
256,192,479627,1,0,0:0:0:0:
256,192,479838,1,0,0:0:0:0:
256,192,480016,1,8,0:0:0:0:
256,192,480308,1,0,0:0:0:0:
256,192,480600,1,0,0:0:0:0:
256,192,480795,1,8,0:0:0:0:
256,192,481379,1,0,0:0:0:0:
256,192,481574,1,8,0:0:0:0:
256,192,481769,1,0,0:0:0:0:
256,192,481964,1,8,0:0:0:0:
256,192,482158,1,0,0:0:0:0:
256,192,482353,1,8,0:0:0:0:
256,192,482743,1,8,0:0:0:0:
256,192,482938,1,0,0:0:0:0:
256,192,483132,1,8,0:0:0:0:
256,192,483425,1,0,0:0:0:0:
256,192,483717,1,0,0:0:0:0:
256,192,483912,1,8,0:0:0:0:
256,192,484496,1,0,0:0:0:0:
256,192,484691,1,8,0:0:0:0:
256,192,484886,1,0,0:0:0:0:
256,192,485080,1,8,0:0:0:0:
256,192,485275,1,0,0:0:0:0:
256,192,485470,1,8,0:0:0:0:
256,192,485860,1,8,0:0:0:0:
256,192,486054,1,8,0:0:0:0:
256,192,517418,5,0,0:0:0:0:
256,192,517719,1,0,0:0:0:0:
256,192,518027,1,0,0:0:0:0:
256,192,518181,1,0,0:0:0:0:
256,192,518335,1,0,0:0:0:0:
256,192,518488,1,0,0:0:0:0:
256,192,518796,1,0,0:0:0:0:
256,192,518950,1,0,0:0:0:0:
256,192,519258,1,0,0:0:0:0:
256,192,519412,1,0,0:0:0:0:
256,192,519565,1,0,0:0:0:0:
256,192,519719,1,0,0:0:0:0:
256,192,520027,1,0,0:0:0:0:
256,192,520181,1,0,0:0:0:0:
256,192,520335,1,0,0:0:0:0:
256,192,520488,1,0,0:0:0:0:
256,192,520642,1,0,0:0:0:0:
256,192,520796,1,0,0:0:0:0:
256,192,520950,1,0,0:0:0:0:
256,192,521258,1,0,0:0:0:0:
256,192,521412,1,0,0:0:0:0:
256,192,521565,1,0,0:0:0:0:
256,192,521719,1,0,0:0:0:0:
256,192,521873,1,0,0:0:0:0:
256,192,522027,1,0,0:0:0:0:
256,192,522335,1,0,0:0:0:0:
256,192,522642,1,0,0:0:0:0:
256,192,522796,1,0,0:0:0:0:
256,192,522950,1,0,0:0:0:0:
256,192,546950,5,4,0:0:0:0:
256,192,547181,1,8,0:0:0:0:
256,192,547444,1,0,0:0:0:0:
256,192,547707,1,8,0:0:0:0:
256,192,547970,1,0,0:0:0:0:
256,192,548233,1,8,0:0:0:0:
256,192,548409,1,8,0:0:0:0:
256,192,548496,1,0,0:0:0:0:
256,192,548760,1,8,0:0:0:0:
256,192,549023,1,0,0:0:0:0:
256,192,549286,1,8,0:0:0:0:
256,192,549549,1,0,0:0:0:0:
256,192,549812,1,8,0:0:0:0:
256,192,550075,1,0,0:0:0:0:
256,192,550339,1,8,0:0:0:0:
256,192,550514,1,8,0:0:0:0:
256,192,550602,1,0,0:0:0:0:
256,192,550865,1,8,0:0:0:0:
256,192,551128,1,0,0:0:0:0:
256,192,551391,1,8,0:0:0:0:
256,192,551654,1,0,0:0:0:0:
256,192,551918,1,8,0:0:0:0:
256,192,552181,1,0,0:0:0:0:
256,192,552444,1,8,0:0:0:0:
256,192,552619,1,8,0:0:0:0:
256,192,552707,1,0,0:0:0:0:
256,192,552970,1,8,0:0:0:0:
256,192,553233,1,0,0:0:0:0:
256,192,553496,1,8,0:0:0:0:
256,192,553672,1,8,0:0:0:0:
256,192,553760,1,0,0:0:0:0:
256,192,554023,1,8,0:0:0:0:
256,192,554286,1,0,0:0:0:0:
256,192,554549,1,8,0:0:0:0:
256,192,554725,1,8,0:0:0:0:
256,192,554812,1,0,0:0:0:0:
256,192,555075,1,8,0:0:0:0:
256,192,555339,1,4,0:0:0:0:
256,192,573418,5,0,0:0:0:0:
256,192,573668,1,8,0:0:0:0:
256,192,573793,1,0,0:0:0:0:
256,192,574043,1,0,0:0:0:0:
256,192,574168,1,8,0:0:0:0:
256,192,574418,1,0,0:0:0:0:
256,192,574668,1,8,0:0:0:0:
256,192,574918,1,0,0:0:0:0:
256,192,575168,1,8,0:0:0:0:
256,192,575418,1,0,0:0:0:0:
256,192,575668,1,8,0:0:0:0:
256,192,576168,1,8,0:0:0:0:
256,192,576418,1,0,0:0:0:0:
256,192,576668,1,8,0:0:0:0:
256,192,576918,1,0,0:0:0:0:
256,192,577043,1,0,0:0:0:0:
256,192,577168,1,8,0:0:0:0:
256,192,577418,1,0,0:0:0:0:
256,192,577668,1,8,0:0:0:0:
256,192,577918,1,0,0:0:0:0:
256,192,578043,1,0,0:0:0:0:
256,192,578168,1,8,0:0:0:0:
256,192,578418,1,0,0:0:0:0:
256,192,578668,1,8,0:0:0:0:
256,192,578918,1,0,0:0:0:0:
256,192,579043,1,0,0:0:0:0:
256,192,579168,1,8,0:0:0:0:
256,192,579418,1,0,0:0:0:0:
256,192,579668,1,8,0:0:0:0:
256,192,579918,1,0,0:0:0:0:
256,192,580043,1,0,0:0:0:0:
256,192,580168,1,8,0:0:0:0:
256,192,580418,1,0,0:0:0:0:
256,192,580668,1,8,0:0:0:0:
256,192,580793,1,0,0:0:0:0:
256,192,581043,1,0,0:0:0:0:
256,192,581168,1,8,0:0:0:0:
256,192,581418,1,4,0:0:0:0:
256,192,642312,5,0,0:0:0:0:
256,192,642517,1,0,0:0:0:0:
256,192,642722,1,8,0:0:0:0:
256,192,642928,1,0,0:0:0:0:
256,192,643133,1,0,0:0:0:0:
256,192,643339,1,0,0:0:0:0:
256,192,643544,1,8,0:0:0:0:
256,192,643750,1,0,0:0:0:0:
256,192,643955,1,0,0:0:0:0:
256,192,644161,1,0,0:0:0:0:
256,192,644366,1,8,0:0:0:0:
256,192,644572,1,0,0:0:0:0:
256,192,644983,1,0,0:0:0:0:
256,192,645188,1,8,0:0:0:0:
256,192,645394,1,0,0:0:0:0:
256,192,645599,1,4,0:0:0:0:
256,192,646010,1,8,0:0:0:0:
256,192,646216,1,0,0:0:0:0:
256,192,646421,1,0,0:0:0:0:
256,192,646627,1,0,0:0:0:0:
256,192,646832,1,8,0:0:0:0:
256,192,647038,1,0,0:0:0:0:
256,192,647448,1,0,0:0:0:0:
256,192,647654,1,8,0:0:0:0:
256,192,647859,1,0,0:0:0:0:
256,192,648270,1,0,0:0:0:0:
256,192,648476,1,8,0:0:0:0:
256,192,648681,1,0,0:0:0:0:
256,192,649092,1,0,0:0:0:0:
256,192,649298,1,8,0:0:0:0:
256,192,649503,1,0,0:0:0:0:
256,192,649709,1,0,0:0:0:0:
256,192,649914,1,0,0:0:0:0:
256,192,650120,1,8,0:0:0:0:
256,192,650325,1,0,0:0:0:0:
256,192,650736,1,0,0:0:0:0:
256,192,650942,1,8,0:0:0:0:
256,192,651147,1,0,0:0:0:0:
256,192,651558,1,0,0:0:0:0:
256,192,651764,1,8,0:0:0:0:
256,192,651969,1,0,0:0:0:0:
256,192,652380,1,0,0:0:0:0:
256,192,652585,1,8,0:0:0:0:
256,192,652791,1,0,0:0:0:0:
256,192,652996,1,0,0:0:0:0:
256,192,653202,1,0,0:0:0:0:
256,192,653407,1,8,0:0:0:0:
256,192,653613,1,0,0:0:0:0:
256,192,654024,1,0,0:0:0:0:
256,192,654229,1,8,0:0:0:0:
256,192,654435,1,0,0:0:0:0:
256,192,654846,1,0,0:0:0:0:
256,192,655051,1,8,0:0:0:0:
256,192,655257,1,0,0:0:0:0:
256,192,655462,1,4,0:0:0:0:
256,192,686593,5,0,0:0:0:0:
256,192,686780,1,8,0:0:0:0:
256,192,686968,1,0,0:0:0:0:
256,192,687155,1,8,0:0:0:0:
256,192,687249,1,0,0:0:0:0:
256,192,687436,1,0,0:0:0:0:
256,192,687530,1,8,0:0:0:0:
256,192,687718,1,0,0:0:0:0:
256,192,687905,1,8,0:0:0:0:
256,192,688093,1,0,0:0:0:0:
256,192,688280,1,8,0:0:0:0:
256,192,688468,1,0,0:0:0:0:
256,192,688655,1,8,0:0:0:0:
256,192,688749,1,0,0:0:0:0:
256,192,688936,1,0,0:0:0:0:
256,192,689030,1,8,0:0:0:0:
256,192,689218,1,0,0:0:0:0:
256,192,689405,1,8,0:0:0:0:
256,192,689593,1,0,0:0:0:0:
256,192,689780,1,8,0:0:0:0:
256,192,689968,1,0,0:0:0:0:
256,192,690155,1,8,0:0:0:0:
256,192,690249,1,0,0:0:0:0:
256,192,690436,1,0,0:0:0:0:
256,192,690530,1,8,0:0:0:0:
256,192,690718,1,0,0:0:0:0:
256,192,690905,1,8,0:0:0:0:
256,192,691093,1,0,0:0:0:0:
256,192,691280,1,8,0:0:0:0:
256,192,691468,1,0,0:0:0:0:
256,192,691655,1,8,0:0:0:0:
256,192,691749,1,0,0:0:0:0:
256,192,691936,1,0,0:0:0:0:
256,192,692030,1,8,0:0:0:0:
256,192,692218,1,0,0:0:0:0:
256,192,692405,1,8,0:0:0:0:
256,192,692593,1,0,0:0:0:0:
256,192,692780,1,8,0:0:0:0:
256,192,692968,1,0,0:0:0:0:
256,192,693155,1,8,0:0:0:0:
256,192,693249,1,0,0:0:0:0:
256,192,693436,1,0,0:0:0:0:
256,192,693530,1,8,0:0:0:0:
256,192,693718,1,0,0:0:0:0:
256,192,693905,1,8,0:0:0:0:
256,192,787843,5,8,0:0:0:0:
256,192,787958,1,8,0:0:0:0:
256,192,788108,1,8,0:0:0:0:
256,192,788258,1,8,0:0:0:0:
256,192,788708,1,8,0:0:0:0:
256,192,788858,1,8,0:0:0:0:
256,192,789008,1,8,0:0:0:0:
256,192,789308,1,8,0:0:0:0:
256,192,789458,1,8,0:0:0:0:
256,192,789908,1,8,0:0:0:0:
256,192,790208,1,8,0:0:0:0:
256,192,790358,1,8,0:0:0:0:
256,192,790508,1,8,0:0:0:0:
256,192,790658,1,8,0:0:0:0:
256,192,791108,1,8,0:0:0:0:
256,192,791258,1,8,0:0:0:0:
256,192,791408,1,8,0:0:0:0:
256,192,791558,1,8,0:0:0:0:
256,192,791708,1,8,0:0:0:0:
256,192,791858,1,8,0:0:0:0:
256,192,792158,1,8,0:0:0:0:
256,192,792308,1,8,0:0:0:0:
256,192,792608,1,8,0:0:0:0:
256,192,792758,1,8,0:0:0:0:
256,192,792908,1,8,0:0:0:0:
256,192,793058,1,8,0:0:0:0:
256,192,793358,1,8,0:0:0:0:
256,192,793508,1,8,0:0:0:0:
256,192,793808,1,8,0:0:0:0:
256,192,794108,1,8,0:0:0:0:
256,192,794258,1,8,0:0:0:0:
256,192,794558,1,8,0:0:0:0:
256,192,794858,1,8,0:0:0:0:
256,192,795008,1,8,0:0:0:0:
256,192,795158,1,8,0:0:0:0:
256,192,795308,1,8,0:0:0:0:
256,192,795458,1,8,0:0:0:0:
256,192,795758,1,8,0:0:0:0:
256,192,795908,1,8,0:0:0:0:
256,192,796208,1,8,0:0:0:0:
256,192,796508,1,8,0:0:0:0:
256,192,796658,1,8,0:0:0:0:
256,192,796808,1,8,0:0:0:0:
256,192,797108,1,8,0:0:0:0:
256,192,797258,1,8,0:0:0:0:
256,192,797408,1,8,0:0:0:0:
