osu file format v9

[General]
AudioFilename: Life Game.mp3
AudioLeadIn: 500
PreviewTime: 77349
Countdown: 0
SampleSet: Normal
StackLeniency: 0.7
Mode: 0
LetterboxInBreaks: 0

[Editor]
Bookmarks: 1706,49706,97706,159420
DistanceSpacing: 1
BeatDivisor: 4
GridSize: 4

[Metadata]
Title:Game of Life
Artist:Hatsune Miku
Creator:wcx19911123
Version:Easy
Source:yuzuhiko
Tags:Vocaloid

[Difficulty]
HPDrainRate:2
CircleSize:3
OverallDifficulty:2
ApproachRate:2
SliderMultiplier:0.6
SliderTickRate:1

[Events]
//Background and Video events
0,0,"BG.jpg"
//Break Periods
2,37906,48146
2,91049,96146
2,145906,157860
//Storyboard Layer 0 (Background)
//Storyboard Layer 1 (Fail)
//Storyboard Layer 2 (Pass)
//Storyboard Layer 3 (Foreground)
//Storyboard Sound Samples
//Background Colour Transformations
3,100,163,162,255

[TimingPoints]
-8,428.571428571429,4,1,0,70,1,0
1277,-66.6666666666667,4,2,1,60,0,0
7920,-66.6666666666667,4,1,0,70,0,0
8349,-66.6666666666667,4,1,1,70,0,0
8992,-66.6666666666667,4,2,1,70,0,0
9420,-66.6666666666667,4,1,1,70,0,0
10706,-66.6666666666667,4,2,1,70,0,0
11134,-66.6666666666667,4,1,1,70,0,0
37706,-66.6666666666667,4,2,0,5,0,0
49492,-66.6666666666667,4,1,1,70,0,0
72420,-66.6666666666667,4,2,1,70,0,0
72634,-66.6666666666667,4,1,1,70,0,0
77134,-50,4,1,1,70,0,1
80134,-50,4,2,1,70,0,1
80563,-50,4,1,1,70,0,1
90849,-66.6666666666667,4,1,1,70,0,0
104456,-100,4,1,2,60,0,0
104992,-100,4,2,2,60,0,0
105420,-100,4,1,2,60,0,0
106706,-100,4,2,2,60,0,0
107134,-100,4,1,2,60,0,0
108420,-100,4,2,2,60,0,0
108849,-100,4,1,2,60,0,0
111420,-100,4,1,1,60,0,0
117312,-100,4,1,1,70,0,0
118170,-66.6666666666667,4,1,1,70,0,0
127277,-66.6666666666667,4,2,1,70,0,0
127491,-66.6666666666667,4,1,1,70,0,0
131991,-50,4,1,1,70,0,1
134991,-50,4,2,1,70,0,1
135420,-50,4,1,1,70,0,1
145705,-100,4,1,1,70,0,0
159312,-66.6666666666667,4,1,1,70,0,0
168420,-66.6666666666667,4,2,1,70,0,0
168634,-66.6666666666667,4,1,1,70,0,0
173027,-100,4,2,0,60,0,0
185991,-100,4,1,1,70,0,0
186848,-66.6666666666667,4,1,1,70,0,1
189848,-66.6666666666667,4,2,1,70,0,1
189955,-66.6666666666667,4,1,1,70,0,1
193277,-66.6666666666667,4,2,1,70,0,1
193384,-66.6666666666667,4,1,1,70,0,1
196705,-66.6666666666667,4,2,1,70,0,1
196812,-66.6666666666667,4,1,1,70,0,1
200563,-66.6666666666667,4,2,1,70,0,0
203134,-66.6666666666667,4,2,1,30,0,0
203992,-66.6666666666667,4,1,1,70,0,0
217491,-66.6666666666667,4,2,1,70,0,0
220062,-66.6666666666667,4,1,1,70,0,0

[Colours]
Combo1 : 215,157,70
Combo2 : 255,0,204
Combo3 : 15,249,255

[HitObjects]
256,104,1706,1,0
412,192,2563,1,0
256,280,3420,1,0
100,192,4277,2,0,B|72:152|76:92,2,89.9999973177911,0|2|0
256,280,5992,5,0
412,192,6849,1,0
256,100,7706,1,0
256,100,8134,1,0
344,108,8563,6,0,B|344:184|256:228|168:184|168:108,1,269.999991953373,4|0
100,168,10277,2,0,B|112:224|180:284|280:288|328:256,1,269.999991953373,0|0
408,232,11991,6,0,B|420:292|380:324,1,89.9999973177911,4|8
308,352,12849,1,0
132,316,13706,1,0
76,244,14134,2,0,B|54:215|54:159,1,89.9999973177911,8|0
204,56,15420,6,0,B|244:88|260:140,1,89.9999973177911,4|8
308,56,16277,2,0,B|268:88|252:140,1,89.9999973177911
180,176,17134,1,0
256,224,17563,1,8
332,176,17992,1,0
424,332,18849,6,0,B|380:248,1,89.9999973177911,4|8
292,264,19706,2,0,B|252:356,1,89.9999973177911
255,346,20563,2,0,B|220:264,1,89.9999973177911,0|8
129,252,21420,2,0,B|88:332,2,89.9999973177911,0|0|4
64,188,22706,6,0,B|44:144|68:88,1,89.9999973177911,8|0
96,16,23563,1,8
184,172,24420,1,8
256,228,24849,1,0
328,172,25277,1,8
416,16,26134,5,8
448,100,26563,2,0,B|468:144|448:188,1,89.9999973177911,0|8
372,236,27420,2,0,B|320:252|292:304,1,89.9999973177911,0|8
210,288,28277,2,0,B|192:252|140:236,1,89.9999973177911,0|8
128,324,29134,6,0,B|76:308|57:271,1,89.9999973177911,4|8
20,192,29992,1,0
60,112,30420,1,8
232,56,31277,2,0,B|280:40|324:84,1,89.9999973177911,8|0
256,144,32134,1,8
436,156,32992,6,0,B|340:152,1,89.9999973177911,8|0
256,144,33849,1,8
316,312,34706,1,8
256,244,35134,1,0
196,312,35563,1,8
256,192,35992,12,0,37706
152,264,49706,6,0,B|156:312|196:340,2,89.9999973177911,4|8|0
244,260,50991,1,8
172,96,51849,1,8
84,80,52277,2,0,B|80:144|124:168,1,89.9999973177911,0|8
292,140,53563,6,0,B|268:92|308:44,2,89.9999973177911,8|0|8
376,108,54849,2,0,B|396:108|396:108|400:148|436:164,1,89.9999973177911,0|8
352,204,55706,2,0,B|384:244|436:248,1,89.9999973177911,0|8
484,316,56563,5,4
396,328,56991,1,8
216,344,57849,1,8
216,344,58277,2,0,B|168:352|120:344,1,89.9999973177911,0|8
36,188,59563,1,8
36,188,59991,2,0,B|36:284,1,89.9999973177911,0|8
116,236,60849,6,0,B|160:159,1,89.9999973177911,0|8
212,232,61706,2,0,B|295:184,1,89.9999973177911,0|8
312,100,62563,1,0
388,148,62991,1,8
420,64,63420,6,0,B|472:88|476:148,1,89.9999973177911,4|8
444,216,64277,2,0,B|397:249|343:222,1,89.9999973177911,0|8
300,160,65134,2,0,B|294:102|344:69,2,89.9999973177911,0|8|0
288,248,66420,1,8
284,340,66849,6,0,B|192:340,1,89.9999973177911,4|8
44,240,68134,1,8
80,64,68991,1,8
260,40,69849,1,8
348,52,70277,6,0,B|392:64|424:104,1,89.9999973177911,4|8
344,144,71134,2,0,B|373:181|417:193,1,89.9999973177911,0|8
500,228,71991,2,0,B|464:288|380:308,2,134.999995976687,0|0|8
432,168,73706,6,0,B|400:212|352:224,2,89.9999973177911,4|0|4
364,108,74991,2,0,B|352:136|316:144,2,44.9999986588955,4|4|4
56,72,77134,6,0,B|120:44|176:84,1,120,4|8
236,180,77991,2,0,B|172:208|116:168,1,120,0|8
0,176,78849,1,0
68,276,79277,1,8
184,312,79706,2,0,B|268:324|300:276|260:212|196:252|208:304|292:348,1,240,0|4
404,352,80991,5,8
408,232,81420,2,0,B|424:272|424:272|460:280|480:320,2,120,0|8|0
376,116,82706,1,8
464,32,83134,2,0,B|424:52|424:52|380:20|328:48,1,120,0|8
232,40,83991,6,0,B|192:80|176:124|176:124|200:112|200:136,1,120,4|8
236,232,84849,2,0,B|276:192|292:148|292:148|268:160|268:136,1,120,0|8
332,256,85706,1,0
240,336,86134,1,8
132,280,86563,1,0
12,300,86991,6,0,B|4:232|56:184,1,120,8|4
144,116,87849,1,8
256,76,88277,2,0,B|280:140|232:140|256:192,1,120,0|8
256,192,89134,12,4,90849
332,68,97706,6,0,B|400:128,1,89.9999973177911,4|8
316,164,98563,2,0,B|384:224,1,89.9999973177911,0|8
300,252,99420,2,0,B|300:344,1,89.9999973177911,0|8
212,342,100277,2,0,B|212:252,1,89.9999973177911,0|8
128,224,101134,6,0,B|195:164,1,89.9999973177911,4|8
111,128,101991,2,0,B|178:68,1,89.9999973177911,0|8
256,24,102849,2,0,B|256:124,1,89.9999973177911,0|8
212,192,103706,2,0,B|248:208|264:208|300:192,1,89.9999973177911,0|8
340,120,104563,6,0,B|388:80|464:80,1,120
496,120,105849,1,8
496,180,106277,2,0,B|460:176|460:176|472:224|464:264,1,120
408,240,107563,1,8
404,300,107991,6,0,B|360:340|312:344|312:344|320:328|308:320,1,120
280,276,109277,2,0,B|252:268|232:308,1,60,8|0
192,348,110134,2,0,B|168:332|168:332|160:312,1,45
88,304,110991,1,8
44,264,111420,6,0,B|44:200,1,60,4|0
44,144,112277,2,0,B|44:80,1,60
104,72,113134,2,0,B|104:132,1,60
104,192,113991,2,0,B|104:264,1,60
104,312,114849,6,0,B|164:340|160:292|228:324,1,120
276,340,116134,1,0
332,320,116563,1,0
428,244,117420,1,0
428,244,117849,1,0
472,164,118277,6,0,B|496:116|480:64,1,89.9999973177911,4|8
416,20,119134,2,0,B|392:67|404:107,1,89.9999973177911,0|8
324,144,119991,1,0
256,84,120420,1,8
188,144,120849,2,0,B|148:128|120:68,1,89.9999973177911,0|8
64,16,121706,6,0,B|28:60|44:112,1,89.9999973177911,4|8
44,280,122991,1,8
216,332,123849,1,8
396,312,124706,1,8
444,236,125134,6,0,B|472:192|472:144,1,89.9999973177911,4|8
412,84,125991,2,0,B|384:128|384:176,1,89.9999973177911,0|8
360,256,126849,2,0,B|284:220|300:136,2,134.999995976687,0|0|8
288,308,128563,6,0,B|240:276|228:224,2,89.9999973177911,4|0|4
208,348,129849,2,0,B|184:332|172:300,2,44.9999986588955,4|4|4
464,56,131991,6,0,B|400:56|352:95,1,120,4|8
248,152,132849,2,0,B|188:192|120:164,1,120,0|8
172,56,133706,1,0
56,84,134134,1,8
20,200,134563,2,0,B|56:272|120:292|144:208|68:164|40:236|72:324,1,240,0|4
176,360,135849,5,8
296,340,136277,2,0,B|360:328|388:264,1,120,0|8
268,264,137134,2,0,B|204:252|176:188,1,120,0|8
192,72,137991,1,0
272,164,138420,1,8
312,52,138849,6,0,B|376:48|424:92,1,120,4|8
460,204,139706,2,0,B|396:208|348:164,1,120,0|8
364,284,140563,1,0
256,340,140991,1,8
148,284,141420,1,0
92,176,141849,6,0,B|36:212|24:280,2,120,8|4|8
184,96,143134,1,0
256,192,143563,1,8
256,192,143991,12,4,145706
312,116,159420,6,0,B|360:100|400:128,2,89.9999973177911,4|8|0
344,200,160706,1,8
432,212,161134,2,0,B|421:261|377:282,2,89.9999973177911,0|8|0
344,200,162420,1,8
292,272,162849,6,0,B|252:244|256:188,1,89.9999973177911,4|8
156,44,164134,1,8
60,196,164992,1,8
156,348,165849,1,8
108,272,166277,6,0,B|152:244|196:268,1,89.9999973177911,4|8
276,304,167134,2,0,B|298:262|270:218,1,89.9999973177911,0|8
196,172,167992,2,0,B|172:124|196:64|256:56,2,134.999995976687,0|0|8
280,140,169706,6,0,B|328:116|328:60,2,89.9999973177911,4|0|4
268,228,170992,2,0,B|296:232|320:220,2,44.9999986588955,4|4|4
432,160,173134,6,0,B|424:168|424:168|432:172|432:172|428:180|428:180|420:176|420:176|416:184|416:184|424:188|424:188|420:196|420:196|412:192|412:192|408:200|408:200|416:204|416:204|412:212|412:212|404:208|404:208|400:216|400:216|408:220|408:220|404:228|404:228|396:224|396:224|392:232|392:232|400:236|400:236|388:248,1,180
360,300,174849,2,0,B|349:295|349:295|348:304|348:304|340:304|340:304|340:295|340:295|331:294|331:294|331:303|331:303|322:303|322:303|322:294|322:294|313:293|313:293|313:302|313:302|304:301|304:301|304:292|304:292|295:292|295:292|295:301|295:301|286:300|286:300|287:291|287:291|278:291|278:291|277:300|277:300|261:293,1,180,0|0
204,284,176563,5,0
108,212,177420,1,0
156,104,178277,2,0,B|171:110|171:110|171:101|171:101|180:101|180:101|180:110|180:110|189:111|189:111|189:102|189:102|198:102|198:102|198:111|198:111|207:112|207:112|207:103|207:103|216:104|216:104|216:113|216:113|224:113|224:113|225:104|225:104|234:105|234:105|233:114|233:114|242:114|242:114|243:105|243:105|253:109,1,180,0|0
276,168,179992,6,0,B|286:180|286:180|291:173|291:173|298:177|298:177|294:185|294:185|301:190|301:190|306:182|306:182|314:187|314:187|309:194|309:194|317:199|317:199|321:191|321:191|329:196|329:196|324:204|324:204|332:208|332:208|337:201|337:201|344:205|344:205|340:213|340:213|347:218|347:218|352:210|352:210|359:219,1,180,0|0
404,260,181706,1,0
392,320,182134,1,0
332,320,182563,1,0
236,248,183420,6,0,B|230:232|230:232|223:237|223:237|217:230|217:230|224:225|224:225|219:218|219:218|212:223|212:223|206:216|206:216|213:211|213:211|208:204|208:204|201:209|201:209|195:202|195:202|202:197|202:197|196:190|196:190|189:195|189:195|184:188|184:188|191:183|191:183|185:176|185:176|178:181|178:181|174:171,1,180,0|0
116,188,185134,2,0,B|104:192|104:192|112:200|112:200|104:208|104:208|96:200|96:200|88:208|88:208|96:216|96:216|88:224|88:224|80:216|80:216|72:224|72:224|80:232|80:232|64:232,1,120
84,292,186420,1,0
136,320,186849,6,0,B|176:352|228:324,1,89.9999973177911,4|8
184,248,187706,2,0,B|228:223|268:255,1,89.9999973177911,0|8
308,336,188563,1,0
356,260,188992,1,8
400,340,189420,2,0,B|440:320|444:268|444:268|488:244|488:192,1,179.999994635582,0|4
400,192,190706,5,8
444,112,191134,2,0,B|446:62|404:34,1,89.9999973177911,0|8
356,108,191992,2,0,B|311:130|308:181,1,89.9999973177911,0|8
340,264,192849,2,0,B|272:240|244:268|268:308|308:296|312:256|236:228,1,179.999994635582,0|4
148,228,194134,5,8
108,308,194563,2,0,B|60:280|60:224,1,89.9999973177911,0|8
96,152,195420,1,0
140,72,195849,1,8
188,148,196277,2,0,B|228:112|228:72|228:72|264:108|324:104,1,179.999994635582,0|4
292,16,197563,5,8
376,44,197992,2,0,B|412:76|396:132,1,89.9999973177911,0|8
420,212,198849,2,0,B|374:227|333:185,1,89.9999973177911,0|8
312,104,199706,2,8,B|261:116|251:163,1,89.9999973177911,0|8
256,192,200563,12,0,203134
328,136,203992,6,0,B|392:208,2,89.9999973177911,0|8|0
276,308,205706,2,0,B|232:328|192:296,1,89.9999973177911,0|8
248,224,206563,2,0,B|207:191|163:211,1,89.9999973177911
92,268,207420,6,0,B|12:340,2,89.9999973177911,4|8|0
116,88,209134,1,0
188,36,209563,1,8
200,124,209992,1,0
376,96,210849,6,0,B|472:60,2,89.9999973177911,4|8|0
304,260,212563,2,0,B|312:208|360:196,1,89.9999973177911,0|8
388,280,213420,2,0,B|380:331|332:343,1,89.9999973177911
244,328,214277,6,0,B|140:328,2,89.9999973177911,4|8|0
100,220,215992,2,0,B|60:188|72:136,1,89.9999973177911,0|8
160,152,216849,2,0,B|200:184|188:236,1,89.9999973177911
136,304,217706,6,0,B|172:337|219:319,1,89.9999973177911,0|2
308,332,218563,2,0,B|319:283|279:251,1,89.9999973177911,0|2
192,232,219420,2,0,B|199:181|246:167,1,89.9999973177911,0|2
336,160,220277,2,0,B|392:160,2,44.9999986588955,0|0|4
