osu file format v5

[General]
AudioFilename: Flowers in your Song for Me.mp3
AudioLeadIn: 1000
PreviewTime: -1
Countdown: 0
SampleSet: Normal
StackLeniency: 0.4
Mode: 0
LetterboxInBreaks: 0
EditorDistanceSpacing: 1.5

[Metadata]
Title:Flowers in Your Song For Me
Artist:Hatsune Miku
Creator:Shinxyn
Version:Hard
Source:Re:nG
Tags:

[Difficulty]
HPDrainRate:5
CircleSize:5
OverallDifficulty:6
SliderMultiplier:1
SliderTickRate:0.5

[Events]
//Background and Video events
0,0,"1234637942.jpg"
//Break Periods
2,21976,25779
2,60819,61622
2,67450,71253
2,105345,114200
2,135976,141990
//Storyboard Layer 0 (Background)
//Storyboard Layer 1 (Failing)
//Storyboard Layer 2 (Passing)
//Storyboard Layer 3 (Foreground)
//Storyboard Sound Samples
//Background Colour Transformations
3,100,163,162,255

[TimingPoints]
3875,315.789473684211,4,2,1,80,1,0
8611,-100,4,2,0,0,0,0
11672,315.789473684211,4,1,1,60,1,0
31566,-100,4,2,1,80,0,0
41198,-100,4,1,1,60,0,0
52093,-100,4,2,1,80,0,0
65987,-100,4,2,0,0,0,0
67250,-100,4,2,1,80,0,0
72014,-100,4,1,1,60,0,0
87461,-100,4,2,1,80,0,0
91724,-100,4,2,0,0,0,0
92829,-100,4,2,1,80,0,0
104514,-100,4,2,0,0,0,0
105145,-100,4,2,1,80,0,0
135172,-100,4,1,1,60,0,0
142435,-100,4,2,1,80,0,0
144145,-100,4,1,1,60,0,0
147461,-100,4,2,0,0,0,0
150619,-100,4,1,1,60,0,0
154593,-100,4,2,1,80,0,0
157408,-100,4,2,0,0,0,0
159461,-100,4,2,1,80,0,0
165619,-100,4,2,0,0,0,0
168303,-100,4,2,1,80,0,0
168488,-100,4,1,1,60,0,0

[Colours]
Combo1 : 52,105,184
Combo2 : 115,237,247
Combo3 : 34,176,173

[HitObjects]
328,88,3875,1,0
296,64,4032,1,0
256,56,4190,1,0
216,64,4348,1,2
184,264,5138,5,0
216,288,5296,1,0
256,296,5453,1,0
296,288,5611,2,0,B|344:264,2,50,0|0|0
264,256,6085,1,2
264,176,6401,5,0
224,176,6559,1,0
184,176,6717,1,0
104,176,7032,5,2
104,96,7348,1,0
184,96,7664,1,2
264,96,7980,1,0
264,176,8296,1,0
256,192,8611,12,0,11453
40,40,11672,5,0
88,96,11987,2,0,B|144:96,1,50
200,152,12461,1,0
160,152,12619,1,0
312,192,13250,5,0
232,192,13566,1,0
192,264,13882,1,0
272,264,14198,1,0
352,264,14514,1,0
352,264,14672,1,0
408,160,15145,5,0
408,160,15303,1,0
408,160,15461,1,0
408,80,15777,1,0
408,80,15935,1,0
296,120,16408,5,0
296,200,16724,1,0
184,152,17198,1,0
296,120,17672,1,0
296,120,17829,1,0
184,152,18303,2,0,B|184:256,1,100
264,252,18935,2,0,B|264:140,1,100
224,32,19724,1,0
344,32,20198,5,0
376,56,20356,1,0
368,128,20672,2,0,B|416:160,1,50
384,184,20987,2,0,B|336:152,1,50
320,184,21303,2,0,B|368:216,1,50
336,240,21619,2,0,B|288:208,1,50,0|4
256,64,26829,5,4
312,168,27303,1,0
200,168,27777,1,0
256,224,28093,1,0
256,344,28566,1,0
256,224,29040,1,0
336,224,29356,6,0,B|392:224,2,50,4|0|0
336,184,29829,2,0,B|280:184,2,50,4|0|0
336,144,30303,2,0,B|336:112,12,25,0|0|0|0|0|0|0|0|0|0|0|0|4
224,40,31882,5,0
224,40,32040,1,0
224,40,32198,1,0
184,40,32356,2,0,B|64:40,1,100
48,40,32829,1,2
224,104,33145,5,0
224,104,33303,1,0
224,104,33461,1,0
184,104,33619,2,0,B|64:104,1,100
48,104,34093,1,2
224,168,34408,5,0
224,168,34566,1,0
224,168,34724,1,0
184,168,34882,2,0,B|80:168,1,100
48,168,35356,1,2
224,232,35672,5,0
224,232,35829,1,0
224,232,35987,1,0
184,232,36145,2,0,B|72:232,1,100
48,232,36619,1,2
224,296,36935,5,0
224,296,37093,1,0
224,296,37250,1,0
184,296,37408,2,0,B|72:296,1,100
48,296,37882,1,2
288,296,38198,5,0
288,296,38356,1,0
288,296,38514,1,0
328,296,38672,2,0,B|440:296,1,100
464,296,39145,1,2
288,232,39461,5,0
288,232,39619,1,0
288,232,39777,1,0
328,232,39935,2,0,B|440:232,1,100
464,232,40408,1,2
288,168,40724,5,0
288,168,40882,1,0
288,168,41040,1,0
328,168,41198,2,0,B|440:168,1,100
464,168,41672,1,4
429,94,41987,6,0,B|429:38,2,50,0|0|0
429,94,42461,1,0
304,96,42935,1,0
224,96,43250,1,0
184,112,43408,1,0
144,128,43566,1,0
104,144,43724,1,0
104,264,44198,5,0
176,224,44514,1,0
208,208,44672,1,0
240,192,44829,1,0
272,176,44987,1,0
272,296,45461,1,0
327,238,45777,1,0
448,240,46250,1,0
448,120,46724,5,0
392,56,47040,5,0
392,152,47356,1,0
392,184,47514,1,0
288,120,47987,2,0,B|176:120,1,100
104,120,48619,1,0
104,120,48777,1,0
104,240,49250,5,0
184,224,49566,1,0
216,200,49724,1,0
248,224,49882,1,0
248,256,50040,1,0
216,272,50198,1,0
184,256,50356,1,0
304,240,50829,1,0
424,240,51303,1,0
363,49,52093,5,2
363,49,52250,1,0
363,49,52408,1,2
363,89,52566,2,0,B|363:209,1,100
363,225,53040,1,2
296,368,53356,5,2
296,368,53514,1,0
296,368,53672,1,2
296,328,53829,2,0,B|296:208,1,100
296,192,54303,1,2
232,48,54619,5,2
232,48,54777,1,0
232,48,54935,1,2
232,88,55093,2,0,B|232:208,1,100
232,224,55566,1,2
168,368,55882,5,2
168,368,56040,1,0
168,368,56198,1,2
168,328,56356,2,0,B|168:208,1,100
168,192,56829,1,2
8,72,57619,6,0,B|32:16|88:16,1,100,2|0
120,16,58093,2,0,B|152:16|184:56,2,50
184,56,58724,2,0,B|223:96|216:168,1,100,0|2
208,224,59356,1,2
208,304,59672,1,0
280,264,59987,1,2
208,224,60303,1,2
208,224,60461,1,0
208,224,60619,1,2
504,312,62672,6,0,B|480:368|424:368,1,100,2|0
392,368,63145,2,0,B|360:368|328:328,2,50
320,328,63777,2,0,B|281:288|288:216,1,100,0|2
304,160,64408,1,2
304,80,64724,1,0
224,80,65040,1,2
224,160,65356,1,2
304,160,65672,1,0
256,192,65987,12,0,67250
256,72,72303,5,0
256,72,72777,1,0
256,192,73250,1,0
256,192,73408,1,0
256,272,73724,1,0
256,272,73882,1,0
328,232,74198,1,0
256,192,74514,1,0
184,232,74829,1,0
256,136,75303,1,0
136,128,75777,5,0
96,144,75935,1,0
120,216,76250,2,0,B|56:248,1,50
104,264,76566,2,0,B|40:296,1,50
88,312,76882,2,0,B|24:344,1,50
72,360,77198,2,0,B|8:392,1,50,0|4
144,360,77829,5,0
264,360,78303,1,0
344,224,78935,1,0
288,168,79250,1,0
296,248,79566,1,0
240,192,79882,1,0
320,192,80198,1,0
288,208,80356,1,0
256,224,80514,1,0
224,240,80672,1,0
144,240,80987,5,0
200,128,81461,1,0
280,128,81777,1,0
240,56,82093,1,0
160,56,82408,2,0,B|112:128|160:200,1,150,4|0
280,200,83356,5,0
360,200,83672,1,0
320,312,84145,1,0
200,312,84619,1,0
152,248,84935,1,0
224,152,85408,1,0
280,200,85724,1,0
280,200,85882,2,0,B|328:200,4,25
344,152,86514,5,0
344,112,86672,1,0
272,80,86987,1,0
232,80,87145,1,0
216,120,87303,1,0
216,160,87461,6,2,B|216:216,1,50
176,160,87777,1,2
176,160,87935,1,0
136,160,88093,2,2,B|136:96,1,50
96,160,88408,1,0
96,160,88566,1,2
56,160,88724,1,2
56,160,88882,2,0,B|56:272,1,100,0|0
56,260,89514,1,2
176,264,89987,5,2
176,264,90145,1,2
200,296,90303,2,0,B|200:360,1,50,0|2
224,264,90619,1,2
224,264,90777,2,0,B|328:264,1,100,0|2
400,264,91408,1,0
256,192,91724,12,0,92829
256,360,93145,5,0
256,360,93303,1,2
256,320,93461,1,0
256,320,93619,2,0,B|216:264|312:224|256:160|240:168,1,150,2|0
257,177,94250,1,2
257,177,94566,1,0
256,96,94882,5,0
256,56,95040,1,2
176,80,95356,2,0,B|120:72|112:144,1,100,2|0
112,176,95829,1,2
112,256,96145,6,0,B|208:256,1,50
200,256,96461,2,0,B|296:256,1,50
288,256,96777,2,0,B|360:256,1,50
376,256,97093,2,0,B|440:256,1,50
456,256,97408,1,0
456,256,97566,6,0,B|512:256,4,50,2|0|2|0|2
456,256,98356,1,0
456,256,98514,2,0,B|456:136,1,100,2|0
456,156,98987,1,2
375,157,99303,1,0
294,157,99619,1,2
176,160,100093,6,0,B|176:96,1,50,2|0
176,160,100408,2,0,B|176:232,1,50,2|0
176,160,100724,2,0,B|72:160,1,100,2|0
48,192,101198,2,0,B|160:192,1,100
176,224,101672,2,0,B|56:224,2,100
176,224,102461,1,0
176,224,102619,1,2
256,224,102935,5,0
256,224,103093,1,2
336,224,103408,1,0
336,224,103566,1,2
336,224,103724,2,0,B|432:224,2,50,0|0|2
336,224,104198,2,0,B|264:224,1,50
256,192,104514,12,0,105145
464,192,115250,5,2
360,128,115724,1,0
256,192,116198,1,0
256,32,116829,1,2
256,112,117145,1,0
176,112,117461,1,0
176,112,117619,1,0
176,112,117777,1,2
112,160,118093,5,2
48,208,118408,1,0
112,256,118724,1,0
328,344,119672,5,2
328,264,119987,1,0
328,224,120145,2,0,B|408:152|320:88|320:88,1,150
248,96,120935,5,2
248,176,121250,1,0
248,216,121408,2,0,B|328:288|240:352|240:352,1,150
192,280,122198,1,0
136,216,122514,1,2
192,160,122829,1,0
248,216,123145,1,2
248,216,123461,2,0,B|312:216|312:296|312:296,1,100,0|2
392,280,124093,5,2
392,280,124250,1,2
392,240,124408,2,0,B|392:176,1,50,0|2
392,152,124724,1,0
392,152,124882,2,0,B|392:88,1,50,0|4
312,104,125356,5,2
216,32,125829,1,0
120,104,126303,1,0
88,264,126935,1,2
120,336,127250,1,0
160,272,127566,1,2
128,248,127724,1,0
88,264,127882,1,2
136,208,128198,6,0,B|120:144|200:104,1,100,0|0
248,144,128829,2,0,B|272:208|192:248,1,100
216,312,129461,1,0
296,312,129777,5,2
376,312,130093,1,0
376,272,130250,2,0,B|487:204|304:192|341:140|395:99,1,200
376,72,131040,5,2
376,72,131356,1,0
377,113,131514,2,0,B|412:127|460:196|273:212|382:277,1,200,0|0
376,312,132303,1,2
296,312,132619,1,0
216,312,132935,1,0
136,312,133250,1,0
56,312,133566,1,2
96,240,133882,6,0,B|144:192,1,50
136,240,134198,2,0,B|96:200,1,50
96,160,134514,2,0,B|136:120,1,50
136,160,134829,2,0,B|88:112,1,50
115,87,135145,2,0,B|115:47,8,25,0|0|0|0|0|0|0|0|4
256,40,143040,5,2
296,104,143356,1,0
216,104,143671,1,0
256,176,143987,1,2
256,176,144145,5,0
256,216,144303,1,0
256,216,144461,1,0
256,256,144619,1,0
256,256,144777,1,0
256,296,144935,1,0
256,296,145093,1,0
256,336,145250,1,4
320,288,145566,5,0
192,288,146040,1,0
256,176,146514,1,0
256,24,147145,1,0
256,192,147461,12,4,150619
256,64,151250,5,0
237,141,151566,1,0
277,141,151724,1,0
88,224,152514,5,0
144,280,152829,1,0
200,224,153145,1,0
256,280,153461,1,0
312,224,153777,1,0
368,280,154093,1,0
256,112,154881,6,0,B|256:40,1,50,0|0
232,32,155198,2,0,B|176:32,2,50,0|0|2
272,32,155671,5,0
304,56,155829,1,2
304,96,155987,2,0,B|336:104|328:152,1,50
328,168,156303,1,2
352,192,156461,1,0
352,232,156619,1,2
376,264,156777,1,2
376,304,156935,1,2
400,328,157093,1,0
400,368,157250,1,2
256,192,157408,12,0,159461
320,144,160093,5,2
256,192,160408,1,0
320,240,160724,1,0
256,192,161040,1,2
216,192,161198,1,0
136,192,161514,1,2
56,192,161829,1,0
136,104,162303,5,0
176,104,162461,2,0,B|296:104,1,100
276,104,162935,1,2
352,104,163250,1,0
352,184,163566,1,2
432,184,163882,1,2
392,248,164198,1,2
392,208,164356,1,2
440,144,164671,2,0,B|384:128|312:152,1,100
256,224,165461,1,0
256,192,165619,12,0,168303
72,112,168619,5,0
72,152,168777,1,0
128,208,169093,1,0
128,248,169250,1,0
184,304,169566,1,0
240,248,169882,5,0
240,208,170040,1,0
304,160,170356,1,0
304,120,170514,1,0
368,72,170829,1,4
304,120,171145,5,0
264,120,171303,1,0
200,168,171619,1,0
160,168,171777,1,0
96,216,172093,1,0
96,296,172408,5,0
136,296,172566,1,0
216,296,172882,1,0
256,296,173040,1,0
256,296,173119,1,0
256,296,173198,2,0,B|304:296,4,25
352,328,173829,5,0
392,296,173987,1,0
352,56,174303,1,0
392,88,174461,1,0
160,56,174777,1,0
120,88,174935,1,0
120,296,175250,1,4
256,192,175566,1,4
256,368,175882,1,0
