osu file format v5

[General]
AudioFilename: Hatsune Miku - Finder.mp3
AudioLeadIn: 0
PreviewTime: -1
Countdown: 0
SampleSet: Soft
StackLeniency: 0.7
Mode: 0
LetterboxInBreaks: 1

[Editor]
DistanceSpacing: 0.800000011920929
BeatDivisor: 4
GridSize: 8

[Metadata]
Title:Finder
Artist:Hatsune Miku
Creator:Alace
Version:Normal
Source:
Tags:

[Difficulty]
HPDrainRate:5
CircleSize:4
OverallDifficulty:4
SliderMultiplier:1.4
SliderTickRate:2

[Events]
//Background and Video events
0,0,"198324.jpg"
//Break Periods
2,123452,124294
2,127231,133743
2,139278,141302
2,146837,148861
2,154396,156420
2,161955,162562
2,189357,189963
2,193137,193743
//Storyboard Layer 0 (Background)
//Storyboard Layer 1 (Fail)
//Storyboard Layer 2 (Pass)
//Storyboard Layer 3 (Foreground)
//Storyboard Sound Samples
//Background Colour Transformations
3,100,0,0,0

[TimingPoints]
15516,472.44094488189,4,2,2,88,1,0
15870,-100,4,2,2,64,0,0
16106,-100,4,2,2,89,0,0
16815,-100,4,2,2,65,0,0
17051,-100,4,2,2,51,0,0
17287,-100,4,2,2,88,0,0
17523,-100,4,2,2,75,0,0
17760,-100,4,2,2,66,0,0
17996,-100,4,2,2,87,0,0
18232,-100,4,2,1,88,0,0
18468,-100,4,2,2,88,0,0
18941,-100,4,2,2,51,0,0
19177,-100,4,2,2,88,0,0
19649,-100,4,2,2,67,0,0
19886,-100,4,2,2,88,0,0
20594,-100,4,2,2,67,0,0
20830,-100,4,2,2,52,0,0
21067,-100,4,2,2,88,0,0
21303,-100,4,2,2,74,0,0
21539,-100,4,2,2,65,0,0
21775,-100,4,2,2,88,0,0
22484,-100,4,2,2,60,0,0
22720,-100,4,2,2,39,0,0
22956,-100,4,2,2,89,0,0
23429,-100,4,2,2,66,0,0
23665,-100,4,2,2,88,0,0
24374,-100,4,2,2,65,0,0
24610,-100,4,2,2,49,0,0
24846,-100,4,2,2,88,0,0
25082,-100,4,2,2,74,0,0
25319,-100,4,2,2,65,0,0
25555,-100,4,2,2,88,0,0
26027,-100,4,2,2,73,0,0
26264,-100,4,2,2,64,0,0
26500,-100,4,2,2,48,0,0
26736,-100,4,2,2,87,0,0
27208,-100,4,2,2,65,0,0
27445,-100,4,2,2,87,0,0
28153,-100,4,2,2,66,0,0
28390,-100,4,2,2,51,0,0
28626,-100,4,2,2,100,0,0
28980,-100,4,2,2,69,0,0
29807,-100,4,2,2,81,0,0
30043,-100,4,2,2,100,0,0
30516,-100,4,2,1,100,0,0
30752,-100,4,2,0,89,0,0
30988,-100,4,2,2,69,0,0
31224,-100,4,2,2,88,0,0
31933,-100,4,2,2,66,0,0
32169,-100,4,2,2,89,0,0
32641,-100,4,2,2,75,0,0
32878,-100,4,2,2,66,0,0
33114,-100,4,2,2,89,0,0
33823,-100,4,2,2,68,0,0
34059,-100,4,2,2,73,0,0
34295,-100,4,2,2,89,0,0
34531,-100,4,2,2,73,0,0
34767,-100,4,2,2,69,0,0
35004,-100,4,2,2,89,0,0
35476,-100,4,2,2,72,0,0
35712,-100,4,2,2,68,0,0
35949,-100,4,2,2,74,0,0
36185,-100,4,2,2,89,0,0
36421,-100,4,2,2,73,0,0
36657,-100,4,2,2,71,0,0
36893,-100,4,2,2,89,0,0
37602,-100,4,2,2,70,0,0
37838,-100,4,2,2,89,0,0
38547,-100,4,2,2,71,0,0
38783,-100,4,2,2,89,0,0
39492,-100,4,2,2,70,0,0
39728,-100,4,2,2,89,0,0
40217,-100,4,2,2,75,0,0
40437,-100,4,2,2,70,0,0
40673,-100,4,2,2,74,0,0
40909,-100,4,2,2,89,0,0
41145,-100,4,2,2,74,0,0
41382,-100,4,2,2,70,0,0
41618,-100,4,2,2,89,0,0
42327,-100,4,2,2,71,0,0
42563,-100,4,2,2,91,0,0
43271,-100,4,2,2,70,0,0
43508,-100,4,2,2,88,0,0
44571,-100,4,2,2,76,0,0
45161,-100,4,2,2,53,0,0
45634,-100,4,1,0,76,0,0
45988,-100,4,2,2,74,0,0
46815,-100,4,2,2,61,0,0
47051,-100,4,2,2,74,0,0
47523,-100,4,1,2,74,0,0
47760,-100,4,2,2,61,0,0
47996,-100,4,2,2,74,0,0
50594,-100,4,2,2,64,0,0
50830,-100,4,2,2,74,0,0
51539,-100,4,2,2,62,0,0
51775,-100,4,2,1,74,0,0
52012,-100,4,2,2,74,0,0
52720,-100,4,1,2,53,0,0
53429,-100,4,2,2,73,0,0
54374,-100,4,2,2,61,0,0
54610,-100,4,2,2,73,0,0
57208,-100,4,2,2,61,0,0
57445,-100,4,2,2,73,0,0
57917,-100,4,2,1,73,0,0
58153,-100,4,2,2,61,0,0
58390,-100,4,2,2,73,0,0
59656,-100,4,1,2,73,0,0
60870,-100,4,2,2,73,0,0
61933,-100,4,2,2,60,0,0
62169,-100,4,2,2,73,0,0
66775,-100,4,2,2,86,0,0
67248,-100,4,2,2,100,0,0
67602,-100,4,1,2,73,0,0
68665,-100,4,2,2,73,0,0
69019,-100,4,2,2,62,0,0
69256,-100,4,2,2,73,0,0
69492,-100,4,2,2,61,0,0
69728,-100,4,2,2,73,0,0
72327,-100,4,2,2,62,0,0
72563,-100,4,2,2,73,0,0
73035,-100,4,2,1,73,0,0
73271,-100,4,2,2,73,0,0
74807,-100,4,2,2,56,0,0
75161,-100,4,2,2,64,0,0
75397,-100,4,2,2,75,0,0
75634,-100,4,2,2,88,0,0
75870,-100,4,2,1,100,0,0
76224,-100,4,2,2,75,0,0
76815,-100,4,2,1,75,0,0
77051,-100,4,2,2,75,0,0
78704,-100,4,2,1,75,0,0
78941,-100,4,2,2,63,0,0
79177,-100,4,2,2,75,0,0
79413,-100,4,2,2,61,0,0
79649,-100,4,2,1,75,0,0
80122,-100,4,2,2,75,0,0
80358,-100,4,2,2,63,0,0
80594,-100,4,2,2,75,0,0
81539,-100,4,2,1,75,0,0
81775,-100,4,2,2,75,0,0
82484,-100,4,2,1,75,0,0
82720,-100,4,2,2,75,0,0
83665,-100,4,2,2,61,0,0
83901,-100,4,2,2,75,0,0
84610,-100,4,2,2,62,0,0
84846,-100,4,2,2,75,0,0
85319,-100,4,2,1,75,0,0
86500,-100,4,2,2,62,0,0
86736,-100,4,2,2,75,0,0
88980,-100,4,2,2,48,0,0
90634,-100,4,2,2,75,0,0
90870,-100,4,2,1,75,0,0
92063,472.44094488189,4,2,1,88,1,0
92771,-100,4,2,2,88,0,0
94070,-100,4,2,2,74,0,0
94307,-100,4,2,2,88,0,0
94779,-100,4,2,1,88,0,0
95960,-100,4,2,2,73,0,0
96196,-100,4,2,2,88,0,0
96669,-100,4,2,1,88,0,0
96905,-100,4,2,2,73,0,0
97141,-100,4,2,2,88,0,0
101629,-100,4,2,2,73,0,0
101866,-100,4,2,2,88,0,0
102338,-100,4,2,1,88,0,0
102574,-100,4,2,2,74,0,0
102811,-100,4,2,2,88,0,0
106118,-100,4,2,1,88,0,0
106354,-100,4,2,2,74,0,0
106590,-100,4,2,2,88,0,0
108244,-100,4,2,2,73,0,0
108480,-100,4,2,2,88,0,0
111787,-100,4,2,1,88,0,0
112023,-100,4,2,2,88,0,0
120173,-100,4,2,2,100,0,0
123244,-100,4,2,2,36,0,0
134582,-100,4,2,2,76,0,0
135763,-100,4,2,2,96,0,0
136472,-100,4,2,2,77,0,0
137181,-100,4,2,2,57,0,0
137889,-100,4,2,2,37,0,0
138598,-100,4,2,2,18,0,0
142141,-100,4,2,2,72,0,0
143322,-100,4,2,2,100,0,0
144031,-100,4,2,2,75,0,0
144740,-100,4,2,2,52,0,0
145448,-100,4,2,2,31,0,0
146157,-100,4,2,2,12,0,0
149700,-100,4,2,2,73,0,0
150881,-100,4,2,2,100,0,0
151590,-100,4,2,2,87,0,0
152299,-100,4,2,2,69,0,0
153007,-100,4,2,2,52,0,0
153716,-100,4,2,2,36,0,0
157259,-100,4,2,2,73,0,0
158440,-100,4,2,2,100,0,0
159149,-100,4,2,2,88,0,0
159858,-100,4,2,2,74,0,0
160566,-100,4,2,2,58,0,0
161275,-100,4,2,2,42,0,0
163401,-100,4,2,2,90,0,0
167771,-100,4,2,2,74,0,0
168007,-100,4,2,2,90,0,0
168716,-100,4,2,2,75,0,0
168952,-100,4,2,2,90,0,0
177929,-100,4,2,1,90,0,0
178165,-100,4,2,2,75,0,0
178401,-100,4,2,2,90,0,0
180055,-100,4,2,2,75,0,0
180291,-100,4,2,2,90,0,0
183598,-100,4,2,1,90,0,0
185724,-100,4,2,2,90,0,0
187259,-100,4,1,2,90,0,0
196708,-100,4,1,2,52,0,0
198834,-100,4,1,2,54,0,0
200015,-100,4,2,1,58,0,0
200488,-100,4,2,0,75,0,0
200724,-100,4,2,0,75,0,1

[Colours]
Combo1 : 0,128,255
Combo2 : 255,255,193
Combo3 : 255,89,255
Combo4 : 122,254,205

[HitObjects]
112,296,15516,6,2,B|200:296,3,70,0|2|4|2
160,216,16460,2,0,B|80:216,3,70,0|2|4|4
128,136,17405,6,0,B|192:72|256:144,1,140,0|4
288,216,18114,2,0,B|352:280|416:216,1,140,2|2
352,152,18823,1,4
352,152,19059,1,6
352,152,19295,6,0,B|352:80,3,70,0|2|4|2
272,112,20240,2,0,B|192:112,3,70,0|2|4|6
232,192,21185,6,0,B|384:192,1,140,0|4
424,128,21893,1,2
480,192,22130,1,0
424,256,22366,1,2
472,320,22602,1,4
392,336,22838,1,6
336,272,23075,6,0,B|280:216,3,70,0|2|4|2
256,304,24019,2,2,B|192:360,3,70,0|2|4|4
168,272,24964,6,0,B|96:256|96:256|72:192,1,140,0|4
144,152,25673,1,2
80,96,25909,2,0,B|136:48|136:48|224:64,1,140,0|4
288,64,26618,1,6
240,136,26854,5,0
240,136,27090,1,2
312,184,27327,1,4
312,184,27563,1,2
232,224,27799,1,0
232,224,28035,1,2
304,272,28271,1,4
304,272,28508,1,6
232,224,28744,5,0
64,224,29216,1,4
144,368,29689,1,4
144,280,29925,1,4
144,192,30161,1,4
144,104,30397,1,4
216,144,30634,6,0,B|288:144,1,70,4|2
256,224,31106,2,0,B|336:224,1,70,4|2
376,160,31578,2,0,B|376:80,1,70,0|2
456,112,32051,2,0,B|456:200,1,70,4|2
408,248,32523,6,0,B|360:312|360:312|288:304,1,140,0|4
216,304,33232,1,2
48,304,33704,1,2
128,272,33941,2,0,B|128:112,2,140,4|0|4
128,352,35122,1,2
200,312,35358,2,0,B|368:312,3,140,0|4|0|4
424,312,37012,1,2
376,240,37248,1,0
376,240,37484,1,2
376,152,37720,1,4
376,152,37956,1,2
304,192,38193,6,0,B|240:136,1,70,0|2
224,224,38665,2,0,B|160:272,1,70,4|2
144,184,39138,2,0,B|80:128,1,70,0|2
64,216,39610,2,0,B|0:264,1,70,4|2
64,320,40082,6,0,B|128:360|200:320,3,140,0|4|0|4
360,336,41972,5,0
360,336,42208,1,2
440,304,42445,1,4
440,304,42681,1,2
408,224,42917,1,0
408,224,43153,1,2
328,256,43390,1,4
328,256,43626,1,2
328,168,43862,5,4
160,168,44334,1,4
248,24,44807,1,4
248,104,45043,1,4
248,184,45279,2,4,B|248:224,2,35
248,104,45752,5,4
104,184,46224,6,0,B|104:264,1,70,8|2
40,312,46697,2,0,B|104:360|184:304,1,140,0|8
248,344,47405,6,0,B|328:256|248:144,1,210,2|8
192,208,48350,2,0,B|192:280,1,70,2|0
112,264,48823,2,0,B|112:344,2,70,2|8|2
264,336,49767,5,2
344,312,50004,1,8
280,256,50240,1,2
360,224,50476,2,0,B|440:248|480:160,1,140,0|8
392,144,51185,5,2
456,88,51421,2,0,B|368:-8|264:56,1,210,0|2
184,64,52366,1,0
104,96,52602,1,2
168,144,52838,2,0,B|160:152|160:152|168:160|168:160|168:168|168:168|176:168|176:168|168:176|168:176|176:184|176:184|176:192|176:192|184:192|184:192|176:200|176:200|184:208|184:208|184:216|184:216|192:216|192:216|184:224|184:224|192:232|192:232|192:240|192:240|200:240|200:240|192:248,1,140
136,296,53547,5,2
216,312,53783,1,8
280,256,54019,1,2
296,336,54256,2,0,B|376:360|416:272,1,140,0|8
360,216,54964,6,0,B|424:184,1,70,2|0
320,144,55437,2,0,B|376:80,1,70,2|8
248,104,55909,2,0,B|272:32,1,70,2|0
168,120,56382,2,0,B|152:48,2,70,2|8|2
96,168,57090,6,0,B|48:240|96:304,1,140,0|8
152,240,57799,2,0,B|248:304|352:240,1,210,0|8
480,136,58980,5,2
312,104,59453,1,2
360,264,59925,2,2,B|400:240|344:184|392:160,2,105
208,328,61106,5,2
128,352,61342,1,8
64,296,61578,1,2
144,264,61815,2,0,B|264:176,1,140,0|8
320,232,62523,5,2
352,152,62760,1,0
280,104,62996,1,2
208,152,63232,1,8
232,232,63468,1,2
280,304,63704,2,0,B|280:376,3,70,0|2|8|2
128,304,64886,5,2
56,256,65122,1,8
48,168,65358,1,2
80,88,65594,1,0
248,120,66067,1,8
152,256,66539,5,2
320,288,67012,1,2
480,248,67484,2,0,B|456:120|312:208|264:96,1,280,2|4
328,256,68901,6,0,B|264:312|200:256,2,140,8|0|8
264,192,70082,5,2
336,144,70319,1,0
264,96,70555,1,2
192,136,70791,1,8
104,136,71027,1,2
144,208,71264,2,0,B|72:240,3,70,0|2|8|2
128,304,72208,6,0,B|208:328|208:328|264:296,1,140,0|8
320,352,72917,2,0,B|360:280|360:280|336:216,1,140,2|2
272,176,73626,1,8
272,176,73862,1,2
352,176,74098,5,0
184,176,74571,1,8
336,240,75043,5,4
272,176,75279,1,4
208,112,75515,1,4
272,176,75752,5,4
272,176,75988,5,4
440,176,76460,6,0,B|464:328|280:232|264:360,1,280,8|8
192,312,77641,5,2
120,360,77878,1,0
80,280,78114,1,2
152,232,78350,1,8
80,184,78586,2,0,B|176:96|272:184,2,210,2|8|2
112,264,80240,6,0,B|176:312|248:256,1,140,8|0
176,200,80949,1,2
176,112,81185,1,8
112,48,81421,2,0,B|184:0|248:48,1,140,2|2
296,112,82130,5,8
352,48,82366,6,0,B|416:0|496:56,1,140,2|2
416,112,83075,1,8
416,200,83311,1,2
481,261,83547,2,0,B|416:312|352:264,1,140,0|8
296,328,84256,5,2
208,328,84492,2,0,B|64:328,1,140,0|8
112,256,85201,2,0,B|264:256,1,140,0|2
336,256,85909,1,8
288,184,86145,2,0,B|64:184,1,210,2|8
104,104,87090,5,2
160,40,87327,1,0
216,104,87563,1,2
272,40,87799,1,8
328,104,88035,1,2
272,168,88271,1,0
216,232,88508,1,2
160,168,88744,1,8
256,192,88980,12,0,90634
256,264,91106,5,4
104,184,91578,1,4
256,112,92063,1,4
408,184,92535,1,4
256,112,93007,6,0,B|256:192,3,70,0|2|8|2
336,208,93952,2,0,B|336:48,1,140,0|8
416,96,94661,2,0,B|416:248,1,140,2|2
416,320,95370,1,8
328,320,95606,6,0,B|256:360|192:256|128:312,1,210,2|8
128,224,96551,2,0,B|200:184|264:288|328:232,1,210,2|8
488,200,97732,5,0
488,32,98204,1,8
488,112,98440,1,2
320,112,98913,5,2
400,112,99149,1,8
400,192,99385,1,2
240,192,99858,5,2
320,192,100094,1,8
320,112,100330,1,2
160,112,100803,5,2
240,112,101039,1,8
240,192,101275,1,2
160,192,101511,6,0,B|80:192|80:192|80:272,1,140,0|8
136,312,102220,2,0,B|232:368|232:368|320:312,1,210,2|8
232,168,103401,5,2
400,168,103874,1,8
272,64,104346,1,2
104,64,104818,1,8
104,232,105291,5,0
152,304,105527,1,2
224,344,105763,1,8
304,320,106000,2,0,B|424:296|448:176,1,210,2|8
280,152,107181,5,0
248,72,107417,1,2
160,72,107653,1,8
136,152,107889,1,2
208,200,108125,2,0,B|208:352|208:352|208:344,1,140,0|8
376,336,109070,5,0
376,176,109543,1,8
376,256,109779,1,2
376,336,110015,1,0
224,256,110488,1,8
56,256,110960,5,0
144,280,111196,1,2
224,256,111433,1,8
184,184,111669,6,0,B|40:184,1,140,2|0
64,104,112377,5,8
144,80,112614,1,2
224,104,112850,1,0
264,264,113322,5,8
304,184,113559,1,2
392,328,114031,5,2
424,248,114267,1,8
344,264,114503,1,2
200,184,114976,5,2
272,224,115212,1,8
344,264,115448,1,2
344,176,115685,5,2
216,64,116157,1,8
88,176,116629,1,2
136,336,117102,1,8
304,336,117574,1,2
136,336,118047,5,8
128,168,118519,1,2
296,168,118992,1,8
304,336,119464,1,0
256,192,120173,12,0,123244
80,192,125606,5,0
256,48,126078,1,0
432,192,126551,1,0
256,336,127023,1,0
480,48,135055,5,0
480,48,135291,1,0
480,48,135527,1,0
480,48,136000,6,0,B|480:144,1,70
368,72,136708,2,0,B|368:160,1,70
256,112,137417,2,0,B|256:200,1,70
144,152,138125,2,0,B|144:240,1,70
32,192,138834,2,0,B|32:280,1,70
32,48,142614,5,0
32,48,142850,1,0
32,48,143086,1,0
32,48,143559,6,0,B|32:144,1,70
144,72,144267,2,0,B|144:160,1,70
256,112,144976,2,0,B|256:200,1,70
368,152,145685,2,0,B|368:240,1,70
480,192,146393,2,0,B|480:280,1,70
256,32,150173,5,0
256,32,150645,1,0
96,88,151118,6,0,B|96:160,1,70,0|0
256,112,151826,2,0,B|256:192,1,70
416,136,152535,2,0,B|416:232,1,70
256,256,153244,2,0,B|256:328,1,70,0|0
96,280,153952,2,0,B|96:360,1,70
256,32,157732,5,0
256,32,158204,1,0
416,88,158677,6,0,B|416:160,1,70,0|0
256,112,159385,2,0,B|256:192,1,70
96,136,160094,2,0,B|96:232,1,70
256,256,160803,2,0,B|256:328,1,70,0|0
416,280,161511,2,0,B|416:360,1,70
56,280,163874,6,0,B|144:280,3,70,0|2|0|2
208,280,164818,5,0
336,176,165291,1,8
176,128,165763,1,0
208,280,166236,1,8
208,280,166472,1,2
208,280,166944,6,0,B|232:208,2,70,2|8|2
280,328,167653,2,0,B|440:328,1,140,0|8
464,256,168362,1,2
424,184,168598,2,0,B|280:184,1,140,0|8
144,272,169543,5,0
144,104,170015,1,8
144,184,170251,1,2
320,184,170724,5,2
232,184,170960,1,8
144,184,171196,1,2
144,360,171669,5,2
144,272,171905,1,8
144,184,172141,1,2
320,184,172614,6,0,B|408:184,2,70,2|8|2
232,184,173322,5,2
152,328,173795,1,8
64,184,174267,1,2
152,32,174740,1,8
320,32,175212,1,2
408,176,175685,1,8
320,328,176157,1,2
144,328,176629,1,8
256,192,177102,5,0
256,192,177338,1,2
256,192,177574,1,8
256,192,177811,2,0,B|488:192,1,210,2|8
184,240,178992,5,0
216,320,179228,1,2
304,320,179464,1,8
328,240,179700,1,2
256,192,179937,2,0,B|256:40|256:40|256:48,1,140,0|8
384,160,180881,5,2
384,328,181354,1,8
216,328,181826,1,2
208,160,182299,1,8
296,144,182535,6,0,B|296:216,3,70,2|0|2|8
360,272,183480,2,0,B|296:320|224:264,1,140,2|2
144,272,184188,5,8
56,128,184661,1,0
232,128,185133,1,8
144,96,185370,2,0,B|144:256,1,140
144,320,186078,1,8
144,320,186551,1,0
144,320,187023,1,8
312,320,187496,6,0,B|464:288|320:176|464:112,1,280
460,113,188677,1,2
460,113,189149,1,2
200,320,191275,6,0,B|48:288|192:176|48:112,1,280
52,113,192456,1,2
52,113,192929,1,2
152,80,195055,6,0,B|256:0|344:80,1,210
248,216,196236,1,0
256,192,196708,12,0,198834
448,192,199307,5,0
256,32,199779,1,2
64,192,200251,1,12
256,352,200724,1,0
