osu file format v5

[General]
AudioFilename: Hatsune Miku - Finder.mp3
AudioLeadIn: 0
PreviewTime: -1
Countdown: 0
SampleSet: Soft
StackLeniency: 0.7
Mode: 0
LetterboxInBreaks: 1

[Editor]
DistanceSpacing: 1
BeatDivisor: 4
GridSize: 8

[Metadata]
Title:Finder
Artist:Hatsune Miku
Creator:Alace
Version:Hard
Source:
Tags:

[Difficulty]
HPDrainRate:8
CircleSize:5
OverallDifficulty:7
SliderMultiplier:1.6
SliderTickRate:2

[Events]
//Background and Video events
0,0,"198324.jpg"
//Break Periods
2,123452,124714
2,127231,134163
2,139278,141722
2,146837,149281
2,154396,156840
2,161956,162982
//Storyboard Layer 0 (Background)
//Storyboard Layer 1 (Fail)
//Storyboard Layer 2 (Pass)
//Storyboard Layer 3 (Foreground)
//Storyboard Sound Samples
//Background Colour Transformations
3,100,0,0,0

[TimingPoints]
15516,472.44094488189,4,2,2,88,1,0
15870,-100,4,2,2,64,0,0
16106,-100,4,2,2,89,0,0
16815,-100,4,2,2,65,0,0
17051,-100,4,2,2,51,0,0
17287,-100,4,2,2,88,0,0
17760,-100,4,2,2,66,0,0
17996,-100,4,2,2,87,0,0
18232,-100,4,2,1,88,0,0
18468,-100,4,2,2,88,0,0
18941,-100,4,2,2,51,0,0
19177,-100,4,2,2,88,0,0
19649,-100,4,2,2,67,0,0
19886,-100,4,2,2,88,0,0
20594,-100,4,2,2,67,0,0
20830,-100,4,2,2,52,0,0
21067,-100,4,2,2,88,0,0
21539,-100,4,2,2,65,0,0
21775,-100,4,2,2,88,0,0
22484,-100,4,2,2,60,0,0
22720,-100,4,2,2,39,0,0
22956,-100,4,2,2,89,0,0
23429,-100,4,2,2,66,0,0
23665,-100,4,2,2,88,0,0
24374,-100,4,2,2,65,0,0
24610,-100,4,2,2,49,0,0
24846,-100,4,2,2,88,0,0
25319,-100,4,2,2,65,0,0
25555,-100,4,2,2,88,0,0
26264,-100,4,2,2,64,0,0
26500,-100,4,2,2,48,0,0
26736,-100,4,2,2,87,0,0
27208,-100,4,2,2,65,0,0
27445,-100,4,2,2,87,0,0
28153,-100,4,2,2,66,0,0
28390,-100,4,2,2,51,0,0
28626,-100,4,2,2,100,0,0
28980,-100,4,2,2,69,0,0
29807,-100,4,2,2,81,0,0
30043,-100,4,2,2,100,0,0
30516,-100,4,2,1,61,0,0
30752,-100,4,2,0,89,0,0
30988,-100,4,2,2,69,0,0
31224,-100,4,2,2,88,0,0
31933,-100,4,2,2,66,0,0
32169,-100,4,2,2,89,0,0
32878,-100,4,2,2,66,0,0
33114,-100,4,2,2,89,0,0
33823,-100,4,2,2,68,0,0
34059,-100,4,2,2,89,0,0
34767,-100,4,2,2,69,0,0
35004,-100,4,2,2,89,0,0
35712,-100,4,2,2,68,0,0
35949,-100,4,2,2,89,0,0
36657,-100,4,2,2,71,0,0
36893,-100,4,2,2,89,0,0
37602,-100,4,2,2,70,0,0
37838,-100,4,2,2,89,0,0
38547,-100,4,2,2,71,0,0
38783,-100,4,2,2,89,0,0
39492,-100,4,2,2,70,0,0
39728,-100,4,2,2,89,0,0
40437,-100,4,2,2,70,0,0
40673,-100,4,2,2,89,0,0
41382,-100,4,2,2,70,0,0
41618,-100,4,2,2,89,0,0
42327,-100,4,2,2,71,0,0
42563,-100,4,2,2,91,0,0
43271,-100,4,2,2,70,0,0
43508,-100,4,2,2,88,0,0
44571,-100,4,2,2,76,0,0
45161,-100,4,2,2,53,0,0
45634,-100,4,1,0,76,0,0
45988,-100,4,2,2,75,0,0
46815,-100,4,2,2,66,0,0
47051,-100,4,2,2,74,0,0
47523,-100,4,1,2,74,0,0
47760,-100,4,2,2,74,0,0
50594,-100,4,2,2,65,0,0
50830,-100,4,2,2,74,0,0
52012,-100,4,2,2,74,0,0
52248,-100,4,2,1,74,0,0
52484,-100,4,2,2,74,0,0
52720,-100,4,1,2,53,0,0
53429,-100,4,2,2,73,0,0
54374,-100,4,2,2,65,0,0
54610,-100,4,2,2,73,0,0
57208,-100,4,2,2,64,0,0
57445,-100,4,2,2,73,0,0
57917,-100,4,2,1,73,0,0
58153,-100,4,2,2,66,0,0
58390,-100,4,2,2,73,0,0
59098,-100,4,2,2,66,0,0
59334,-100,4,2,2,73,0,0
59571,-100,4,2,2,67,0,0
59807,-100,4,2,2,73,0,0
60870,-100,4,2,2,73,0,0
61933,-100,4,2,2,64,0,0
62169,-100,4,2,2,73,0,0
65712,-100,4,2,2,65,0,0
65949,-100,4,2,2,73,0,0
66657,-100,4,2,2,65,0,0
66893,-100,4,2,2,73,0,0
67130,-100,4,2,2,65,0,0
67366,-100,4,2,2,73,0,0
67602,-100,4,1,2,73,0,0
68665,-100,4,2,2,73,0,0
69019,-100,4,2,2,66,0,0
69256,-100,4,2,2,73,0,0
72327,-100,4,2,2,66,0,0
72563,-100,4,2,2,73,0,0
73035,-100,4,2,1,73,0,0
73271,-100,4,2,2,66,0,0
73508,-100,4,2,2,73,0,0
74216,-100,4,2,2,65,0,0
74453,-100,4,2,2,73,0,0
74807,-100,4,2,2,56,0,0
75161,-100,4,2,2,64,0,0
75397,-100,4,2,2,75,0,0
75634,-100,4,2,2,88,0,0
75870,-100,4,2,1,100,0,0
76224,-100,4,2,2,70,0,0
76578,-100,4,2,2,60,0,0
76815,-100,4,2,2,70,0,0
77051,-100,4,2,2,60,0,0
77287,-100,4,2,2,70,0,0
78704,-100,4,2,1,75,0,0
78941,-100,4,2,2,75,0,0
79413,-100,4,2,2,61,0,0
79649,-100,4,2,1,75,0,0
80122,-100,4,2,2,70,0,0
80358,-100,4,2,2,61,0,0
80594,-100,4,2,2,71,0,0
81539,-100,4,2,1,75,0,0
81775,-100,4,2,2,75,0,0
82484,-100,4,2,1,75,0,0
82720,-100,4,2,2,75,0,0
83665,-100,4,2,2,61,0,0
83901,-100,4,2,2,75,0,0
84610,-100,4,2,2,60,0,0
84846,-100,4,2,2,75,0,0
85319,-100,4,2,1,75,0,0
86500,-100,4,2,2,75,0,0
90870,-100,4,2,1,75,0,0
92063,472.44094488189,4,2,1,88,1,0
92771,-100,4,2,2,80,0,0
94070,-100,4,2,2,70,0,0
94307,-100,4,2,2,80,0,0
94779,-100,4,2,1,79,0,0
95015,-100,4,2,1,81,0,0
96669,-100,4,2,1,78,0,0
96905,-100,4,2,2,81,0,0
97850,-100,4,2,2,71,0,0
98086,-100,4,2,2,81,0,0
98559,-100,4,2,1,81,0,0
98795,-100,4,2,2,81,0,0
99503,-100,4,2,1,81,0,0
99740,-100,4,2,2,81,0,0
100448,-100,4,2,1,81,0,0
100685,-100,4,2,2,81,0,0
101629,-100,4,2,2,71,0,0
101866,-100,4,2,2,81,0,0
102338,-100,4,2,1,80,0,0
102574,-100,4,2,2,69,0,0
102811,-100,4,2,2,81,0,0
106118,-100,4,2,1,81,0,0
106354,-100,4,2,2,69,0,0
106590,-100,4,2,2,80,0,0
108007,-100,4,2,1,59,0,0
108244,-100,4,2,2,69,0,0
108480,-100,4,2,2,80,0,0
111787,-100,4,2,1,82,0,0
112023,-100,4,2,2,80,0,0
112968,-100,4,2,2,70,0,0
113204,-100,4,2,2,80,0,0
113677,-100,4,2,1,80,0,0
113913,-100,4,2,2,80,0,0
115803,-100,4,2,2,71,0,0
116039,-100,4,2,2,80,0,0
123244,-100,4,2,2,53,0,0
134582,-100,4,2,2,76,0,0
135763,-100,4,2,2,96,0,0
136472,-100,4,2,2,77,0,0
137181,-100,4,2,2,57,0,0
137889,-100,4,2,2,37,0,0
138598,-100,4,2,2,18,0,0
142141,-100,4,2,2,72,0,0
143322,-100,4,2,2,100,0,0
144031,-100,4,2,2,75,0,0
144740,-100,4,2,2,52,0,0
145448,-100,4,2,2,31,0,0
146157,-100,4,2,2,12,0,0
149700,-100,4,2,2,73,0,0
150881,-100,4,2,2,100,0,0
151590,-100,4,2,2,87,0,0
152299,-100,4,2,2,69,0,0
153007,-100,4,2,2,52,0,0
153716,-100,4,2,2,36,0,0
157259,-100,4,2,2,73,0,0
158440,-100,4,2,2,100,0,0
159149,-100,4,2,2,88,0,0
159858,-100,4,2,2,74,0,0
160566,-100,4,2,2,58,0,0
161275,-100,4,2,2,42,0,0
163401,-100,4,2,2,81,0,0
164937,-100,4,2,2,71,0,0
165173,-100,4,2,2,81,0,0
166590,-100,4,2,1,81,0,0
166826,-100,4,2,2,81,0,0
167771,-100,4,2,2,71,0,0
168007,-100,4,2,2,81,0,0
168480,-100,4,2,1,81,0,0
168716,-100,4,2,2,70,0,0
168952,-100,4,2,2,81,0,0
173440,-100,4,2,2,71,0,0
173677,-100,4,2,2,81,0,0
174149,-100,4,2,1,81,0,0
174385,-100,4,2,2,71,0,0
174622,-100,4,2,2,81,0,0
177929,-100,4,2,1,82,0,0
178165,-100,4,2,2,71,0,0
178401,-100,4,2,2,81,0,0
179818,-100,4,2,1,50,0,0
180055,-100,4,2,2,71,0,0
180291,-100,4,2,2,81,0,0
183598,-100,4,2,1,79,0,0
183834,-100,4,2,2,79,0,0
184307,-100,4,2,2,69,0,0
184543,-100,4,2,2,79,0,0
184779,-100,4,2,2,70,0,0
185015,-100,4,2,2,79,0,0
185488,-100,4,2,1,79,0,0
185724,-100,4,2,2,90,0,0
187259,-100,4,1,2,90,0,0
200015,-100,4,2,1,75,0,0
200724,-100,4,2,0,61,0,1

[Colours]
Combo1 : 0,128,255
Combo2 : 255,255,193
Combo3 : 255,89,255
Combo4 : 122,254,205

[HitObjects]
56,80,15516,2,0,B|144:48,1,80,0|2
208,40,15988,1,4
176,112,16224,1,2
144,184,16460,2,0,B|232:216,1,80,0|2
296,224,16933,1,4
264,152,17169,1,4
328,104,17405,6,0,B|304:72|336:16,2,80,0|2|4
400,136,18114,1,2
400,136,18350,1,0
472,104,18586,2,0,B|496:72|464:16,2,80,2|4|4
400,136,19295,6,0,B|312:136,1,80,0|2
280,200,19767,2,0,B|368:200,1,80,4|2
400,264,20240,2,0,B|312:264,1,80,0|2
272,328,20712,2,0,B|368:328,1,80,4|4
432,344,21185,5,0
472,272,21421,1,2
400,232,21657,1,4
472,192,21893,1,2
472,192,22130,1,0
400,152,22366,1,2
472,112,22602,1,4
432,40,22838,1,4
352,40,23075,6,0,B|272:80,1,80,0|2
160,120,23547,2,0,B|240:160,1,80,4|2
360,200,24019,2,0,B|280:240,1,80,0|2
168,280,24492,2,0,B|248:320,1,80,4|4
360,360,24964,6,0,B|280:320,1,80,0|2
168,280,25437,2,0,B|248:240,1,80,4|2
368,200,25909,2,0,B|288:160,1,80,0|2
176,120,26382,2,0,B|256:80,1,80,4|4
328,80,26854,5,0
400,48,27090,1,2
432,120,27327,1,4
360,152,27563,1,2
288,184,27799,1,0
208,208,28035,1,2
232,280,28271,1,4
312,256,28508,1,4
384,288,28744,5,0
72,192,29216,1,4
384,96,29689,1,4
440,152,29925,1,4
440,232,30161,1,4
384,288,30397,1,4
304,288,30634,5,4
224,304,30870,1,2
144,320,31106,2,0,B|96:328,2,40,4|0|2
176,248,31578,5,0
256,232,31815,1,2
336,216,32051,2,0,B|384:208,2,40,4|0|2
296,144,32523,5,0
216,160,32760,1,2
136,176,32996,2,0,B|88:184,2,40,4|0|2
160,96,33468,5,0
240,80,33704,1,2
320,64,33941,2,0,B|368:56,2,40,4|0|2
288,136,34413,6,0,B|344:200,1,80,0|2
416,168,34886,1,4
416,168,35004,1,0
416,168,35122,1,0
400,248,35358,2,0,B|344:328|360:320,1,80,0|2
288,280,35830,1,4
288,280,35949,1,0
288,280,36067,1,2
208,304,36303,5,0
136,264,36539,1,2
80,200,36775,1,4
80,200,36893,1,0
80,200,37012,1,2
88,120,37248,1,0
128,48,37484,1,2
200,16,37720,1,4
200,16,37838,1,0
200,16,37956,1,2
240,80,38193,5,0
312,120,38429,1,2
384,144,38665,1,4
464,152,38901,1,2
464,232,39138,1,0
384,240,39374,1,2
312,264,39610,1,4
240,304,39846,1,2
160,320,40082,6,0,B|184:240,1,80,0|2
160,64,40555,2,0,B|184:144,1,80,4|2
104,272,41027,2,0,B|32:232,1,80,0|2
104,112,41500,2,0,B|32:152,1,80,4|2
104,184,41972,5,0
104,184,42208,1,2
184,200,42445,1,4
184,200,42681,1,2
264,184,42917,1,0
264,184,43153,1,2
344,200,43390,1,4
344,200,43626,1,2
424,184,43862,5,4
120,80,44334,1,4
256,368,44807,1,4
256,288,45043,1,4
256,208,45279,1,4
256,208,45397,1,4
256,208,45515,1,4
256,128,45752,1,4
120,40,46224,5,8
48,72,46460,1,2
112,120,46697,2,0,B|48:184|88:280,1,160,0|8
152,224,47405,2,0,B|168:272|224:264,2,80,2|0|2
200,160,48114,1,8
280,176,48350,1,2
264,96,48586,2,0,B|312:88|344:120,1,80,0|2
376,184,49059,2,0,B|408:224|368:264,1,80,8|2
88,272,49767,5,2
24,216,50004,1,8
96,184,50240,1,2
160,232,50476,2,0,B|216:200|264:256|328:208,1,160,0|8
392,232,51185,5,2
464,192,51421,1,0
392,152,51657,1,2
392,152,51775,1,0
392,152,51893,1,8
328,104,52130,2,0,B|264:48|176:104,1,160,2|2
104,120,52838,2,0,B|160:184|96:224|160:272,1,160,0|0
128,344,53547,5,2
208,328,53783,1,8
272,280,54019,1,2
312,208,54256,2,0,B|360:144|328:48,1,160,0|8
264,96,54964,2,0,B|216:80|184:120,2,80,2|0|2
328,136,55673,1,8
256,168,55909,1,2
184,200,56145,1,0
240,256,56382,1,0
304,304,56618,1,8
368,352,56854,1,0
384,272,57090,6,0,B|472:232|448:128,1,160,0|8
384,184,57799,2,0,B|304:232|232:144|144:208,1,240,0|8
151,202,58626,1,0
151,202,58744,1,0
176,88,58980,6,0,B|256:64|336:88,2,160,0|8|2
152,256,60279,1,2
360,256,60634,1,2
256,336,61106,5,2
256,336,61342,1,8
256,336,61578,1,2
256,336,61815,2,0,B|232:280|288:232|256:168,1,160,0|8
176,176,62523,2,0,B|128:160|136:96,1,80,2|0
216,120,62996,2,0,B|192:80|216:40,1,80,2|8
298,43,63468,2,0,B|320:80|296:120,1,80
377,114,63941,2,0,B|384:160|336:176,1,80,0|8
256,192,64413,1,2
152,312,64886,5,2
72,288,65122,1,8
48,208,65358,1,2
104,152,65594,2,0,B|136:232|232:264,1,160,0|8
217,258,66185,1,0
217,258,66303,1,2
288,296,66539,6,0,B|384:288|416:208,2,160,0|8|0
136,216,67838,1,2
272,120,68193,1,2
40,56,68901,6,0,B|24:136|56:224,1,160,8|0
72,288,69610,1,2
72,288,69728,1,0
72,288,69846,1,8
136,240,70082,1,2
184,304,70319,1,0
248,256,70555,1,2
296,320,70791,1,8
360,272,71027,1,2
312,200,71264,1,0
256,136,71500,1,2
200,192,71736,1,8
248,256,71972,1,2
312,304,72208,6,0,B|400:328|472:256,1,160,0|8
392,224,72917,2,0,B|328:160|224:256|176:144,1,240,2|8
179,151,73744,1,0
179,151,73862,1,2
128,88,74098,6,4,B|40:120|24:216,1,160,0|8
26,202,74807,1,2
64,272,75043,5,4
152,328,75279,1,4
256,352,75515,1,4
360,328,75752,1,4
448,272,75988,1,4
256,24,76460,6,0,B|256:192,2,160,8|0|8
176,56,77641,6,0,B|88:56,1,80,2|0
336,56,78114,2,0,B|424:56,1,80,2|8
184,128,78586,2,0,B|264:184|336:120,1,160,2|2
184,256,79295,2,0,B|264:200|336:264,1,160,8|0
144,272,80240,6,0,B|104:192|144:104,1,160,8|0
256,192,80949,1,2
256,192,81185,1,8
373,117,81421,2,0,B|408:192|368:272,1,160,2|2
256,192,82130,1,8
176,80,82366,2,0,B|256:40|344:80,1,160,2|2
256,192,83075,1,8
256,192,83311,1,2
330,309,83547,2,0,B|256:344|176:304,1,160,0|8
176,304,84256,5,2
112,256,84492,2,0,B|48:224|112:152|32:120,1,160,0|8
88,56,85201,2,0,B|136:96|192:24|248:88,1,160,2|2
192,144,85909,1,8
232,208,86145,1,2
288,264,86382,1,0
288,264,86500,1,0
288,264,86618,1,2
368,272,86854,1,8
344,192,87090,5,2
432,160,87327,1,0
344,120,87563,1,2
256,88,87799,1,8
256,88,88035,1,2
168,120,88271,1,0
80,160,88508,1,2
168,192,88744,1,8
256,192,88980,12,0,90634
256,336,91106,5,4
472,192,91578,1,4
256,48,92063,1,4
40,192,92535,1,4
192,240,93007,5,0
256,192,93244,1,2
256,192,93362,1,0
256,192,93480,1,8
320,240,93716,1,2
336,160,93952,2,0,B|360:72|288:16,1,160,0|8
222,17,94661,2,0,B|152:72|176:160,1,160,2|2
256,192,95370,1,8
160,248,95606,5,2
352,248,95842,1,0
208,312,96078,1,2
304,312,96314,1,8
256,256,96551,2,0,B|280:200|240:160|256:72,1,160,2|2
252,97,97141,1,0
252,97,97259,1,8
252,97,97377,1,0
252,97,97496,1,2
176,72,97732,6,0,B|88:72|24:152,1,160,0|8
104,168,98440,2,0,B|24:240|96:328,1,160,2|2
160,336,99149,1,8
152,256,99385,2,0,B|208:192|304:208,1,160,2|2
368,240,100094,1,8
376,160,100330,2,0,B|328:80|208:136,1,160,2|2
160,152,101039,1,8
160,152,101157,1,0
160,152,101275,1,2
112,216,101511,6,0,B|168:256|224:200|272:256,1,160,0|8
288,320,102220,2,0,B|376:280|328:184|448:136,1,240,2|8
344,40,103401,5,2
64,80,103874,1,8
64,304,104346,1,2
344,344,104818,1,8
128,88,105291,5,0
256,112,105527,1,2
384,88,105763,1,8
368,240,106000,2,0,B|256:192|128:240,1,240,2|8
96,336,107181,5,0
200,344,107417,1,2
312,344,107653,1,8
416,336,107889,1,2
336,248,108125,2,0,B|256:216|176:248,1,160,4|8
256,56,109070,5,0
336,72,109307,1,2
336,72,109425,1,0
336,72,109543,1,8
408,104,109779,1,2
352,160,110015,1,0
272,176,110251,1,2
272,176,110370,1,0
272,176,110488,1,8
200,208,110724,1,2
120,192,110960,5,0
24,136,111196,1,2
96,48,111433,1,8
184,112,111669,2,0,B|240:88|288:120|352:88,1,160,2|2
341,92,112377,5,8
341,92,112614,1,2
341,92,112850,2,0,B|448:120|488:216,1,160,0|8
392,200,113559,2,0,B|304:200|256:280,1,160,2|2
208,336,114267,1,8
136,304,114503,1,2
136,304,114622,1,0
136,304,114740,1,0
80,248,114976,1,2
48,176,115212,1,8
40,96,115448,1,2
104,48,115685,6,0,B|200:48|248:144,1,160,0|8
312,88,116393,1,2
344,160,116629,1,0
392,96,116866,1,2
424,168,117102,1,8
424,168,117220,1,0
424,168,117338,1,2
384,232,117574,1,0
304,224,117811,1,2
256,336,118047,5,0
32,192,118519,1,0
256,48,118992,1,0
480,192,119464,1,0
256,192,120173,12,0,123244
176,184,125606,5,0
336,184,126078,1,0
80,200,126551,1,0
432,200,127023,1,0
176,72,135055,5,0
256,64,135291,1,0
336,72,135527,1,0
56,152,136000,5,0
64,264,136236,1,0
144,200,136708,1,0
152,280,136944,1,0
224,232,137417,1,0
232,296,137653,1,0
296,248,138125,1,0
304,296,138362,1,0
368,264,138834,1,0
376,296,139070,1,0
336,72,142614,5,0
256,64,142850,1,0
176,72,143086,1,0
456,152,143559,5,0
448,264,143795,1,0
368,200,144267,1,0
360,280,144503,1,0
288,232,144976,1,0
280,296,145212,1,0
216,248,145685,1,0
208,296,145921,1,0
144,264,146393,1,0
136,296,146629,1,0
256,352,150173,5,0
256,32,150645,1,0
32,104,151118,5,0
144,136,151354,1,0
56,272,151826,1,0
152,248,152063,1,0
248,168,152535,1,0
328,184,152771,1,0
288,272,153244,1,0
352,248,153480,1,0
424,200,153952,1,0
488,200,154188,1,0
256,352,157732,5,0
256,32,158204,1,0
480,104,158677,5,0
368,136,158913,1,0
456,272,159385,1,0
360,248,159622,1,0
264,168,160094,1,0
184,184,160330,1,0
224,272,160803,1,0
160,248,161039,1,0
88,200,161511,1,0
24,200,161748,1,0
112,104,163874,6,0,B|192:120,1,80,0|2
400,104,164346,2,0,B|320:120,1,80,0|2
256,344,164818,2,0,B|232:288|288:240|248:168,1,160,0|8
256,24,165763,5,0
328,56,166000,1,2
328,56,166118,1,0
328,56,166236,1,8
256,96,166472,2,0,B|176:144|152:232,1,160,0|2
104,280,167181,1,8
104,280,167299,1,0
104,280,167417,1,2
184,280,167653,6,0,B|264:336|336:280,1,160,0|8
384,224,168362,2,0,B|288:136|160:200,1,240,2|8
48,48,169543,5,0
24,144,169779,1,2
24,240,170015,1,8
48,336,170251,1,2
112,104,170724,5,2
104,192,170960,1,8
112,280,171196,1,2
184,152,171669,5,2
256,192,171905,1,8
184,232,172141,1,2
328,152,172614,5,2
256,192,172850,1,8
328,232,173086,1,2
256,272,173322,6,0,B|168:304|96:272,1,160,0|8
24,256,174031,2,0,B|48:144|168:216|224:96,1,240,2|8
352,56,175212,5,2
448,288,175685,1,8
192,336,176157,1,2
96,96,176629,1,8
384,296,177102,5,0
256,272,177338,1,2
128,296,177574,1,8
144,144,177811,2,0,B|256:192|384:144,1,240,2|8
416,48,178992,5,0
312,40,179228,1,2
200,40,179464,1,8
96,48,179700,1,2
176,136,179937,2,0,B|256:168|336:136,1,160,0|8
224,296,180881,6,0,B|136:296,1,80,0|2
296,232,181354,2,0,B|384:232,1,80,8|2
208,152,181826,2,0,B|112:152,1,80,0|2
312,64,182299,2,0,B|408:64,1,80,8|2
472,64,182771,5,0
488,192,183007,1,2
472,320,183244,1,8
488,192,183480,2,0,B|312:192,1,160,2|2
272,248,184188,6,0,B|200:184|280:104,2,160,8|0|8
320,184,185370,2,0,B|384:192|424:168|496:192,1,160,2|2
448,112,186078,6,0,B|376:56,1,80,8|2
400,272,186551,2,0,B|328:320,1,80,0|2
256,192,187023,2,0,B|168:192,1,80,8|2
8,328,187496,6,0,B|144:272|8:128|184:72,1,320
256,24,188677,1,0
256,24,189149,1,0
256,344,189858,5,0
256,256,190330,1,0
256,184,190803,1,0
504,328,191275,6,0,B|368:272|504:128|328:72,1,320
256,24,192456,1,0
256,24,192929,1,0
256,344,193637,5,0
256,256,194110,1,0
256,184,194582,1,0
176,64,195055,6,0,B|256:32|336:64,1,160
256,120,195763,1,0
256,320,196236,1,0
256,192,196708,12,0,198834
64,192,199307,5,0
256,32,199779,1,2
448,192,200251,1,12
256,352,200724,1,0
