osu file format v5

[General]
AudioFilename: 02.Everwhite.mp3
AudioLeadIn: 0
PreviewTime: -1
Countdown: 0
SampleSet: Soft
StackLeniency: 0.2
Mode: 0
LetterboxInBreaks: 1
SkinPreference:XiStyle
EditorBookmarks: 6856,37499,42427,51213,58070,65570,72427,79392,80570,86999,94284,101034,110142,136927,143784,151284,158142,164784,165963,172713,179999,185999,193713
EditorDistanceSpacing: 0.800000011920929

[Metadata]
Title:Everwhite
Artist:Hatsune Miku
Creator:DJMax
Version:SaT MiX
Source:
Tags:

[Difficulty]
HPDrainRate:5
CircleSize:5
OverallDifficulty:8
SliderMultiplier:2
SliderTickRate:1

[Events]
//Background and Video events
0,0,"untitled.jpg"
//Break Periods
2,8770,10820
2,12198,14249
2,15627,17677
2,22484,27877
2,37913,38034
2,109484,136177
2,144198,144320
2,147412,147962
2,154270,154820
2,209127,209677
2,211055,213534
//Storyboard Layer 0 (Background)
//Storyboard Layer 1 (Failing)
//Storyboard Layer 2 (Passing)
//Storyboard Layer 3 (Foreground)
//Storyboard Sound Samples
//Background Colour Transformations
3,100,0,0,0

[TimingPoints]
8142,428.571428571429,4,2,1,65,1,0
43713,-200,4,2,1,65,0,0
44356,-100,4,2,1,65,0,0
67713,-100,4,1,1,65,0,0
67927,-100,4,2,1,65,0,0
68034,-100,4,1,1,65,0,0
68142,-100,4,2,1,65,0,0
68249,-100,4,1,1,65,0,0
68677,-100,4,2,1,65,0,0
74570,-100,4,1,1,65,0,0
74784,-100,4,2,1,65,0,0
74892,-100,4,1,1,65,0,0
74999,-100,4,2,1,65,0,0
75106,-100,4,1,1,65,0,0
75213,-100,4,2,1,65,0,0
75320,-100,4,1,1,65,0,0
75856,-100,4,2,1,65,0,0
79499,-100,4,1,1,65,0,0
79606,-100,4,2,1,65,0,0
79927,-100,4,1,1,65,0,0
80034,-100,4,2,1,65,0,0
80356,-100,4,1,1,65,0,0
80463,-100,4,2,1,65,0,0
80570,-100,4,1,1,65,0,0
81427,-100,4,2,1,65,0,0
94284,-200,4,2,1,65,0,0
94713,-100,4,2,1,65,0,0
97713,-200,4,2,1,65,0,0
98570,-100,4,2,1,65,0,0
143142,-100,4,2,1,65,0,0

[Colours]
Combo1 : 0,0,0
Combo2 : 0,227,227
Combo3 : 0,128,255
Combo4 : 204,204,204

[HitObjects]
365,93,8141,1,2
365,93,8249,1,0
365,93,8356,1,2
365,93,8463,1,0
365,93,8570,1,4
147,93,11570,5,2
147,93,11677,1,0
147,93,11784,1,2
147,93,11892,1,0
147,93,11999,1,4
355,301,14999,5,2
355,301,15106,1,0
355,301,15213,1,2
355,301,15320,1,0
355,301,15427,1,4
74,44,18427,5,0
74,44,18534,1,0
74,44,18642,1,0
74,44,18749,1,0
74,44,18856,2,0,B|70:109|142:113,1,100,0|2
208,130,19284,2,0,B|276:124|326:171,1,100,8|2
337,225,19713,2,0,B|401:255|454:211,1,100,0|2
425,145,20142,2,0,B|352:86|299:119,1,100,8|2
266,148,20570,2,0,B|224:199|161:205,1,100,0|2
143,199,20892,1,0
104,188,20999,1,8
72,163,21106,1,0
158,79,21427,1,0
221,71,21642,1,2
259,82,21749,1,0
297,95,21856,1,8
334,109,21963,1,0
370,126,22070,1,2
403,147,22177,1,0
439,165,22284,1,4
120,52,29142,6,0,B|193:140,1,100,0|2
212,157,29463,1,0
244,180,29570,1,0
313,220,29784,1,2
245,263,29999,2,0,B|110:291,1,100,0|2
110,267,30320,1,0
82,235,30427,2,0,B|56:123,1,100,0|2
81,103,30749,1,0
105,72,30856,2,0,B|183:175|281:65,3,200
432,72,32570,2,0,B|494:166|412:272,1,200
103,227,33427,6,0,B|200:324,1,100,0|2
213,296,33749,1,0
253,288,33856,2,0,B|360:219,1,100,0|2
375,224,34177,1,0
411,204,34284,2,0,B|453:82,1,100,0|2
379,61,34713,2,0,B|240:51,1,100,0|2
199,60,35142,2,0,B|68:103,1,100,0|2
74,165,35570,2,0,B|155:275,2,100,0|0|4
153,152,36213,5,2
153,152,36320,1,2
153,152,36427,1,2
233,149,36642,1,2
233,149,36749,1,2
233,149,36856,1,2
312,149,37070,1,2
312,149,37177,1,2
312,149,37284,1,2
390,163,37499,5,2
389,242,37713,1,0
35,55,38784,5,0
106,92,38999,1,0
171,137,39213,2,0,B|183:211|255:243,1,100,4|2
254,203,39534,1,0
283,173,39642,1,0
332,110,39856,1,0
346,147,39963,1,0
362,184,40070,1,2
429,226,40284,2,0,B|372:274|321:260,1,100,0|2
259,251,40713,6,0,B|188:255|148:298,1,100,0|2
93,247,41142,1,0
70,169,41356,1,2
66,129,41463,1,0
72,89,41570,1,0
105,67,41677,1,0
183,52,41892,1,2
223,64,41999,2,0,B|296:85|347:134,2,100,0|2|0
231,144,42642,6,0,B|292:205|359:190,1,100,0|2
348,216,42963,1,0
327,250,43070,2,2,B|250:249,2,50
386,248,43499,1,2
406,168,43713,6,0,B|313:96,1,100,4|0
247,96,44356,6,4,B|240:150|179:172,1,100,2|4
464,336,45642,1,0
386,316,45856,1,2
317,274,46070,2,0,B|324:205|229:179,1,100,2|2
223,259,46499,1,0
146,237,46713,2,0,B|164:180|250:176,1,100,0|4
449,106,47570,2,0,B|448:250,1,100,0|4
32,347,49284,6,0,B|32:226,1,100,0|2
159,150,49927,1,2
319,146,50356,1,2
477,126,50784,1,2
435,280,51213,6,0,B|322:279,1,100,2|4
275,228,51642,1,2
200,198,51856,2,0,B|193:269|108:292,1,100,0|0
66,276,52284,2,0,B|38:210|86:160,1,100,2|0
70,180,52713,1,0
70,180,52927,1,0
82,100,53142,2,0,B|158:72|261:133|400:92,2,300
82,100,54642,1,4
89,179,54856,5,0
147,233,55070,1,2
187,229,55177,1,0
226,229,55284,1,2
265,236,55392,1,0
344,234,55606,1,2
344,234,55713,2,0,C|456:185,1,100
464,267,56142,6,0,B|359:312,1,100,0|2
132,323,56999,2,0,B|87:267|144:192,1,100,0|2
274,276,57642,1,0
348,134,58070,1,2
268,143,58284,6,0,B|176:211,1,100,0|2
158,277,58713,2,0,B|257:344,1,100,0|2
311,303,59142,2,0,B|396:233,1,100,0|2
427,169,59570,2,0,B|334:123,1,100,0|2
261,141,59999,2,0,B|133:144,1,100,0|2
78,280,60642,1,4
313,325,61284,6,0,B|399:308|312:276,1,100,2|4
149,38,62999,6,0,B|91:102|151:158,1,100,0|2
273,196,63642,1,2
427,236,64070,1,2
279,299,64499,1,2
130,239,64927,1,2
117,159,65142,6,0,B|247:159,1,100,4|2
217,159,65570,1,8
236,81,65784,2,0,C|278:114|291:190,1,100,2|0
362,155,66213,2,0,C|404:181|475:162,1,100,2|8
432,247,66642,1,2
286,311,67070,1,2
152,221,67499,1,4
196,154,67713,5,0
228,131,67820,1,0
265,118,67927,1,2
305,118,68034,1,0
344,125,68142,1,2
381,140,68249,1,0
408,169,68356,1,0
434,199,68463,1,0
441,238,68570,1,0
309,328,68999,6,2,C|256:336|196:286,1,100
37,152,69642,2,0,C|97:80|203:64,1,200,2|2
353,112,70499,2,2,C|392:203|309:295,1,200
167,267,71356,2,0,C|125:294|56:269,2,100,2|4|2
340,100,72427,6,2,C|365:148|351:221,1,100
199,217,73070,2,2,C|236:304|335:358,1,200
362,197,73927,2,0,C|385:117|303:34,1,200,2|4
224,36,74570,1,0
184,44,74677,1,0
149,63,74784,1,2
123,93,74891,1,0
106,129,74999,1,2
95,167,75106,1,0
92,206,75213,1,2
96,245,75320,1,0
122,274,75427,1,0
316,232,75856,6,0,C|385:147,1,100
312,110,76284,2,0,C|216:128,1,50
224,131,76499,1,0
150,161,76713,2,0,C|188:264,1,100
228,321,77142,1,0
307,313,77356,5,2
329,236,77570,1,2
322,156,77784,1,2
253,114,77999,1,2
174,127,78213,1,0
256,192,78427,12,0,78856
486,194,79070,5,2
436,130,79284,5,0
397,119,79392,1,0
357,123,79499,1,4
321,141,79606,1,0
290,166,79713,1,0
256,187,79820,1,0
218,200,79927,1,4
179,210,80034,1,0
139,215,80142,1,0
101,200,80249,1,0
73,170,80356,1,4
48,138,80463,1,0
38,99,80570,1,4
354,54,81427,6,2,C|364:135|328:229,2,150
420,99,82284,2,0,C|436:174|399:246,1,150,4|0
297,295,82927,1,2
216,296,83142,2,0,C|140:314|61:264,1,150,4|0
42,163,83784,1,0
72,88,83999,2,0,C|169:91|203:207,3,200,4|2|0|2
276,325,85713,6,2,C|341:361|416:310,2,150
332,268,86570,1,0
344,108,86999,1,0
184,103,87427,1,0
131,347,88498,5,2
206,320,88713,1,2
285,319,88927,1,2
360,344,89142,1,4
252,42,89784,5,2
180,76,89998,2,0,C|249:116|332:60,2,150,2|0|2
177,156,90855,2,0,C|178:272,1,100,4|2
258,257,91284,2,0,C|258:146,1,100,8|2
338,157,91713,2,0,C|338:277,1,100,0|2
418,252,92142,2,0,C|418:145,1,100,8|2
416,72,92570,2,0,C|313:72,1,100,0|2
237,89,92999,1,8
212,165,93213,1,2
146,210,93427,1,0
70,236,93642,1,2
48,313,93856,2,0,C|90:348|161:344,1,100,8|2
213,340,94284,6,0,C|340:342,1,100,4|0
376,292,94927,1,0
387,214,95142,1,2
378,134,95356,2,0,C|256:123,1,100,0|8
199,114,95784,2,0,C|178:216,1,100,2|4
419,220,96642,6,0,C|456:116|422:19,1,200,4|2
359,74,97284,1,8
299,127,97499,1,2
241,182,97713,2,0,C|179:170|123:216|46:186,1,200,4|8
51,116,98784,1,2
109,61,98999,1,2
187,46,99213,1,2
266,46,99427,2,0,C|438:48,2,150,4|4|4
259,126,100284,1,4
255,286,100713,6,0,C|36:284,1,200,0|4
337,133,101999,6,4,C|247:122|141:142,2,150
321,211,102856,1,4
175,283,103499,1,2
95,292,103714,2,4,C|59:216|91:113,2,150
209,187,104570,6,0,C|290:185,18,50,4|0|2|0|8|0|2|0|0|0|2|0|8|0|2|0|0|0|2
206,106,106713,2,0,C|328:108,1,100,2|8
378,142,107142,1,4
301,234,107463,1,0
212,279,107784,1,4
132,267,107999,5,4
256,192,107999,12,0,109284
122,163,136927,5,2
123,242,137141,1,0
477,55,138212,5,0
406,92,138427,1,0
341,137,138641,2,0,B|329:211|257:243,1,100,4|2
229,173,139070,1,0
180,110,139284,1,0
150,184,139498,1,2
83,226,139712,2,0,B|140:274|191:260,1,100,0|2
253,251,140141,6,0,B|324:255|364:298,1,100,0|2
419,247,140570,1,0
442,169,140784,1,2
440,89,140998,1,0
369,53,141212,1,2
289,64,141427,2,0,B|216:85|165:134,2,100,0|2|0
281,144,142070,6,0,B|220:205|153:190,1,100,0|2
203,271,142498,2,2,B|280:270,2,50
127,245,142927,1,2
85,176,143141,6,0,B|226:12,1,200,4|0
265,96,143784,6,4,B|272:150|333:172,1,100,2|4
48,336,145070,5,0
126,316,145284,1,2
195,274,145498,2,0,B|188:205|283:179,1,100,2|2
289,259,145927,1,0
366,237,146141,2,0,B|348:180|262:176,1,100,0|4
63,106,146998,2,0,B|64:250,1,100,0|4
480,347,148712,6,0,B|480:226,1,100,0|2
353,150,149355,1,2
193,146,149784,1,2
35,126,150212,1,2
77,280,150641,6,0,B|190:279,1,100,2|4
237,228,151070,1,2
312,198,151284,2,0,B|319:269|404:292,1,100,0|0
446,276,151712,2,0,B|474:210|426:160,1,100,2|0
442,180,152141,1,0
442,180,152355,1,0
430,100,152570,2,0,B|354:72|251:133|112:92,2,300
430,100,154070,1,4
48,267,155570,6,0,B|153:312,1,100,0|2
380,323,156427,2,0,B|425:267|368:192,1,100,0|2
238,276,157070,1,0
164,134,157498,1,2
244,143,157712,6,0,B|336:211,1,100,0|2
354,277,158141,2,0,B|255:344,1,100,0|2
201,303,158570,2,0,B|116:233,1,100,0|2
85,169,158998,2,0,B|178:123,1,100,0|2
251,141,159427,2,0,B|379:144,1,100,0|2
434,280,160070,1,4
256,192,160499,12,2,163713
256,192,163927,5,2
256,192,164142,12,0,164571
26,194,164785,5,2
76,130,164999,5,0
115,119,165107,1,0
155,123,165214,1,2
191,141,165321,1,2
222,166,165428,1,2
256,187,165535,1,2
294,200,165642,1,2
333,210,165749,1,2
373,215,165857,1,0
411,200,165964,1,0
439,170,166071,1,0
464,138,166178,1,0
474,99,166285,1,4
158,54,167142,6,2,C|148:135|184:229,2,150
92,99,167999,2,0,C|76:174|113:246,1,150,4|0
215,295,168642,1,2
296,296,168857,2,0,C|372:314|451:264,1,150,4|0
470,163,169499,1,0
440,88,169714,2,0,C|343:91|309:207,3,200,4|2|0|2
236,325,171428,6,2,C|171:361|96:310,2,150
180,268,172285,1,0
168,108,172714,1,0
328,103,173142,1,0
381,347,174213,5,2
306,320,174428,1,2
227,319,174642,1,2
152,344,174857,1,4
260,42,175499,5,2
332,76,175713,2,0,C|263:116|180:60,2,150,2|0|2
335,156,176570,2,0,C|334:272,1,100,4|2
254,257,176999,2,0,C|254:146,1,100,8|2
174,157,177428,2,0,C|174:277,1,100,0|2
94,252,177857,2,0,C|94:145,1,100,8|2
96,72,178285,2,0,C|199:72,1,100,0|2
275,89,178714,1,8
300,165,178928,1,2
366,210,179142,1,0
442,236,179357,1,2
464,313,179571,2,0,C|422:348|351:344,1,100,8|2
297,342,179999,6,0,C|96:367,1,200
136,292,180642,1,0
125,214,180857,1,2
134,134,181071,2,0,C|256:123,1,100,0|8
313,114,181499,2,0,C|334:216,1,100,2|4
93,220,182357,6,0,C|56:116|90:19,1,200,4|2
153,74,182999,1,8
213,127,183214,1,2
271,182,183428,2,0,C|333:170|389:216|466:186,2,200
332,130,184499,1,2
393,78,184714,1,2
325,46,184928,1,2
246,46,185142,2,0,C|74:48,2,150,4|4|4
253,126,185999,1,4
257,286,186428,6,0,C|476:284,1,200,0|4
175,133,187714,6,4,C|265:122|371:142,2,150
191,211,188571,1,4
337,283,189214,1,2
417,292,189429,2,4,C|453:216|421:113,2,150
303,187,190285,6,0,C|222:185,18,50,4|0|2|0|8|0|2|0|0|0|2|0|8|0|2|0|0|0|2
306,106,192428,2,0,C|184:108,1,100,2|8
134,142,192857,1,4
211,234,193178,1,0
300,279,193499,1,4
380,267,193714,5,4
256,192,193714,12,0,194570
16,96,194784,5,2
16,112,194892,1,0
16,128,194999,1,2
96,112,195213,1,2
96,128,195320,1,0
96,144,195428,1,2
96,160,195534,1,0
96,176,195642,1,2
176,144,195856,5,2
176,160,195963,1,0
176,176,196070,1,2
176,192,196177,1,0
176,208,196284,1,2
176,224,196392,1,0
176,240,196499,1,2
256,160,196713,2,0,C|256:224,4,50,2|0|2|0|6
485,36,198427,6,10,C|485:164,1,100
483,376,199284,2,10,C|370:376,1,100
222,371,199927,1,10
61,369,200356,1,10
121,316,200570,1,0
496,96,200998,5,2
496,112,201106,1,0
496,128,201213,1,2
416,112,201427,1,2
416,128,201534,1,0
416,144,201642,1,2
416,160,201748,1,0
416,176,201856,1,2
336,144,202070,5,2
336,160,202177,1,0
336,176,202284,1,2
336,192,202391,1,0
336,208,202498,1,2
336,224,202606,1,0
336,240,202713,1,2
256,160,202927,2,0,C|256:224,6,50,0|0|0|0|0|0|2
175,155,203784,2,0,C|176:229,2,50,6|0|6
439,336,204856,1,4
280,312,205284,5,4
119,313,205713,2,4,C|16:316,1,100
109,183,206356,2,4,C|198:124|256:197,2,200
87,259,207427,2,0,C|497:256,1,400
479,96,208713,2,4,C|364:94,1,100
52,320,210427,6,0,C|161:322,2,100,4|0|4
32,224,214284,5,2
48,224,214392,1,0
64,224,214499,1,0
80,224,214606,1,0
96,224,214713,1,2
112,224,214820,1,0
128,224,214927,1,0
144,224,215034,1,0
160,224,215142,1,2
176,224,215249,1,0
192,224,215356,1,0
208,224,215463,1,0
224,224,215570,1,2
240,224,215677,1,0
256,224,215784,1,0
272,224,215892,1,0
288,224,215999,1,2
304,224,216106,1,0
320,224,216213,1,0
336,224,216320,1,0
352,224,216427,1,2
368,224,216534,1,0
384,224,216642,1,0
400,224,216749,1,0
416,224,216856,1,2
432,224,216963,1,0
448,224,217070,1,0
464,224,217177,1,0
480,224,217284,1,2
442,153,217499,1,4
369,118,217713,5,4
256,192,217713,12,4,219427
240,124,219642,5,4
157,348,220284,6,4,C|388:348,2,200
