osu file format v5

[General]
AudioFilename: Hatsune Miku - Empty Stomach.mp3
AudioLeadIn: 0
PreviewTime: -1
Countdown: 1
SampleSet: Soft
StackLeniency: 0.7
Mode: 0
LetterboxInBreaks: 1
EditorDistanceSpacing: 0.800000011920929

[Metadata]
Title:Empty Stomach
Artist:Hatsune Miku
Creator:uchihaseymour
Version:Rain
Source:
Tags:hatsune miku

[Difficulty]
HPDrainRate:8
CircleSize:5
OverallDifficulty:7
SliderMultiplier:1.4
SliderTickRate:3

[Events]
//Background and Video events
Video,0,"Hatsune Miku - Empty Stomach.avi"
0,0,"hatsunemiku.jpg"
//Break Periods
2,84136,84167
2,89314,97178
2,183660,204058
//Storyboard Layer 0 (Background)
//Storyboard Layer 1 (Fail)
//Storyboard Layer 2 (Pass)
//Storyboard Layer 3 (Foreground)
//Storyboard Sound Samples
//Background Colour Transformations
3,100,163,162,255

[TimingPoints]
11116.9945579077,545.454545454545,4,2,1,100,1,0

[Colours]
Combo1 : 255,150,0
Combo2 : 5,240,5
Combo3 : 5,5,240
Combo4 : 240,5,5
Combo5 : 0,255,255

[HitObjects]
128,192,5116,5,8
96,160,5480,1,0
64,128,5662,1,0
160,160,6026,1,0
192,128,6207,1,8
96,224,6571,1,0
64,256,6753,1,0
160,224,7116,1,0
192,256,7298,1,8
96,192,7662,1,0
64,192,7844,1,0
160,192,8207,1,0
192,192,8389,1,8
256,192,8753,5,0
288,192,8935,1,0
384,192,9480,5,8
352,160,9844,1,0
320,128,10026,1,0
416,160,10389,1,0
448,128,10571,1,8
352,224,10935,1,0
320,256,11116,1,0
416,224,11480,1,0
448,256,11662,1,8
352,192,12026,1,0
320,192,12207,1,0
416,192,12571,1,0
448,192,12753,1,8
256,192,13116,5,0
288,192,13298,1,0
256,96,13844,5,8
224,64,14207,1,0
192,32,14389,1,0
288,64,14753,1,0
320,32,14935,1,8
224,128,15298,1,0
192,160,15480,1,0
288,128,15844,1,0
320,160,16026,1,8
224,96,16389,1,0
192,96,16571,1,0
288,96,16935,1,0
320,96,17116,1,8
256,192,17480,5,0
288,192,17662,1,0
256,288,18207,5,8
224,256,18571,1,0
192,224,18753,1,0
288,256,19116,1,0
320,224,19298,1,8
224,320,19662,1,0
192,352,19844,1,0
288,320,20207,1,0
320,352,20389,1,8
224,288,20753,1,0
192,288,20935,1,0
288,288,21298,1,0
320,288,21480,1,8
96,128,22571,6,8,B|384:128,1,280
160,256,24753,6,8,B|448:256,1,280
480,64,26935,6,8,B|224:192,1,280
32,64,29116,6,8,B|288:192,1,280
256,288,31298,6,8,B|64:192|96:64|224:-32|352:-32|416:160|256:288,1,676.666666666667
256,192,35116,12,8,36751
256,192,37298,12,4,38933
64,64,40571,6,8,B|480:64|480:64|480:384|480:384|416:128|416:128|384:352|384:352|96:128|96:128|96:352|96:352|192:256,1,1936.66666666667
448,64,49298,6,8,B|480:352|480:352|160:256|160:256|352:128|352:128|32:96|32:96|64:352|64:352|416:192,1,1796.66666666667
256,192,56935,12,2,57480
256,192,58026,12,8,59116
96,128,59662,5,2
96,160,60026,1,0
128,192,60207,1,0
160,224,60571,1,0
192,224,60753,1,8
224,192,61116,1,0
256,192,61298,1,0
288,160,61662,1,0
288,128,61844,1,2
256,192,62389,12,4,62935
256,192,63480,12,4,64025
256,192,64571,12,4,65185
256,192,65662,12,4,67296
64,96,67844,5,0
96,64,68207,1,0
128,32,68389,1,8
128,128,68935,1,0
160,96,69298,1,0
192,64,69480,1,8
448,256,70026,5,0
448,192,70389,1,0
448,160,70571,1,8
384,256,71119,1,0
384,192,71480,1,0
384,160,71662,1,8
96,320,72207,5,0
160,320,72571,1,0
192,320,72753,1,8
192,192,73298,1,4
192,192,73662,1,4
320,160,73844,1,8
352,320,74389,1,4
480,160,74935,1,0
416,256,75480,1,0
256,192,76026,12,0,76571
64,192,77116,6,2,B|96:192,6,23.3333333333333
160,192,78207,5,8
352,192,78753,5,8
448,192,79292,6,2,B|480:192,6,23.3333333333333
160,192,80389,5,8
352,192,80935,5,0
256,256,81480,2,0,B|256:96,4,140
256,192,85298,12,0,85775
256,192,86389,12,0,86934
256,192,87480,12,4,89115
96,96,98389,5,8
64,64,98753,1,0
32,32,98935,1,0
128,64,99298,1,0
160,32,99480,1,8
64,128,99844,1,0
32,160,100026,1,0
128,128,100389,1,0
160,160,100571,1,8
64,96,100935,1,0
32,96,101116,1,0
128,96,101480,1,0
160,96,101662,1,8
224,192,102026,5,0
256,192,102207,1,0
448,288,102753,5,8
416,256,103116,1,0
384,224,103298,1,0
480,256,103662,1,0
512,224,103844,1,8
416,320,104207,1,0
384,352,104389,1,0
480,320,104753,1,0
512,352,104935,1,8
416,288,105298,1,0
384,288,105480,1,0
480,288,105844,1,0
512,288,106026,1,8
96,288,107116,5,8
64,256,107480,1,8
32,224,107662,1,0
128,256,108026,1,8
160,224,108207,1,8
64,320,108571,1,8
32,352,108753,1,0
128,320,109116,1,8
160,352,109298,1,8
64,288,109668,1,8
32,288,109844,1,0
128,288,110213,1,8
160,288,110389,1,8
256,224,110753,5,8
288,224,110935,1,4
448,96,111480,5,8
416,64,111844,1,0
384,32,112026,1,0
480,64,112389,1,0
512,32,112571,1,8
416,128,112935,1,0
384,160,113116,1,0
480,128,113480,1,0
512,160,113662,1,8
416,96,114026,1,0
384,96,114207,1,0
480,96,114571,1,0
512,96,114753,1,8
64,64,116298,6,0,B|64:160|64:160|288:160|288:128|192:64|128:64|128:64|128:320|128:320|288:320|224:192|224:192|480:192|480:192|480:192,1,1120
448,64,122389,6,0,B|448:352|448:352|352:160|224:352|224:64|352:128|352:128|160:352|160:352|32:256|192:224|224:96,1,1236.66666666667
160,96,129480,5,0
288,96,130026,1,0
224,192,130571,1,0
224,128,131662,5,0
352,128,132207,1,0
288,224,132753,1,0
0,32,134389,6,0,B|288:32,3,280
480,96,138753,6,0,B|192:96,3,280
32,256,143116,6,0,B|320:256,3,280
512,320,147480,6,0,B|224:320,3,280
256,192,151298,12,4,152388
96,96,152935,5,2
128,128,153480,1,2
160,160,153844,1,8
192,160,154026,1,2
320,160,154551,1,6
416,96,155116,5,2
384,128,155662,1,8
320,160,156026,1,2
288,160,156207,1,2
192,160,156753,1,4
256,192,157298,12,0,157844
256,192,158389,12,2,158935
256,192,159454,12,4,161088
192,192,161662,5,0
320,192,162207,1,8
128,160,162753,1,0
384,160,163298,1,8
256,320,163844,1,0
256,256,164389,1,8
160,256,164935,1,0
352,256,165480,1,4
256,192,166026,12,8,166571
256,192,167116,12,8,167661
256,192,168207,12,4,169842
64,192,170352,6,2,B|96:192,6,23.3333333333333
160,192,171480,5,8
352,192,172026,5,8
448,192,172571,6,2,B|480:192,6,23.3333333333333
160,192,173662,5,8
352,192,174207,5,4
256,288,174753,2,0,B|256:128,4,140
256,192,177480,12,4,178571
256,192,179116,5,2
224,160,179662,1,2
192,128,180207,1,2
256,192,180753,1,2
288,160,181298,1,2
320,128,181844,1,2
256,192,182389,1,2
256,224,182935,1,2
256,256,183480,1,2
96,96,205298,5,2
128,128,205844,1,8
160,160,206207,1,2
192,160,206389,1,2
320,160,206935,1,6
416,96,207480,5,2
384,128,208026,1,8
320,160,208389,1,2
288,160,208571,1,2
192,160,209116,1,4
256,192,209662,12,0,210207
256,192,210662,12,4,211207
256,192,211844,12,2,213479
256,192,214026,12,4,220020
