osu file format v9

[General]
AudioFilename: Hatsune Miku - Electric Angel (Rock Ver.).mp3
AudioLeadIn: 0
PreviewTime: 37592
Countdown: 1
SampleSet: Normal
StackLeniency: 0.7
Mode: 0
LetterboxInBreaks: 1

[Editor]
Bookmarks: 78319,89864,101592,104864,105955,106682
DistanceSpacing: 0.8
BeatDivisor: 4
GridSize: 8

[Metadata]
Title:Electric Angel (Rock Ver.)
Artist:Hatsune Miku
Creator:huko23
Version:Hard
Source:Yasuo-P
Tags:vocaloid

[Difficulty]
HPDrainRate:5
CircleSize:4
OverallDifficulty:4
ApproachRate:6
SliderMultiplier:1.49999990463257
SliderTickRate:1

[Events]
//Background and Video events
0,0,"bg.jpg"
//Break Periods
2,49076,54372
2,89803,99463
//Storyboard Layer 0 (Background)
//Storyboard Layer 1 (Fail)
//Storyboard Layer 2 (Pass)
//Storyboard Layer 3 (Foreground)
//Storyboard Sound Samples
//Background Colour Transformations
3,100,163,162,255

[TimingPoints]
1592,363.636363636364,4,1,0,60,1,0
37592,-100,4,1,0,60,0,1
48864,-100,4,1,0,60,0,0
78319,-100,4,1,0,60,0,1
89592,-100,4,1,0,60,0,0
101955,-100,4,1,0,60,0,1
108864,-100,4,1,0,60,0,0
136864,-100,4,1,0,60,0,1
148319,-100,4,1,0,100,0,0

[Colours]
Combo1 : 251,236,107
Combo2 : 173,51,75
Combo3 : 88,92,167
Combo4 : 160,220,199

[HitObjects]
232,192,1604,1,4
280,192,1967,5,4
256,224,2331,5,4
192,48,2694,2,0,B|160:96|208:128,1,74.9999952316285
320,176,3058,2,0,B|352:128|304:96,1,74.9999952316285
192,176,3422,2,0,B|160:224|208:256,1,74.9999952316285
320,296,3785,2,0,B|352:248|304:216,1,74.9999952316285
160,160,4149,2,0,B|192:128|256:160,1,74.9999952316285
352,224,4513,6,0,B|320:256|256:224,1,74.9999952316285
176,216,4876,1,0
144,320,5058,1,0
256,352,5240,1,0
448,232,5604,6,0,B|466:257|450:305,1,74.9999952316285
448,152,5967,2,0,B|462:127|446:79,1,74.9999952316285
343,325,6331,2,0,B|375:293|352:256,1,74.9999952316285
360,58,6694,2,0,B|384:80|352:128,1,74.9999952316285
352,128,7058,2,0,B|320:112|240:112,1,112.499992847443
244,112,7422,1,0
200,256,7604,5,0
312,176,7785,1,0
176,176,7967,1,0
296,256,8149,2,0,B|377:228|447:153,1,149.999990463257
208,112,8876,1,0
64,328,9240,2,0,B|96:288|139:258,1,74.9999952316285
208,224,9604,1,0
328,328,9967,5,0
448,280,10149,1,0
328,208,10331,2,0,B|400:160,1,74.9999952316285
408,32,10694,2,0,B|336:80,1,74.9999952316285
264,136,11058,1,0
168,216,11422,6,0,B|120:200|72:232,2,74.9999952316285
256,192,11967,1,0
344,224,12149,2,0,B|376:208|417:223,2,74.9999952316285
64,64,12876,2,0,B|80:112|112:128,1,74.9999952316285
176,80,13240,2,0,B|224:128|240:208,1,112.499992847443
152,208,13604,2,0,B|152:288|232:320,1,112.499992847443
200,304,13967,1,0
200,304,14331,1,4
416,304,14694,6,0,B|432:272|400:224,1,74.9999952316285
480,144,15058,2,0,B|432:128|384:160,1,74.9999952316285
200,144,15422,2,0,B|248:128|312:144|336:192,1,149.999990463257
320,256,15967,1,0
248,240,16149,1,0
360,152,16331,2,0,B|296:168|280:216,1,74.9999952316285
120,160,16694,2,0,B|168:160|208:208,1,74.9999952316285
188,188,17240,5,0
216,104,17422,1,0
288,48,17604,2,0,B|368:48,1,74.9999952316285
448,104,17967,2,0,B|368:168,1,74.9999952316285
288,176,18331,2,0,B|352:240,1,74.9999952316285
432,256,18694,2,0,B|368:336,1,74.9999952316285
385,314,19058,5,0
304,320,19240,1,0
240,272,19422,1,0
168,312,19604,1,0
88,296,19785,2,0,B|48:264|56:224,1,74.9999952316285
104,144,20149,2,0,B|152:184|128:240,1,74.9999952316285
464,288,20513,6,0,B|432:208|320:192,1,149.999990463257
351,198,21058,1,0
444,88,21240,2,0,B|364:120|348:216,1,149.999990463257
351,198,21785,1,0
304,128,21967,1,0
224,128,22149,1,0
176,64,22331,1,0
96,48,22513,1,0
32,96,22694,2,0,B|16:160|32:192,1,74.9999952316285
24,172,23058,5,0
96,208,23240,1,0
64,320,23422,2,0,B|32:304|32:256,1,74.9999952316285
96,208,23785,2,0,B|144:192|144:144,1,74.9999952316285
16,80,24149,2,0,B|64:80|64:144,1,74.9999952316285
128,80,24513,2,0,B|160:48|224:64,1,74.9999952316285
197,59,24876,5,0
272,48,25058,1,0
336,80,25240,1,0
368,144,25422,1,0
368,216,25604,2,0,B|352:264|304:296|272:312|224:296,1,149.999990463257
128,64,26331,6,0,B|80:128,1,74.9999952316285
192,304,27058,2,0,B|272:256,1,74.9999952316285
352,64,27785,2,0,B|400:128,1,74.9999952316285
397,123,28149,1,0
464,160,28331,1,0
432,224,28513,2,0,B|400:288|448:320,1,74.9999952316285
425,295,28876,5,0
352,256,29058,1,0
288,304,29240,2,0,B|224:320|192:304,1,74.9999952316285
213,310,29604,5,0
144,240,29785,1,0
128,336,29967,2,0,B|80:352|64:304,1,74.9999952316285
32,224,30331,2,0,B|64:192|48:144,1,74.9999952316285
32,48,30694,2,0,B|96:64|112:96,1,74.9999952316285
99,79,31058,5,0
48,160,31240,1,0
144,160,31422,2,0,B|208:128|256:192,1,112.499992847443
208,304,32149,6,0,B|198:259|238:228,1,74.9999952316285
368,160,32513,2,0,B|336:192|288:192,1,74.9999952316285
176,96,32876,2,0,B|176:144|224:160,1,74.9999952316285
336,288,33240,2,0,B|336:240|288:224,1,74.9999952316285
298,228,33604,5,0
272,160,33785,1,0
304,96,33967,1,0
368,80,34149,1,0
368,208,34331,5,0
352,128,34513,1,0
288,80,34694,1,0
208,64,34876,1,0
64,64,35058,2,0,B|112:48|144:96,1,74.9999952316285
144,176,35422,2,0,B|96:160|64:224,1,74.9999952316285
100,310,35785,2,0,B|64:336|32:304,2,74.9999952316285
208,288,36513,6,0,B|256:304|304:272,1,74.9999952316285
320,272,36785,1,0
352,240,36876,2,0,B|384:208|384:176,1,74.9999952316285
384,144,37149,1,0
368,112,37240,1,0
64,64,37604,5,0
144,112,37785,1,0
64,64,37967,2,0,B|32:96|64:144,1,74.9999952316285
128,208,38331,5,0
64,272,38513,1,0
128,208,38694,2,0,B|166:230|152:272,1,74.9999952316285
224,320,39058,2,0,B|288:336|304:304,1,74.9999952316285
256,240,39422,2,0,B|304:208|288:176,1,74.9999952316285
289,179,39785,1,0
208,128,39967,1,0
160,48,40149,2,0,B|102:81|116:127,1,74.9999952316285
53,229,40513,6,0,B|33:278|85:278,1,74.9999952316285
160,248,40876,2,0,B|180:199|128:199,1,74.9999952316285,0|0
352,128,41240,2,0,B|332:177|390:178,1,74.9999952316285,0|0
456,144,41604,2,0,B|476:95|419:95,1,74.9999952316285
424,96,41967,1,0
423,96,42331,5,0
288,96,42513,1,0
400,176,42694,1,0
352,40,42876,1,0
312,176,43058,1,0
144,128,43422,6,0,B|112:144|112:192,2,74.9999952316285
368,256,44149,2,0,B|400:240|400:192,2,74.9999952316285
208,48,44876,2,0,B|304:48,1,74.9999952316285
320,144,45240,2,0,B|240:144,1,74.9999952316285
208,240,45603,2,0,B|288:240,2,74.9999952316285
208,240,46331,5,0
272,304,46513,1,0
368,320,46694,1,0
336,240,46876,2,0,B|288:224|304:160,1,74.9999952316285
348,113,47240,2,0,B|384:128|384:176,1,74.9999952316285
296,184,47785,5,0
209,179,47967,1,0
153,107,48149,2,0,B|137:75,3,37.4999976158143
121,123,48513,2,0,B|89:139,3,37.4999976158143
105,91,48876,1,0
64,80,55422,22,0,B|40:160|112:240,1,149.999990463257
184,192,55967,1,0
184,280,56149,2,0,B|264:304|344:232,1,149.999990463257,0|0
324,248,56694,1,0
408,256,56876,1,0
448,184,57058,1,0
384,128,57240,1,0
312,168,57422,1,0
312,168,57603,2,0,B|248:152|272:88,1,74.9999952316285
264,120,57967,5,0
192,160,58149,1,0
278,285,58331,2,0,B|279:239|232:240,1,74.9999952316285
96,288,58694,2,0,B|104:240|168:224,1,74.9999952316285
48,144,59058,2,0,B|96:128|96:80,1,74.9999952316285
95,91,59422,5,0
144,32,59603,1,0
208,80,59785,1,0
288,64,59967,1,0
352,112,60149,1,0
416,64,60331,1,0
480,112,60513,2,0,B|512:160|464:192,1,74.9999952316285
320,144,60876,2,0,B|288:104|336:64,1,74.9999952316285
324,76,61240,5,0
324,76,61603,1,0
284,152,61785,1,0
208,128,61967,2,0,B|160:128|128:176,1,74.9999952316285
192,240,62331,2,0,B|240:240|272:272,1,74.9999952316285
336,336,62694,2,0,B|336:288|368:256,1,74.9999952316285
464,256,63058,2,0,B|448:208|400:176,1,74.9999952316285
423,194,63422,1,0
423,194,63785,5,0
464,128,63967,1,0
416,64,64149,2,0,B|384:48|336:64,1,74.9999952316285
304,192,64513,2,0,B|352:176|368:144,1,74.9999952316285
256,32,64876,2,0,B|224:64|256:112,1,74.9999952316285
176,224,65240,2,0,B|209:203|177:155,1,74.9999952316285
96,64,65603,2,0,B|64:112|96:160,2,74.9999952316285
176,96,66149,1,0
216,168,66331,1,0
368,272,66694,6,0,B|416:192|368:128,1,149.999990463257
144,112,67422,2,0,B|96:192|144:256,1,149.999990463257
141,252,68149,1,0
72,208,68331,1,0
112,136,68513,1,0
80,64,68694,1,0
152,32,68876,2,0,B|193:45|209:77,2,74.9999952316285
152,32,69603,5,0
224,96,69785,1,0
312,128,69967,1,0
456,264,70331,1,0
384,224,70513,1,0
304,240,70694,1,0
304,240,71058,1,0
304,240,71422,5,0
360,176,71603,1,0
320,104,71785,1,0
240,128,71967,1,0
224,208,72149,2,0,B|128:192|136:104,1,149.999990463257
376,184,72876,6,0,B|344:136|392:88,1,74.9999952316285
472,168,73240,2,0,B|488:208|456:272,1,74.9999952316285
469,241,73603,1,0
469,241,73967,1,0
469,241,74331,5,0
408,304,74513,1,0
344,240,74694,1,0
408,176,74876,1,0
384,96,75058,2,0,B|368:64|304:56,1,74.9999952316285
240,16,75422,2,0,B|206:19|174:51,1,74.9999952316285
56,56,75785,6,0,B|78:99|142:115,1,74.9999952316285
191,138,76149,2,0,B|168:200|112:184,1,74.9999952316285
139,187,76513,2,0,B|104:152,3,37.4999976158143
139,187,76876,2,0,B|80:224|80:256|80:288|96:304,1,124.999992052714
107,313,77240,2,0,B|176:280|240:288,1,124.999992052714
252,302,77603,2,0,B|288:232|384:216,1,149.999990463257
88,48,78331,5,0
160,96,78513,1,0
96,152,78694,2,0,B|56:176|96:224,1,74.9999952316285
104,312,79058,2,0,B|152:304|168:240,1,74.9999952316285
168,192,79422,2,0,B|200:160|256:176,1,74.9999952316285
288,288,79785,2,0,B|248:280|224:240,2,74.9999952316285
288,288,80331,1,0
352,336,80513,1,0
432,328,80694,2,0,B|488:304|488:264,1,74.9999952316285
368,224,81240,5,0
432,160,81422,1,0
368,96,81603,2,0,B|336:56|376:24,1,74.9999952316285
264,80,81967,2,0,B|288:120|248:168,1,74.9999952316285
192,240,82331,2,0,B|160:184|176:144,1,74.9999952316285
170,169,82694,2,0,B|152:128|176:96,1,74.9999952316285
174,97,83058,5,0
96,128,83240,1,0
40,192,83422,1,0
72,272,83603,1,0
152,312,83785,1,0
152,312,84149,6,0,B|200:328,3,37.4999976158143
192,328,84513,2,0,B|264:352,1,74.9999952316285
416,304,84876,2,0,B|332:282,1,74.9999952316285
384,168,85240,2,0,B|480:168,1,74.9999952316285
384,168,85603,2,0,B|408:88,1,74.9999952316285
384,168,85967,2,0,B|288:168,2,74.9999952316285
384,168,86513,1,0
384,168,86694,2,0,B|464:224|416:320,1,149.999990463257
425,299,87240,5,0
360,256,87422,1,0
304,304,87603,1,0
240,264,87785,2,0,B|216:216|264:176,2,74.9999952316285
240,264,88513,1,0
176,312,88694,1,0
112,264,88876,2,0,B|96:232,3,37.4999976158143
96,232,89240,2,0,B|128:216,3,37.4999976158143
112,184,89603,1,4
352,304,100513,6,0,B|336:272,3,37.4999976158143
352,240,100876,2,0,B|371:209,3,37.4999976158143
352,176,101240,1,0
450,53,101603,6,0,B|424:80,3,37.4999976158143
424,80,101967,2,0,B|464:112|440:176,1,74.9999952316285
384,216,102331,2,0,B|333:187|370:130,1,74.9999952316285
320,80,102694,2,0,B|290:55|250:87,1,74.9999952316285
144,32,103058,2,0,B|136:69|176:93,1,74.9999952316285
227,219,103422,2,0,B|256:177|224:152,1,74.9999952316285
284,296,103785,2,0,B|318:255|368:268,1,74.9999952316285
476,344,104149,2,0,B|420:336|404:296,1,74.9999952316285
456,176,104513,2,0,B|416:218|419:240,1,74.9999952316285
418,239,104876,6,2,B|376:320|264:296|224:256|232:168|240:112|280:64|344:72|368:104|400:96|400:160|392:176|384:224|272:296|160:272|120:208|120:152|128:120|128:120,1,749.999952316285
131,104,106876,1,0
192,48,107058,1,0
272,32,107240,1,0
344,72,107422,1,0
424,32,107603,2,0,B|472:120|424:208|392:248,1,224.999985694886
396,242,108513,1,0
344,304,108694,1,0
264,288,108876,1,0
240,216,109058,2,0,B|248:168|248:128|208:80|168:72,1,149.999990463257
193,82,109603,1,0
193,82,109967,1,8
96,48,110331,6,0,B|95:87|138:106,1,74.9999952316285
48,172,110694,2,0,B|71:204|113:195,1,74.9999952316285
124,296,111058,2,0,B|160:310|192:276,1,74.9999952316285
284,304,111422,2,0,B|310:275|290:232,1,74.9999952316285
272,64,111785,2,0,B|235:47|201:80,1,74.9999952316285
160,168,112149,2,0,B|192:192|232:168,1,74.9999952316285
336,208,112513,2,0,B|304:184|264:208,1,74.9999952316285
224,240,112876,6,0,B|250:282,3,37.4999976158143
288,264,113240,2,0,B|321:222,3,37.4999976158143
287,235,113603,2,0,B|304:176|368:184,2,74.9999952316285
224,235,114331,2,0,B|208:176|144:184,2,74.9999952316285
145,61,115058,2,0,B|96:60|96:112,2,74.9999952316285
368,64,115785,2,0,B|412:64|414:112,2,74.9999952316285
320,304,116513,5,0
400,272,116694,1,0
432,192,116876,1,0
192,304,117240,5,0
112,272,117422,1,0
80,192,117603,1,0
256,32,117967,5,0
208,112,118149,1,0
304,112,118331,1,0
192,176,118694,6,0,B|233:209,3,37.4999976158143
236,228,119058,2,0,B|200:286,4,37.4999976158143
376,304,119785,2,0,B|416:280|440:248,1,74.9999952316285
448,120,120149,2,0,B|416:160|368:176,1,74.9999952316285
208,192,120513,2,0,B|256:168|272:128,1,74.9999952316285
264,143,120876,5,0
184,112,121058,1,0
120,168,121240,1,0
144,248,121422,1,0
176,336,121603,5,0
256,312,121785,1,0
312,248,121967,1,0
336,168,122149,1,0
312,88,122331,2,0,B|376:24|376:24,3,74.9999952316285
432,72,123058,2,0,B|464:96,4,37.4999976158143
432,72,123785,1,0
352,128,124149,1,0
272,184,124513,1,4
64,64,124876,5,0
144,48,125058,1,0
64,64,125240,2,0,B|32:112|40:152,1,74.9999952316285
120,128,125603,2,0,B|120:176|88:208,1,74.9999952316285
24,232,125967,2,0,B|48:272|104:288,1,74.9999952316285
184,264,126331,2,0,B|192:242|128:218,1,74.9999952316285
80,160,126694,2,0,B|59:144|91:88,1,74.9999952316285
144,24,127058,5,0
208,72,127240,1,0
272,24,127422,1,0
328,152,127785,6,0,B|272:160|248:216,1,74.9999952316285
240,120,128149,2,0,B|240:184|280:200,1,74.9999952316285
200,228,128513,2,0,B|264:204|280:164,1,74.9999952316285
308,244,128876,2,0,B|284:196|252:180,1,74.9999952316285
264,188,129240,1,0
264,188,129604,5,0
296,120,129785,1,0
368,120,129967,1,0
412,176,130149,1,0
392,244,130331,1,0
456,304,130694,6,0,B|416:320,4,37.4999976158143
464,224,131422,2,0,B|464:176|416:144,1,74.9999952316285
440,48,131785,2,0,B|400:48|376:104,1,74.9999952316285
296,72,132149,2,0,B|256:48|216:72,1,74.9999952316285
104,24,132513,2,0,B|144:48|136:104,1,74.9999952316285
137,87,132876,1,0
96,160,133058,1,0
136,232,133240,1,0
400,208,133603,5,0
360,272,133785,1,0
296,312,133967,1,0
256,240,134149,1,0
224,312,134331,1,0
160,272,134513,1,0
120,208,134694,1,0
248,48,135058,5,0
288,128,135240,1,0
232,200,135422,2,0,B|256:240,3,37.4999976158143
248,240,135785,6,0,B|208:264,3,37.4999976158143
240,272,136149,6,0,B|264:312,7,37.4999976158143
259,304,136876,2,0,B|328:320|360:296,1,74.9999952316285
408,248,137240,2,0,B|375:223|375:183,1,74.9999952316285
448,64,137603,2,0,B|424:104|360:96,1,74.9999952316285
248,32,137967,2,0,B|288:64|296:112,1,74.9999952316285
232,232,138331,2,0,B|256:176|304:176,1,74.9999952316285
282,179,138694,1,0
208,136,138876,1,0
128,160,139058,1,0
192,264,139422,6,0,B|152:248|122:289,2,74.9999952316285
320,120,140149,2,0,B|360:136|389:94,2,74.9999952316285
320,120,140876,1,0
320,120,141240,1,0
280,192,141422,1,0
200,200,141603,1,0
152,136,141785,1,0
232,120,141967,1,0
232,40,142149,1,0
232,120,142331,2,0,B|232:184,4,37.4999976158143
424,192,143058,5,0
344,208,143240,1,0
320,288,143422,1,0
320,288,143785,5,0
344,208,143967,1,0
280,160,144149,1,0
224,216,144331,1,0
280,160,144513,1,0
352,136,144694,1,0
304,80,144876,2,0,B|232:40|136:64,1,149.999990463257
158,59,145422,5,0
216,112,145603,1,0
216,112,145785,1,0
208,192,145967,1,0
216,112,146149,1,0
288,80,146331,2,0,B|336:56|376:80,1,74.9999952316285
360,72,146694,5,0
416,136,146876,1,0
440,216,147058,2,0,B|456:248,3,37.4999976158143
456,256,147422,2,0,B|424:272,4,37.4999976158143
256,192,148149,1,4
