osu file format v9

[General]
AudioFilename: EX-GIRL.mp3
AudioLeadIn: 1500
PreviewTime: 17128
Countdown: 0
SampleSet: Normal
StackLeniency: 0.7
Mode: 0
LetterboxInBreaks: 1

[Editor]
Bookmarks: 24171
DistanceSpacing: 1.4
BeatDivisor: 4
GridSize: 4

[Metadata]
Title:EX-GIRL (Short Ver.)
Artist:Hatsune Miku
Creator:rui
Version:Jump!!
Source:Kuchibashi-P
Tags:vocaloid

[Difficulty]
HPDrainRate:6
CircleSize:4
OverallDifficulty:7
ApproachRate:8
SliderMultiplier:2
SliderTickRate:1

[Events]
//Background and Video events
0,0,"EX-GIRL_R.jpg"
//Break Periods
//Storyboard Layer 0 (Background)
//Storyboard Layer 1 (Fail)
//Storyboard Layer 2 (Pass)
//Storyboard Layer 3 (Foreground)
//Storyboard Sound Samples
//Background Colour Transformations
3,100,163,162,255

[TimingPoints]
671,342.857142857143,4,1,0,60,1,0
6071,-100,4,2,0,80,0,0
16956,-100,4,1,0,60,0,0
38899,-200,4,2,0,80,0,0
49871,-100,4,1,0,60,0,0
50042,-100,4,1,0,70,0,1
74813,-100,4,1,0,70,0,0

[Colours]
Combo1 : 255,128,0
Combo2 : 99,255,23
Combo3 : 131,254,251
Combo4 : 244,202,0
Combo5 : 223,0,255

[HitObjects]
144,32,671,1,0
48,96,842,1,0
144,160,1013,1,0
48,224,1185,1,0
128,312,1356,1,0
200,216,1528,1,0
296,288,1699,1,0
368,192,1871,1,0
304,88,2042,6,0,B|256:56|176:104,1,100,8|0
104,144,2385,2,0,B|72:192|120:256,1,100,8|0
216,288,2728,2,0,B|264:320|344:272,1,100,8|0
416,232,3071,2,0,B|448:184|400:120,1,100,8|0
288,40,3413,5,2
288,40,3585,1,0
144,104,3756,1,2
144,104,3928,1,0
144,264,4099,1,2
144,264,4271,1,0
288,336,4442,1,2
288,336,4613,1,0
256,192,4785,12,4,5813
32,76,6156,6,0,B|136:8|248:8|324:56,1,300,2|0
432,132,6842,2,0,B|488:156|488:228,1,100,2|0
348,196,7185,2,0,B|349:142|293:118,1,100,2|0
168,56,7528,5,2
48,128,7699,1,2
168,200,7871,1,2
48,280,8042,1,0
192,352,8213,1,2
320,256,8385,1,0
368,104,8556,2,0,B|368:32|264:32,1,100,2|0
256,192,8899,12,0,11299
480,308,11642,6,0,B|376:376|264:376|188:328,1,300,2|0
80,252,12328,2,0,B|24:228|24:156,1,100,2|0
164,188,12671,2,0,B|163:242|219:266,1,100,2|0
344,328,13014,5,2
464,256,13185,1,2
344,184,13357,1,2
464,104,13528,1,0
320,32,13699,1,2
192,128,13871,1,0
144,280,14042,2,0,B|144:352|248:352,1,100,2|0
256,192,14385,12,4,15756
48,64,17128,5,8
112,112,17299,1,0
176,64,17471,1,0
240,112,17642,1,0
304,64,17813,1,8
368,112,17985,1,0
424,256,18328,6,0,B|364:336,1,100,0|8
364,336,18671,2,0,B|264:356,1,100,0|0
137,304,19013,1,0
93,173,19185,1,8
165,55,19356,1,0
302,34,19528,1,0
406,126,19699,1,0
403,265,19871,2,0,B|358:357|208:360,1,200,8|0
236,358,20385,1,4
40,344,20728,5,2
168,192,21071,1,2
360,240,21413,5,2
480,264,21585,1,0
400,352,21756,1,2
360,240,21928,1,0
432,144,22099,1,2
344,64,22271,1,4
184,48,22613,6,0,B|104:40|48:104|80:176,1,200,8|0
104,248,23128,1,0
160,304,23299,1,8
240,328,23471,1,0
349,291,23642,5,0
392,184,23813,1,0
337,82,23985,1,8
224,58,24156,1,0
133,130,24328,1,0
130,246,24499,2,0,B|128:300|240:356|300:316,1,200,8|0
290,322,25013,1,8
291,322,25185,1,4
432,248,25356,5,0
288,184,25528,1,0
432,112,25699,1,8
288,40,25871,2,0,B|236:20|192:56,1,100,0|0
12,212,26385,5,2
96,296,26556,1,0
176,208,26728,1,2
256,120,26899,1,0
136,100,27071,1,2
48,184,27242,2,2,B|12:272|40:348|148:384|244:328,1,300,2|4
424,232,28099,5,8
356,88,28271,1,0
260,216,28442,1,0
192,72,28613,1,0
44,136,28785,1,0
112,280,28956,1,0
336,360,29299,6,0,B|412:384|492:332|472:240,1,200,4|0
448,136,29813,1,8
344,56,29985,1,0
216,32,30156,5,0
40,88,30328,1,0
208,152,30499,1,8
32,208,30671,1,0
176,312,30842,1,0
176,312,31013,1,0
176,312,31185,1,8
176,312,31356,2,0,B|240:296|276:316|320:336|400:296,1,200,0|0
464,224,31871,5,8
448,144,32042,1,0
368,240,32213,1,8
352,120,32385,1,0
264,256,32556,1,8
248,96,32728,1,0
160,272,32899,1,8
144,72,33071,1,0
40,288,33242,1,8
32,48,33413,1,4
40,288,33585,6,0,B|44:348|112:348,1,100,8|0
228,344,33928,1,0
340,296,34099,1,0
416,200,34271,1,8
448,88,34442,1,0
256,40,34785,6,0,B|200:20|156:56,1,100,0|8
68,92,35128,2,0,B|17:122|17:179,1,100,0|8
24,272,35471,2,0,B|43:328|99:339,1,100,0|8
192,360,35813,2,0,B|251:363|283:317,1,100,0|8
376,144,36328,5,8
208,72,36671,1,8
136,240,37013,1,8
304,312,37356,1,8
256,200,37699,5,2
256,200,37785,1,0
256,200,37870,1,2
256,200,37956,1,0
256,200,38042,1,2
256,200,38385,5,4
0,64,39070,6,0,B|48:32|112:48,1,100,4|0
275,84,39756,1,2
359,154,39928,1,0
340,262,40099,1,0
237,300,40271,1,0
152,229,40442,1,0
84,188,40613,5,0
56,112,40785,1,0
136,124,40956,1,0
128,48,41128,1,2
200,80,41299,1,0
256,24,41470,1,0
328,56,41642,1,0
408,64,41813,6,0,B|424:128,1,50,2|0
432,192,42156,2,0,B|400:240,1,50,0|0
272,336,42499,1,2
160,304,42671,1,0
64,240,42842,1,0
32,128,43013,1,0
104,32,43185,6,0,B|152:72,1,50,2|0
248,184,43528,2,0,B|296:136,1,50,0|0
400,40,43871,1,2
456,192,44042,1,0
384,336,44213,1,0
272,368,44385,6,0,B|208:384|160:336,1,100,4|0
104,320,44899,1,8
40,280,45070,1,0
96,224,45242,1,0
48,160,45413,1,0
8,88,45585,1,8
80,56,45756,1,0
240,32,46099,5,0
320,64,46270,1,8
208,96,46442,1,0
368,128,46613,1,0
176,160,46785,1,0
416,192,46956,1,8
144,224,47128,1,0
256,336,47299,5,8
357,293,47642,1,8
400,192,47985,1,8
357,90,48328,1,8
256,48,48671,1,8
154,90,49013,1,8
52,48,49356,1,8
32,156,49699,1,8
48,320,50042,5,4
120,288,50213,1,0
192,328,50385,1,4
264,288,50556,1,0
392,184,50728,5,2
456,40,50899,1,0
296,32,51070,1,2
216,48,51242,6,0,B|92:40|60:164,1,200
52,228,51756,2,0,B|52:284|124:308,1,100
256,364,52099,5,2
408,304,52270,1,0
264,224,52442,1,2
188,200,52613,6,0,B|132:200|92:152,1,100
60,92,52956,2,0,B|104:48|188:28|252:44,1,200
324,64,53470,1,2
396,100,53642,1,0
336,152,53813,1,2
232,272,53985,2,0,B|256:224,2,50,0|0|2
232,272,54328,2,0,B|184:320|128:272,1,100,0|2
96,216,54670,1,0
56,144,54842,1,4
272,40,55185,6,8,B|384:16|456:96,1,200,0|0
448,176,55699,1,0
400,240,55870,1,8
352,176,56042,1,0
320,104,56213,2,0,B|280:64|188:32|112:56,1,200,0|8
64,88,56728,2,0,B|48:136|80:192,1,100,0|8
104,264,57070,2,0,B|128:320|192:312,1,100,0|8
264,312,57413,1,0
336,272,57585,1,4
56,48,57928,5,8
56,48,58099,1,8
136,184,58270,1,0
216,48,58442,1,0
296,184,58613,1,8
376,48,58785,2,0,B|472:0|456:232,1,200
376,324,59299,1,8
296,184,59470,1,0
204,47,59642,5,8
197,211,59813,1,0
298,81,59985,1,8
140,126,60156,1,0
296,184,60328,1,12
32,104,61013,6,0,B|72:48|120:48,1,100,4|0
192,32,61356,2,0,B|248:24|296:72,1,100,4|0
416,144,61699,5,2
496,280,61870,1,0
344,320,62042,1,2
264,328,62213,6,0,B|200:352|144:296,1,100
56,272,62556,1,0
88,144,62728,1,2
184,240,62899,1,0
216,104,63070,1,2
336,208,63242,1,0
368,56,63413,1,2
504,176,63585,1,0
400,328,63756,5,2
304,344,63928,1,0
208,320,64099,1,2
120,280,64271,2,0,B|160:272|184:216,2,50,0|0|2
120,280,64613,2,0,B|48:272|72:176,1,100,0|4
96,32,64956,6,0,B|294:63,1,200,2|0
368,112,65470,2,0,B|235:142,1,100,2|0
16,224,65813,2,0,B|112:248,1,100,2|0
200,256,66156,2,0,B|336:224,1,100,2|0
384,208,66499,1,4
504,8,67013,5,2
464,80,67185,1,8
400,120,67356,1,2
320,112,67528,1,8
176,48,67699,6,0,B|88:120,1,100,8|0
32,160,68042,2,0,B|104:248,1,100,8|0
208,352,68385,5,0
312,232,68556,1,8
208,112,68728,1,0
104,232,68899,1,8
312,232,69070,1,0
104,232,69242,1,12
8,376,69756,5,2
48,304,69928,1,8
112,264,70099,1,2
192,272,70270,1,8
336,336,70442,6,0,B|424:264,1,100,8|0
480,224,70785,2,0,B|408:136,1,100,8|0
304,32,71128,5,0
200,152,71299,1,8
304,272,71470,1,0
408,152,71642,1,8
200,152,71813,1,0
408,152,71985,1,12
40,40,72499,6,0,B|48:96|88:144,1,100,0|8
112,200,72842,2,0,B|128:248|184:288,1,100,0|8
232,328,73185,5,0
351,332,73356,1,8
423,237,73528,1,0
386,124,73699,1,8
273,89,73870,1,0
176,160,74042,1,2
176,160,74128,1,0
176,160,74213,1,0
80,288,74385,1,2
80,288,74470,1,0
80,288,74556,1,0
232,328,74728,1,4
