osu file format v5

[General]
AudioFilename: Hatsune_Miku_-_Dragoon.mp3
AudioLeadIn: 0
PreviewTime: -1
Countdown: 1
SampleSet: Soft
StackLeniency: 0.7
Mode: 0
LetterboxInBreaks: 0
EditorBookmarks: 28942,70211,78715,79330,83306,122076,133581,142517,144127,144918
EditorDistanceSpacing: 1

[Metadata]
Title:Dragoon
Artist:Hatsune Miku
Creator:JInxyjem
Version:Red Storm
Source:
Tags:HatsuneMiku Hatsune Miku Vocaloid Dragoon

[Difficulty]
HPDrainRate:8
CircleSize:5
OverallDifficulty:8
SliderMultiplier:1.4
SliderTickRate:2

[Events]
//Background and Video events
0,0,"Hatsune Miku.JPG"
//Break Periods
2,64703,70865
2,110038,115977
2,171372,176645
2,183595,184645
//Storyboard Layer 0 (Background)
//Storyboard Layer 1 (Failing)
//Storyboard Layer 2 (Passing)
//Storyboard Layer 3 (Foreground)
//Storyboard Sound Samples
//Background Colour Transformations
3,100,0,0,0

[TimingPoints]
59,444.444444444444,4,2,0,100,1,0
71615,-100,4,2,0,100,0,1
98949,-100,4,2,0,100,0,0
185395,-100,4,2,0,100,0,1
198284,-100,4,2,0,100,0,0
198728,-100,4,2,0,100,0,1
198951,-100,4,2,0,100,0,0
199173,-100,4,2,0,100,0,1

[Colours]
Combo1 : 255,108,108
Combo2 : 225,0,0
Combo3 : 255,34,34
Combo4 : 255,68,47

[HitObjects]
256,64,28947,1,4
96,296,29836,5,8
168,296,30058,1,8
168,152,30503,1,2
376,152,31170,5,8
376,296,31614,1,8
248,224,32058,2,0,L|108:224,2,140,2|2|2
296,280,33170,1,2
344,224,33392,1,2
296,168,33614,1,4
152,168,34058,5,0
152,312,34503,1,2
224,312,34725,1,2
224,240,34947,1,2
296,240,35170,2,0,L|382:240,1,70,2|4
432,240,35614,1,8
432,168,35836,1,8
432,96,36058,2,0,L|290:96,1,140,2|4
152,96,36947,5,0
152,168,37170,2,0,L|307:168,2,140
152,304,38503,1,8
224,304,38725,1,8
368,304,39170,1,0
368,160,39614,1,8
224,160,40058,2,0,L|224:85|147:85,1,140
80,88,40725,1,8
80,224,41170,1,4
80,88,41614,5,0
80,224,42058,1,0
184,304,42503,1,2
256,304,42725,1,2
328,304,42947,1,2
328,232,43170,1,8
256,232,43392,1,2
184,232,43614,1,2
184,160,43836,1,2
256,160,44058,1,4
336,48,44503,5,8
376,104,44725,1,8
456,216,45170,1,4
248,216,45836,5,0
104,216,46281,1,0
104,144,46503,1,2
176,144,46725,1,2
248,144,46947,1,2
320,144,47170,2,0,L|320:295,1,140
248,280,47836,1,4
104,280,48281,1,4
248,280,48725,1,4
104,280,49170,1,4
104,136,49614,5,0
248,136,50058,2,8,L|326:137,3,70
384,136,50947,1,0
176,136,51614,6,8,L|112:201,1,70
264,184,52281,1,8
264,256,52503,1,8
408,256,52947,1,0
264,256,53392,1,4
120,256,53836,6,2,L|120:44,1,210
192,48,54725,1,2
264,48,54947,1,2
264,192,55392,1,8
408,192,55836,1,8
264,192,56281,1,8
120,192,56725,5,4
376,304,57614,5,2
376,232,57836,1,8
376,160,58058,1,2
376,88,58281,1,2
304,88,58503,1,2
304,160,58725,1,8
304,232,58947,1,2
304,304,59170,1,2
232,304,59392,5,2
232,232,59614,1,8
232,160,59836,1,2
232,88,60058,1,2
160,88,60281,1,2
160,160,60503,1,8
160,232,60725,1,2
160,304,60947,1,2
88,304,61170,1,2
88,232,61392,2,0,B|72:184|64:136|80:88|120:48|176:32|232:24|288:32|336:56|368:104,1,420,8|0
352,152,62947,5,8
296,112,63170,1,8
240,152,63392,1,8
184,112,63614,2,4,L|184:252|330:252,1,280,8|4
256,192,71614,5,4
256,48,72503,5,2
256,120,72725,1,2
256,192,72947,1,2
256,264,73170,2,0,B|352:312|352:184|464:272,1,210,0|4
448,120,74281,5,2
448,48,74503,1,2
376,48,74725,1,2
304,48,74947,1,0
232,48,75170,2,8,L|88:48,1,140
96,184,76058,5,8
168,184,76281,1,8
304,184,76725,2,2,L|369:184,10,35
232,184,78058,6,0,L|123:90,1,140
408,96,79392,1,8
480,216,79836,1,8
408,216,80058,1,8
336,216,80281,1,8
88,272,81392,6,0,L|187:272,1,70,0|0
160,128,82058,1,2
304,128,82503,1,2
304,272,82947,1,2
160,272,83392,1,2
160,200,83614,2,8,L|238:200,1,70
432,64,84947,5,8
328,152,85392,1,8
216,240,85836,1,4
64,56,86725,5,2
136,56,86947,1,2
208,56,87170,1,2
280,56,87392,1,4
64,328,88503,5,8
136,328,88725,1,0
208,328,88947,1,0
208,256,89170,1,8
208,184,89392,1,0
280,184,89614,1,0
352,184,89836,1,8
352,40,90281,5,8
424,40,90503,1,8
424,184,90947,1,8
424,328,91392,1,2
424,184,91836,1,0
352,184,92058,1,2
280,184,92281,1,4
136,184,92725,1,0
392,64,93614,5,8
248,64,94058,1,2
248,136,94281,1,2
248,208,94503,1,4
456,56,95614,5,8
408,112,95836,1,8
264,112,96281,2,0,L|102:112,2,140
336,112,97392,1,2
336,184,97614,1,8
336,256,97836,1,8
336,328,98058,1,4
256,192,99170,5,4
80,72,99836,6,0,L|176:72,1,70
216,72,100281,1,2
288,72,100503,1,2
360,72,100725,1,8
64,192,101614,5,0
208,192,102058,1,0
352,192,102503,5,2
352,120,102725,1,2
280,120,102947,1,2
352,120,103170,1,2
280,120,103392,1,2
208,120,103614,1,2
280,120,103836,1,2
280,264,104281,1,8
72,264,104947,5,0
72,120,105392,1,0
280,120,106058,1,8
256,80,107170,5,8
256,152,107392,1,8
256,224,107614,1,8
256,296,107836,1,4
256,192,108058,12,0,109836
112,256,116725,5,0
144,192,116947,1,0
112,128,117170,1,0
184,128,117392,1,8
216,192,117614,1,0
184,256,117836,1,0
256,256,118058,1,0
288,192,118281,1,8
256,128,118503,1,4
408,80,119170,5,0
408,224,119614,1,0
216,152,120281,1,8
368,64,121392,5,8
296,64,121614,1,8
224,64,121836,1,8
152,64,122058,1,8
152,272,122725,1,0
296,272,123170,1,0
272,64,123836,5,2
216,104,124058,1,2
272,144,124281,1,2
216,184,124503,1,0
272,224,124725,1,2
416,224,125170,1,2
272,224,125614,1,4
112,88,126281,5,2
184,88,126503,1,2
112,208,126947,1,0
256,208,127392,1,4
400,208,127836,1,0
256,48,128503,5,4
144,304,129392,5,8
216,304,129614,1,8
288,304,129836,1,0
360,304,130058,1,0
96,64,131170,5,8
240,64,131614,1,2
312,64,131836,1,0
384,64,132058,1,2
384,272,132725,1,8
240,272,133170,1,8
240,128,133614,1,8
96,128,134058,1,8
96,272,134503,1,2
168,272,134725,1,2
168,200,134947,1,2
240,200,135170,1,4
312,200,135392,2,0,L|401:200,1,70,0|4
120,304,136503,5,0
120,232,136725,1,0
120,88,137170,1,8
256,88,137614,1,0
256,232,138058,5,0
328,232,138281,1,2
328,88,138725,1,2
328,232,139170,1,2
328,88,139614,1,2
328,232,140058,1,8
256,232,140281,1,8
112,232,140725,5,10
112,88,141170,1,0
256,88,141614,1,0
256,232,142058,1,0
376,160,142503,5,2
336,104,142725,1,2
296,160,142947,1,2
256,104,143170,1,2
216,160,143392,1,4
40,40,144058,5,2
40,112,144281,1,0
40,256,144725,1,4
168,280,145170,1,0
184,208,145392,5,8
256,216,145614,1,0
264,144,145836,1,8
336,160,146059,1,8
336,88,146281,1,4
480,88,146725,5,4
480,232,147170,1,2
408,232,147392,1,0
408,88,147836,1,4
264,88,148281,2,8,L|103:88,3,140,12|8|8|8
128,160,149836,1,2
184,200,150059,1,8
240,160,150281,1,0
296,200,150503,1,8
456,96,151170,5,0
408,152,151392,1,0
312,248,151836,1,8
104,248,152503,5,0
176,128,152947,1,0
248,248,153392,2,0,B|274:86|343:100|419:102|377:289,1,350
248,248,154947,2,0,B|132:214|115:107|167:97|221:17|291:69,2,315,0|0|4
392,256,157392,5,8
392,112,157836,1,8
248,112,158281,1,8
248,184,158503,1,2
248,256,158725,1,2
248,328,158947,1,2
176,328,159170,1,8
176,256,159392,1,2
176,184,159614,1,2
176,112,159836,1,2
176,40,160059,1,8
248,40,160281,1,2
320,40,160503,1,2
320,112,160725,1,2
320,184,160947,1,10
248,184,161170,2,8,B|134:160|62:204|29:252|61:307,1,280,0|4
200,304,162503,6,0,L|259:265|313:317|376:272,1,210
464,184,163614,1,4
304,48,164281,5,0
232,48,164503,1,0
160,48,164725,2,4,L|160:127,1,70
232,120,165170,1,2
304,120,165392,1,2
304,192,165614,1,2
232,192,165836,1,2
160,192,166059,1,2
160,264,166281,1,2
232,264,166503,1,2
304,264,166725,1,2
440,264,167170,5,8
480,208,167392,1,8
440,152,167614,1,8
480,96,167836,1,8
432,48,168059,1,4
360,48,168281,1,4
216,48,168725,5,0
72,48,169170,1,0
72,192,169614,1,0
112,248,169836,1,0
184,248,170059,1,0
224,192,170281,1,0
264,248,170503,1,0
336,248,170725,1,0
336,104,171170,5,4
256,64,177392,5,4
256,136,177614,2,4,L|256:186,2,35
328,136,178059,2,0,B|321:218|306:263|184:280|191:127,1,280
256,272,179392,2,0,B|256:112,2,140
112,104,180947,5,8
168,144,181170,1,8
312,144,181614,6,0,L|272:224|416:168|360:264,1,350
360,328,182947,5,8
288,328,183170,1,8
216,328,183392,1,8
256,192,185392,5,4
464,64,186281,5,2
392,64,186503,1,2
392,136,186725,1,2
464,136,186947,2,2,B|457:211|401:233|299:239,1,210,2|4
336,104,188059,5,8
312,168,188281,1,8
184,104,188725,1,8
160,168,188947,1,8
168,304,189392,1,8
288,232,189836,1,2
264,296,190059,1,2
256,192,190503,12,0,192281
184,64,193170,5,0
328,64,193614,2,8,L|395:64|395:108|361:108,1,140
72,304,195170,5,8
72,232,195392,1,8
208,224,195836,2,2,B|168:176|160:128|192:80|248:64|296:80|328:120|336:168|288:232,1,350
296,288,197170,2,4,L|350:337|413:285,1,140
256,192,198725,5,4
256,192,199170,5,4
