osu file format v8

[General]
AudioFilename: sm9835033.mp3
AudioLeadIn: 1004
PreviewTime: 84937
Countdown: 0
SampleSet: Normal
StackLeniency: 0.7
Mode: 0
LetterboxInBreaks: 1

[Editor]
Bookmarks: 84937
DistanceSpacing: 0.800000011920929
BeatDivisor: 4
GridSize: 8

[Metadata]
Title:Doudemoii
Artist:Hatsune Miku
Creator:- S
Version:Insane
Source:VOCALOID
Tags:Sumeragi Amane

[Difficulty]
HPDrainRate:5
CircleSize:4
OverallDifficulty:7
ApproachRate:8
SliderMultiplier:2.1
SliderTickRate:2

[Events]
//Background and Video events
0,0,"0980.jpg"
//Break Periods
2,97137,108187
//Storyboard Layer 0 (Background)
//Storyboard Layer 1 (Fail)
//Storyboard Layer 2 (Pass)
//Storyboard Layer 3 (Foreground)
//Storyboard Sound Samples
//Background Colour Transformations
3,100,163,162,255

[TimingPoints]
937,375,4,1,1,71,1,0
3280,-200,4,1,1,69,0,0
3843,-100,4,1,1,71,0,0
41390,-200,4,1,1,70,0,0
42608,-100,4,1,1,70,0,0
55640,-100,4,1,1,100,0,0
55921,-100,4,1,1,71,0,0
57140,-100,4,1,1,100,0,0
57421,-100,4,1,1,71,0,0
59577,-100,4,1,1,100,0,0
60327,-100,4,1,1,70,0,0
62390,-200,4,1,1,69,0,0
62858,-100,4,1,1,70,0,0
95390,-100,4,2,1,30,0,0
98437,-100,4,1,1,70,0,0
122577,-100,4,2,1,20,0,0
122765,-100,4,2,2,58,0,0
122858,-100,4,2,1,21,0,0
123515,-100,4,2,2,57,0,0
123608,-100,4,2,1,21,0,0
124265,-100,4,2,2,60,0,0
124358,-100,4,2,1,20,0,0
124827,-100,4,2,2,61,0,0
125108,-100,4,2,1,21,0,0
125765,-100,4,2,2,57,0,0
125858,-100,4,2,1,21,0,0
126327,-100,4,2,2,59,0,0
126608,-100,4,2,1,20,0,0
127265,-100,4,2,2,59,0,0
127358,-100,4,2,1,20,0,0
127827,-100,4,2,2,58,0,0
128108,-100,4,2,1,20,0,0
129515,-100,4,2,2,60,0,0
129608,-100,4,2,1,20,0,0
130265,-100,4,2,2,58,0,0
130358,-100,4,2,1,21,0,0
130827,-100,4,2,2,59,0,0
131108,-100,4,2,1,19,0,0
131765,-100,4,2,2,61,0,0
131858,-100,4,2,1,19,0,0
132327,-100,4,2,2,59,0,0
132608,-100,4,2,1,21,0,0
133265,-100,4,2,2,59,0,0
133358,-100,4,2,1,21,0,0
133827,-100,4,2,2,59,0,0
133921,-100,4,2,1,21,0,0
134015,-100,4,2,2,59,0,0
134108,-100,4,2,1,21,0,0
134765,-100,4,2,2,58,0,0
134858,-100,4,2,1,20,0,0
135515,-100,4,2,2,58,0,0
135608,-100,4,2,1,21,0,0
136265,-100,4,2,2,59,0,0
136358,-100,4,2,1,20,0,0
136827,-100,4,2,2,58,0,0
137108,-100,4,2,1,21,0,0
137765,-100,4,2,2,59,0,0
137858,-100,4,2,1,21,0,0
138327,-100,4,2,2,60,0,0
138608,-100,4,2,1,21,0,0
139265,-100,4,2,2,60,0,0
139358,-100,4,2,1,21,0,0
139827,-100,4,2,2,59,0,0
140108,-100,4,2,1,21,0,0
140765,-100,4,2,2,61,0,0
140858,-100,4,2,1,21,0,0
141515,-100,4,2,2,59,0,0
141608,-100,4,2,1,21,0,0
142265,-100,4,2,2,59,0,0
142358,-100,4,2,1,19,0,0
142827,-100,4,2,2,60,0,0
143108,-100,4,2,1,21,0,0
143765,-100,4,2,2,59,0,0
143858,-100,4,2,1,20,0,0
144515,-100,4,2,2,60,0,0
144608,-100,4,2,1,21,0,0
145077,-100,4,1,1,62,0,0
146390,-200,4,2,1,50,0,0
146530,-200,4,1,1,50,0,0
147046,-100,4,1,1,80,0,0
158390,-100,4,1,1,74,0,0
167390,-200,4,1,1,50,0,0
168046,-100,4,1,1,0,0,0
170249,-100,4,1,1,69,0,0

[Colours]
Combo1 : 251,205,181
Combo2 : 2,213,230
Combo3 : 232,33,248

[HitObjects]
192,64,937,2,0,B|320:40|392:120,1,210,0|8
440,184,1499,2,0,B|480:232|472:304,2,105
384,112,2062,2,0,B|336:80|272:64,1,105,8|0
304,152,2437,2,0,B|248:144|192:176,1,105
264,232,2812,2,0,B|208:248|168:312,2,105,8|0|0
352,224,3374,2,0,B|416:208|448:152,1,105,8|0
392,96,3937,6,0,B|336:56|288:72,1,105
304,152,4312,2,0,B|240:152|208:192,2,105,8|0|0
392,96,4874,1,0
432,272,5062,1,8
264,232,5249,1,0
264,232,5437,1,8
184,184,5624,2,0,B|112:184,2,52.5,0|8|8
264,136,5999,2,0,B|320:136,2,52.5,0|8|8
256,192,6374,12,0,6937
256,192,7124,5,0
336,176,7312,2,0,B|368:240|264:272,1,105
216,256,7687,2,0,B|144:224|192:144,1,105
232,112,8062,2,0,B|344:88,1,105,10|2
336,176,8437,6,0,B|400:192|424:248,1,105
336,256,8812,2,0,B|336:320|272:344,1,105,8|0
248,264,9187,2,0,B|192:304|144:264,1,105
232,112,9562,1,10
336,256,9749,1,0
384,184,9937,6,0,B|464:184|472:112,1,105
392,104,10312,2,0,B|392:48|304:48,1,105,8|0
312,136,10687,2,0,B|240:136|240:208,1,105
472,136,11062,1,10
320,48,11249,1,2
312,136,11437,6,0,B|312:208|256:224,1,105
192,184,11812,2,0,B|184:120|240:96,1,105,8|0
312,136,12187,2,0,B|312:208|256:224,1,105
320,48,12562,1,10
128,112,12749,1,0
208,96,12937,6,0,B|320:96,1,105
312,184,13312,2,0,B|200:184,1,105,8|0
208,272,13687,2,0,B|328:272,1,105
208,96,14062,1,10
313,272,14249,1,2
208,272,14437,6,0,B|208:152,1,105
296,168,14812,2,0,B|408:168,1,105,8|0
400,256,15187,2,0,B|400:368,1,105
208,272,15562,1,10
400,168,15749,1,0
400,80,15937,6,0,B|512:80,1,105
456,144,16312,2,0,B|336:144,1,105,8|0
296,80,16687,2,0,B|176:80,1,105
352,144,17062,1,10
208,272,17249,1,2
168,200,17437,6,0,B|160:120|256:104,1,105,8|0
296,120,17812,2,0,B|368:144|344:224,1,105,8|0
304,272,18187,2,0,B|256:312|176:256,1,105,8|0
168,200,18562,6,0,B|168:80,1,105,2|0
232,40,18937,2,0,B|376:8|376:144,1,210,0|8
376,224,19499,1,0
232,144,19874,5,0
248,224,20062,1,8
168,200,20249,1,0
152,120,20437,1,0
152,120,20624,2,0,B|80:120,2,52.5,0|0|8
152,120,20999,2,0,B|248:48|368:136,1,210
248,224,21562,1,8
248,224,21749,1,0
152,120,21937,6,0,B|248:48|368:136,1,210,0|8
248,224,22499,1,0
152,312,22687,2,0,B|256:384|360:296,1,210,0|8
360,184,23249,6,0,B|360:128|320:88,1,105
256,40,23624,1,0
216,32,23718,1,0
176,32,23812,1,8
96,64,23999,1,0
104,160,24187,6,0,B|104:224|160:256,1,105
200,176,24562,2,0,B|264:216|320:160,1,105,8|0
248,104,24937,1,0
248,104,25124,2,0,B|312:104,2,52.5,0|0|8
176,32,25499,1,0
104,176,25874,5,0
200,192,26062,1,8
248,104,26249,1,0
176,32,26437,1,0
88,80,26624,1,0
120,288,26812,1,8
336,120,26999,1,0
304,288,27374,6,0,B|416:288,2,105,0|8|0
224,272,27937,1,0
280,208,28124,1,0
280,120,28312,1,8
224,56,28499,1,0
136,56,28687,1,0
80,120,28874,1,0
80,208,29062,1,8
136,272,29249,1,0
224,272,29437,2,0,B|336:272,3,105,0|0|8|0
408,240,30187,5,0
440,208,30280,1,0
448,168,30374,1,0
440,80,30562,2,0,B|408:32|352:24,1,105,8|0
272,24,30937,6,0,B|160:24,1,105
216,88,31312,2,0,B|216:200,1,105,8|0
280,144,31687,2,0,B|392:144,1,105,0|0
328,208,32062,2,0,B|328:320,1,105,8|0
264,256,32437,2,0,B|144:256,3,105,0|0|8|0
328,208,33187,1,0
216,88,33374,1,0
160,256,33562,1,8
328,208,33749,1,0
280,160,33937,6,0,B|368:80,1,105
360,176,34312,2,0,B|440:256,1,105,8|0
352,256,34687,2,0,B|272:328,1,105
272,240,35062,2,0,B|200:160,1,105,8|0
288,160,35437,2,0,B|384:88,3,105,0|0|8|0
352,256,36187,1,0
200,160,36374,1,0
368,88,36562,1,8
352,256,36749,6,0,B|240:256,1,105
368,96,37312,1,8
288,96,37499,2,0,B|168:96,1,105
136,168,37874,1,0
224,168,38062,6,0,B|336:168,1,105,8|0
320,256,38437,2,0,B|208:256,1,105
128,256,38812,1,8
48,256,38999,2,0,B|48:136,3,105,0|0|0|8
48,152,39749,1,0
96,88,39937,2,0,B|136:40|200:24,1,105
192,112,40312,2,0,B|264:88|328:88,1,105,8|0
264,168,40687,2,0,B|344:168|400:200,1,105
312,248,41062,2,0,B|392:280|416:336,1,105,8|0
320,336,41437,2,0,B|320:232|280:144|192:88|160:88,1,315
328,56,42937,5,0
464,272,43499,1,0
208,272,44062,1,0
336,176,44437,2,0,B|432:120,1,105
336,176,44812,2,0,B|336:288,1,105,8|0
336,176,45187,2,0,B|240:112,1,105,0|8
336,280,45562,1,8
432,128,45749,1,0
432,216,45937,6,0,B|432:328,1,105
336,280,46312,2,0,B|224:280,1,105,8|0
232,176,46687,2,0,B|232:56,3,105,0|8|8|0
144,16,47437,2,0,B|24:16,1,105
88,104,47812,2,0,B|88:232,1,105,8|0
200,272,48187,1,0
312,208,48374,1,8
200,152,48562,1,8
88,208,48749,1,0
112,288,48937,5,0
400,288,49499,1,0
256,80,50062,1,8
256,224,50437,2,0,B|256:344,1,105
256,224,50812,2,0,B|344:160,1,105,8|0
256,224,51187,2,0,B|160:160,3,105,0|8|8|0
112,120,51937,6,0,B|184:24,1,105
240,64,52312,2,0,B|336:120,1,105,8|0
392,160,52687,2,0,B|328:264,1,105
288,304,53062,2,0,B|184:224,1,105,8|0
120,240,53437,6,0,B|120:176|200:144,1,105,8|0
112,104,53812,2,0,B|64:120|40:200,1,105,8|0
40,264,54187,2,0,B|64:336|136:360,2,105,8|8|8
48,184,54749,1,0
96,112,54937,6,0,B|224:64|320:64,1,210,0|8
384,64,55499,1,0
464,96,55687,1,0
488,128,55780,1,0
496,168,55874,1,8
480,248,56062,2,0,B|440:312|384:336,1,105,10|2
328,344,56437,6,0,B|208:344|104:272,1,210,0|8
72,224,56999,1,0
32,152,57187,1,0
32,112,57280,1,0
48,72,57374,1,0
120,24,57562,2,0,B|192:0|248:8,1,105,10|0
304,8,57937,6,0,B|440:64|464:168,1,210,0|8
376,168,58499,2,0,B|328:120|280:96,2,105
408,248,59062,2,0,B|376:304|296:296,1,105,10|2
312,216,59437,5,8
248,272,59624,1,0
224,240,59718,1,8
208,200,59812,1,8
192,120,59999,1,0
200,80,60093,1,8
232,48,60187,1,8
272,32,60280,1,0
312,48,60374,6,0,B|384:48|424:96,2,105,0|0|0
200,80,60937,1,0
120,144,61124,1,0
200,208,61312,1,8
280,144,61499,1,0
288,272,61874,6,0,B|344:272|400:296,2,105,0|8|0
224,272,62437,2,0,B|160:280|120:304,1,105,0|8
123,301,62999,1,0
208,160,63374,5,0
256,88,63562,1,8
304,160,63749,1,0
256,224,63937,2,0,B|368:224,1,105
312,280,64312,2,0,B|192:280,1,105,8|0
168,344,64687,2,0,B|56:344,1,105
312,280,65062,1,8
120,136,65249,1,0
120,136,65437,2,0,B|240:136,3,105,0|0|8|0
296,136,66187,6,0,B|432:136,1,105
400,208,66562,2,0,B|272:208,1,105,8|0
224,208,66937,2,0,B|104:208|104:64|232:64|232:64|336:64|336:64,1,315,0|0
392,168,67874,6,0,B|392:48,2,105,0|8|0
384,248,68437,1,0
368,280,68530,1,0
336,304,68624,2,0,B|272:336|208:336,1,105,0|8
236,334,68999,1,0
96,280,69374,6,0,B|32:224|128:168,2,105,0|8|0
168,280,69937,2,0,B|224:240|160:184,1,105
96,192,70312,2,0,B|32:248|112:288,1,105,8|0
168,280,70687,2,0,B|224:240|160:184,3,105,0|0|8|0
96,280,71437,5,0
168,360,71624,1,0
240,280,71812,1,8
168,192,71999,1,0
320,40,72187,1,0
464,192,72374,1,0
320,352,72562,1,8
168,192,72749,1,0
240,192,72937,6,0,B|304:192|304:120,1,105
232,120,73312,2,0,B|224:64|144:80,1,105,8|0
160,152,73687,2,0,B|96:184|128:256,1,105
192,216,74062,2,0,B|224:280|288:248,1,105,8|0
256,184,74437,2,0,B|320:160|288:88,3,105,0|0|8|0
152,80,75187,1,0
120,240,75374,1,0
280,256,75562,1,8
320,96,75749,1,0
392,96,75937,6,0,B|448:96|448:176,1,105
376,160,76312,2,0,B|320:144|296:216,1,105,8|0
368,232,76687,2,0,B|440:256|416:336,1,105
352,304,77062,2,0,B|272:296|264:384,1,105,8|0
424,312,77437,1,0
296,216,77624,1,0
448,168,77812,1,8
320,96,77999,1,0
176,144,78187,2,0,B|72:192,1,105
80,188,78562,1,8
152,232,78749,6,0,B|192:288|256:288,1,105
440,144,79499,2,0,B|408:96|328:96,1,105,0|0
152,232,80249,6,0,B|192:288|256:288,5,105,0|0|0|8|0|0
320,288,81374,1,0
400,264,81562,1,8
448,200,81749,1,0
480,120,81937,2,0,B|480:64|392:64,1,105
312,104,82312,2,0,B|312:152|408:152,1,105,8|0
480,120,82687,2,0,B|480:64|392:64,1,105
312,104,83062,2,0,B|312:152|408:152,1,105,8|0
392,152,83437,5,8
304,184,83624,1,0
216,208,83812,1,8
136,232,83999,1,8
136,232,84093,1,8
136,232,84187,1,8
216,208,84374,1,8
304,184,84562,1,8
392,152,84749,1,0
392,152,84843,1,0
392,152,84937,6,0,B|440:256,1,105
352,224,85312,2,8,B|248:272,1,105,8|0
280,184,85687,2,0,B|232:80,1,105
200,168,86062,2,0,B|88:224,1,105,8|0
184,248,86437,2,0,B|232:344,1,105
264,264,86812,2,0,B|384:208,1,105,8|0
240,88,87187,1,0
104,216,87374,1,0
232,344,87562,1,8
360,224,87749,1,0
360,224,87937,6,0,B|360:96,1,105
288,168,88312,2,0,B|288:296,1,105,8|0
216,224,88687,2,0,B|216:96,1,105
144,168,89062,2,0,B|144:296,1,105,8|0
144,168,89437,5,0
216,224,89624,1,0
288,168,89812,1,8
360,224,89999,1,0
360,120,90187,1,0
288,272,90374,1,0
216,120,90562,1,8
144,272,90749,1,0
104,200,90937,6,0,B|64:136|128:104,1,105
176,168,91312,2,0,B|248:136|280:200,1,105,8|0
208,240,91687,2,0,B|240:304|168:336,1,105
136,280,92062,2,0,B|80:312|40:240,1,105,8|0
128,200,92437,2,0,B|192:104,1,105
232,184,92812,2,0,B|296:88,1,105,8|0
128,200,93187,1,0
240,368,93374,1,0
400,264,93562,1,8
288,96,93749,1,0
376,96,93937,6,0,B|440:96|480:160,1,105
384,168,94312,2,0,B|336:200|280:152,1,105,8|0
376,96,94687,1,0
480,168,94874,1,0
400,264,95062,1,8
288,192,95249,1,0
256,192,95437,12,4,96937
168,80,108937,6,0,B|256:16|408:56,1,210,0|8
416,112,109499,1,0
400,192,109687,2,0,B|288:240|176:216,1,210,0|8
144,160,110249,1,0
224,144,110437,2,0,B|264:264,1,105
176,256,110812,2,0,B|72:288,1,105,8|0
48,208,111187,2,0,B|16:96,1,105
104,88,111562,2,0,B|216:56,1,105,8|0
296,64,111937,5,0
376,88,112124,1,0
440,144,112312,1,8
456,224,112499,2,0,B|456:288|400:320,3,105,0|0|0|8
328,336,113249,1,0
240,336,113437,2,0,B|128:336,3,105,0|0|8|0
128,256,114187,2,0,B|256:256,1,105
224,176,114562,6,0,B|104:176,1,105,8|0
112,96,114937,1,0
320,216,115312,1,8
408,232,115499,2,0,B|384:304|304:296,1,105,0|0
176,232,116062,5,8
224,160,116249,1,0
280,96,116437,1,0
336,160,116624,1,0
280,224,116812,1,8
336,160,116999,5,0
392,224,117187,1,0
448,160,117374,1,0
392,96,117562,1,8
336,160,117749,1,0
256,192,117937,12,8,119437
256,192,119718,5,8
256,192,119812,1,8
256,192,120093,1,8
256,192,120187,1,8
256,192,120468,1,8
256,192,120562,1,8
256,24,120937,1,8
336,48,121124,1,0
400,104,121312,1,8
456,168,121499,1,0
480,248,121687,1,8
400,256,121874,6,0,B|344:256,2,52.5,0|0|8
344,200,122249,2,0,B|288:200,2,52.5,0|0|8
288,136,122624,1,0
192,136,122812,1,10
152,200,122999,2,0,B|152:320,3,105,0|0|0|10
240,304,123749,1,0
328,304,123937,6,0,B|392:304|416:240,1,105
328,224,124312,2,0,B|368:160|312:120,1,105,10|0
328,304,124687,1,0
328,224,124874,1,8
328,136,125062,1,2
168,80,125437,6,0,B|96:80|96:144,1,105
176,152,125812,2,0,B|176:216|256:216,1,105,10|0
264,72,126187,1,0
96,136,126374,1,8
240,216,126562,1,2
416,208,126937,6,0,B|416:96,1,105
344,152,127312,2,0,B|344:280,1,105,10|0
504,248,127687,1,0
416,104,127874,1,8
344,256,128062,1,2
264,112,128437,5,0
160,344,128999,1,0
408,320,129562,1,10
384,152,129937,2,0,B|368:80|296:72,1,105
256,128,130312,2,0,B|272:192|328:200,1,105,10|0
320,72,130687,1,0
144,240,130874,1,8
400,304,131062,1,2
480,152,131437,6,0,B|440:96|376:144,1,105
432,208,131812,2,0,B|376:248|328:184,1,105,10|0
400,144,132187,2,0,B|368:72|296:104,1,105,0|8
328,184,132562,2,0,B|328:248|400:248,1,105,2|0
480,248,132937,6,0,B|480:192|456:128,1,105
432,112,133218,1,0
400,88,133312,2,0,B|352:48|288:32,1,105,10|0
264,32,133593,1,0
224,32,133687,2,0,B|152:32,3,52.5,0|0|8|0
168,80,134062,2,0,B|112:80,3,52.5,2|0|0|0
128,120,134437,6,0,B|128:240,1,105
216,224,134812,2,0,B|216:112,1,105,10|0
304,120,135187,2,0,B|304:240,1,105
392,224,135562,2,0,B|392:104,1,105,10|0
504,224,135937,1,0
392,344,136124,1,0
224,344,136312,1,10
112,232,136499,1,0
144,152,136687,2,0,B|160:216|224:240,1,105,0|8
376,176,137062,2,0,B|368:120|288:88,1,105,2|0
208,232,137437,6,0,B|264:272|328:248,1,105
312,96,137812,2,0,B|256:72|176:80,1,105,10|0
312,256,138187,2,0,B|376:240|392:192,1,105,0|8
208,80,138562,2,0,B|152:104|128:160,1,105,2|0
344,152,138937,5,0
179,180,139124,1,0
312,96,139312,1,10
208,232,139499,1,0
208,80,139687,5,0
312,256,139874,1,8
136,152,140062,1,2
368,200,140249,1,0
368,200,140437,6,0,B|336:136|256:192,1,105,0|0
224,240,140812,2,0,B|192:312|288:328,1,105,10|0
344,336,141187,2,0,B|432:328|392:256,1,105
368,200,141562,2,0,B|336:136|256:192,1,105,10|0
200,192,141937,2,0,B|144:208|104:152,1,105
96,72,142312,2,0,B|120:8|192:16,1,105,10|0
256,40,142687,2,0,B|304:96|248:136,3,105,0|8|2|0
200,200,143437,5,0
96,72,143624,1,0
256,40,143812,1,10
368,168,143999,1,0
296,336,144187,1,0
152,344,144374,1,0
48,240,144562,1,10
200,200,144749,1,0
264,256,144937,5,0
344,232,145124,1,0
384,216,145218,1,0
416,184,145312,1,8
344,64,145499,1,0
304,80,145593,1,0
272,104,145687,1,8
344,232,145874,2,0,B|416:240|424:168,2,105,8|8|0
264,256,146437,6,0,B|192:280|160:304|120:352,1,157.5,4|0
80,272,147187,2,0,B|120:224|184:200,3,105,0|0|8|0
232,168,147937,6,0,B|320:104|440:112,1,210,0|8
430,111,148499,1,0
432,192,148687,1,0
408,224,148780,1,0
376,248,148874,1,0
296,280,149062,2,0,B|224:304|160:304,1,105,10|0
112,304,149437,6,0,B|112:184|192:80,1,210,0|8
248,64,149999,1,0
328,40,150187,1,0
368,32,150280,1,0
408,32,150374,1,0
464,96,150562,2,0,B|456:160|408:200,1,105,10|0
344,152,150937,6,0,B|224:192|144:280,1,210,0|8
96,312,151499,1,0
176,344,151687,1,0
216,352,151780,1,0
256,352,151874,1,0
336,344,152062,2,0,B|408:320|424:248,1,105,10|0
256,192,152437,12,0,153749
144,128,153937,6,0,B|256:72|376:104,1,210,0|8
432,120,154499,1,0
384,192,154687,2,0,B|320:160|264:192,3,105,0|0|10|0
328,256,155437,6,0,B|232:288|96:248,1,210,0|8
64,192,155999,1,0
120,128,156187,2,0,B|240:104|352:152,1,210,0|10
384,208,156749,1,0
336,280,156937,5,0
256,312,157124,1,8
216,328,157218,1,8
176,328,157312,1,8
96,296,157499,1,8
64,272,157593,1,8
40,240,157687,1,8
24,160,157874,1,8
48,80,158062,2,0,B|88:24|160:24,1,105,8|0
216,24,158437,6,0,B|296:8|344:32,1,105
408,56,158812,2,0,B|472:88|488:144,1,105,8|0
482,127,159187,1,0
440,240,159374,1,2
304,224,159562,1,10
296,88,159749,1,0
216,72,159937,6,0,B|88:96|56:216,1,210,0|8
216,224,160499,1,0
200,304,160687,2,0,B|280:320|304:224,1,105,0|10
296,184,161062,2,0,B|272:128|176:144,1,105,10|0
128,168,161437,6,0,B|200:248|328:280,1,210
392,272,161999,1,0
464,232,162187,2,0,B|488:168|440:112,1,105,0|10
392,184,162562,2,0,B|360:240|416:304,1,105,10|0
312,280,162937,6,0,B|200:248|104:160,1,210,0|8
176,112,163499,1,0
264,112,163687,2,0,B|392:112,1,105,0|2
264,192,164062,2,0,B|152:192,1,105,10|0
152,272,164437,6,0,B|72:256|72:192,1,105
152,184,164812,2,0,B|152:120|224:112,1,105,8|0
232,288,165187,1,0
72,208,165374,1,0
216,112,165562,1,10
384,184,165749,1,0
456,224,165937,6,0,B|408:272|352:256,1,105
312,144,166312,2,0,B|352:88|424:104,1,105,8|0
384,184,166687,2,0,B|384:248|328:288,1,105,0|8
280,224,167062,2,0,B|224:192|224:120,1,105,10|0
256,72,167437,6,0,B|208:160|304:128|256:224,1,157.5,0|0
184,176,168187,2,0,B|344:176,2,157.5
184,264,168937,2,0,B|360:264,2,157.5
184,352,169687,2,0,B|360:352,2,157.5
136,288,170437,6,0,B|144:216|192:184,1,105
208,168,170718,1,0
248,144,170812,1,0
288,128,170905,1,0
328,120,170999,1,0
408,112,171187,1,0
256,192,171562,12,8,174937
